osu file format v14

[General]
AudioFilename: audio.mp3
AudioLeadIn: 0
PreviewTime: 49108
Countdown: 0
SampleSet: Soft
StackLeniency: 0.5
Mode: 0
LetterboxInBreaks: 0
WidescreenStoryboard: 1

[Editor]
Bookmarks: 12716,52167,83640,86415,86588,86762,91617,91791,91964
DistanceSpacing: 0.2
BeatDivisor: 4
GridSize: 4
TimelineZoom: 2

[Metadata]
Title:FLOWER
TitleUnicode:FLOWER
Artist:DJ YOSHITAKA
ArtistUnicode:DJ YOSHITAKA
Creator:Cyanocitcho
Version:S_Saika's EXT
Source:jubeat knit APPEND
Tags:reflec beat ripples Electronic Instrumental beatmania IIDX tricoro BeatStream DANCE aROUND DanceDanceRevolution X3 VS 2ndMIX DanceEvolution ARCADE pack jukebeat KONAMI 01 jubeat saucer MÚSECA 1+1/2 pop'n music 20 fantasia plus + 10 SOUND VOLTEX III GRAVITY WARS ミライダガッキ FutureTomTom ポップンリズミン jubeatパック2 trance core トランスコア knit append fulaoer RB DDR GITADORA ミライダガッキ maimai GROOVE COASTER GC 太鼓の達人 CHUNITHM SDVX シンクロニカ MÚSECA ノスタルジア DANCERUSH STARDOM よしたかトルネード s_saika [W]hiteRBQ 033 LxH_cat flower __Ag Teages
BeatmapID:3846403
BeatmapSetID:1818629

[Difficulty]
HPDrainRate:5
CircleSize:4.5
OverallDifficulty:8.5
ApproachRate:9.1
SliderMultiplier:1.6
SliderTickRate:1

[Events]
//Background and Video events
0,0,"flower.jpg",0,0
//Break Periods
2,6129,9909
2,86937,91612
//Storyboard Layer 0 (Background)
//Storyboard Layer 1 (Fail)
//Storyboard Layer 2 (Pass)
//Storyboard Layer 3 (Foreground)
//Storyboard Layer 4 (Overlay)
//Storyboard Sound Samples

[TimingPoints]
727,346.820809248555,4,2,7,70,1,0
3501,-125,4,2,7,70,0,0
5929,-125,4,2,7,80,0,0
11825,-125,4,2,7,60,0,0
15292,-125,4,2,7,60,0,0
15466,-125,4,2,7,70,0,0
16160,-100,4,2,7,70,0,0
16420,-100,4,2,7,5,0,0
16507,-100,4,2,7,70,0,0
16680,-100,4,2,7,45,0,0
16911,-100,4,2,7,45,0,0
17200,-100,4,2,7,70,0,0
28125,-75.187969924812,4,2,7,70,0,0
29513,-149.253731343284,4,2,7,70,0,0
31594,-100,4,2,7,70,0,0
34454,-100,4,2,7,70,0,0
34541,-100,4,2,7,70,0,0
34715,-100,4,2,7,65,0,0
34801,-100,4,2,7,70,0,0
34975,-100,4,2,7,65,0,0
35062,-100,4,2,7,70,0,0
35235,-100,4,2,7,65,0,0
35409,-100,4,2,7,70,0,0
35842,-100,4,2,7,70,0,0
36102,-100,4,2,7,65,0,0
36188,-100,4,2,7,65,0,0
36362,-100,4,2,7,65,0,0
36449,-100,4,2,7,70,0,0
36622,-100,4,2,7,65,0,0
36796,-100,4,2,7,70,0,0
37229,-100,4,2,7,70,0,0
37490,-100,4,2,7,65,0,0
37576,-100,4,2,7,65,0,0
37750,-100,4,2,7,65,0,0
37836,-100,4,2,7,70,0,0
38009,-100,4,2,7,65,0,0
38183,-100,4,2,7,70,0,0
38616,-100,4,2,7,70,0,0
38877,-100,4,2,7,65,0,0
39224,-81.9672131147541,4,2,7,65,0,0
39397,-81.9672131147541,4,2,7,65,0,0
39570,-81.9672131147541,4,2,7,80,0,0
39744,-81.9672131147541,4,2,7,70,0,0
39917,-100,4,2,7,70,0,0
45293,-200,4,2,7,70,0,0
45466,-200,4,2,7,65,0,0
45553,-200,4,2,7,65,0,0
45813,-200,4,2,7,70,0,0
45987,-200,4,2,7,70,0,0
46160,-200,4,2,7,65,0,0
46247,-200,4,2,7,65,0,0
46507,-200,4,2,7,70,0,0
46680,-200,4,2,7,70,0,0
46853,-200,4,2,7,65,0,0
46940,-200,4,2,7,65,0,0
47200,-200,4,2,7,70,0,0
47374,-200,4,2,7,70,0,0
47547,-200,4,2,7,65,0,0
47634,-200,4,2,7,65,0,0
47894,-111.111111111111,4,2,7,70,0,0
48674,-111.111111111111,4,2,7,70,0,0
48935,-50,4,2,7,80,0,0
49108,-50,4,2,7,80,0,0
49281,-66.6666666666667,4,2,7,70,0,1
49454,-66.6666666666667,4,2,7,5,0,1
49542,-66.6666666666667,4,2,7,70,0,1
49715,-66.6666666666667,4,2,7,5,0,1
49802,-66.6666666666667,4,2,7,70,0,1
49975,-66.6666666666667,4,2,7,5,0,1
50062,-66.6666666666667,4,2,7,70,0,1
50235,-66.6666666666667,4,2,7,5,0,1
50322,-66.6666666666667,4,2,7,70,0,1
50929,-66.6666666666667,4,2,7,70,0,1
51189,-80,4,2,7,80,0,1
72692,-80,4,2,7,80,0,1
72865,-66.6666666666667,4,2,7,50,0,0
73038,-66.6666666666667,4,2,7,5,0,0
73125,-66.6666666666667,4,2,7,50,0,0
73299,-66.6666666666667,4,2,7,5,0,0
73385,-66.6666666666667,4,2,7,50,0,0
73558,-66.6666666666667,4,2,7,50,0,0
73645,-66.6666666666667,4,2,7,50,0,0
73819,-66.6666666666667,4,2,7,5,0,0
73906,-66.6666666666667,4,2,7,50,0,0
75293,-66.6666666666667,4,2,7,60,0,0
75640,-41.6666666666667,4,2,7,50,0,0
75813,-41.6666666666667,4,2,7,50,0,0
75900,-41.6666666666667,4,2,7,50,0,0
76073,-41.6666666666667,4,2,7,50,0,0
76160,-41.6666666666667,4,2,7,50,0,0
76333,-41.6666666666667,4,2,7,50,0,0
76420,-41.6666666666667,4,2,7,50,0,0
76594,-41.6666666666667,4,2,7,50,0,0
76680,-41.6666666666667,4,2,7,50,0,0
78068,-41.6666666666667,4,2,7,60,0,0
78414,-41.6666666666667,4,2,7,50,0,0
78588,-41.6666666666667,4,2,7,50,0,0
78674,-41.6666666666667,4,2,7,50,0,0
78848,-41.6666666666667,4,2,7,50,0,0
78935,-41.6666666666667,4,2,7,50,0,0
79108,-41.6666666666667,4,2,7,50,0,0
79195,-41.6666666666667,4,2,7,50,0,0
79368,-41.6666666666667,4,2,7,50,0,0
79455,-41.6666666666667,4,2,7,50,0,0
80842,-41.6666666666667,4,2,7,60,0,0
81189,-66.6666666666667,4,2,7,50,0,0
81362,-66.6666666666667,4,2,7,5,0,0
81450,-66.6666666666667,4,2,7,50,0,0
81622,-66.6666666666667,4,2,7,5,0,0
81709,-66.6666666666667,4,2,7,50,0,0
81883,-66.6666666666667,4,2,7,50,0,0
81970,-66.6666666666667,4,2,7,50,0,0
82143,-66.6666666666667,4,2,7,5,0,0
82230,-66.6666666666667,4,2,7,50,0,0
83617,-66.6666666666667,4,2,7,70,0,0
83963,-149.253731343284,4,2,7,70,0,0
86737,-149.253731343284,4,2,7,50,0,0
92287,-116.279069767442,4,2,7,70,0,0
95062,-133.333333333333,4,2,7,70,0,0
96709,-133.333333333333,4,2,7,70,0,0
96969,-133.333333333333,4,2,7,70,0,0
97663,-133.333333333333,4,2,7,70,0,0
97836,-133.333333333333,4,2,7,80,0,1
98010,-80,4,2,7,80,0,1
108761,-80,4,2,7,80,0,1
108935,-66.6666666666667,4,2,7,60,0,0
109108,-66.6666666666667,4,2,7,5,0,0
109196,-66.6666666666667,4,2,7,60,0,0
109368,-66.6666666666667,4,2,7,5,0,0
109455,-66.6666666666667,4,2,7,60,0,0
109629,-66.6666666666667,4,2,7,60,0,0
109716,-66.6666666666667,4,2,7,60,0,0
109888,-66.6666666666667,4,2,7,5,0,0
109975,-66.6666666666667,4,2,7,60,0,0
111362,-66.6666666666667,4,2,7,70,0,0
111709,-41.6666666666667,4,2,7,60,0,0
111883,-41.6666666666667,4,2,7,60,0,0
111969,-41.6666666666667,4,2,7,60,0,0
112143,-41.6666666666667,4,2,7,60,0,0
112229,-41.6666666666667,4,2,7,60,0,0
112403,-41.6666666666667,4,2,7,60,0,0
112490,-41.6666666666667,4,2,7,60,0,0
112663,-41.6666666666667,4,2,7,60,0,0
112750,-41.6666666666667,4,2,7,60,0,0
114137,-41.6666666666667,4,2,7,70,0,0
114484,-41.6666666666667,4,2,7,60,0,0
114657,-41.6666666666667,4,2,7,60,0,0
114744,-41.6666666666667,4,2,7,60,0,0
114917,-41.6666666666667,4,2,7,60,0,0
115004,-41.6666666666667,4,2,7,60,0,0
115177,-41.6666666666667,4,2,7,60,0,0
115264,-41.6666666666667,4,2,7,60,0,0
115437,-41.6666666666667,4,2,7,60,0,0
115524,-41.6666666666667,4,2,7,60,0,0
116912,-41.6666666666667,4,2,7,70,0,0
117258,-66.6666666666667,4,2,7,60,0,0
117431,-66.6666666666667,4,2,7,5,0,0
117518,-66.6666666666667,4,2,7,60,0,0
117692,-66.6666666666667,4,2,7,5,0,0
117779,-66.6666666666667,4,2,7,60,0,0
117951,-66.6666666666667,4,2,7,60,0,0
118038,-66.6666666666667,4,2,7,60,0,0
118212,-66.6666666666667,4,2,7,5,0,0
118299,-66.6666666666667,4,2,7,60,0,0

[Colours]
Combo1 : 128,128,128
Combo2 : 192,192,192
Combo3 : 0,64,128
Combo4 : 0,128,192
Combo5 : 0,232,232

[HitObjects]
256,192,727,12,0,3154,2:0:0:0:
92,0,3501,6,0,P|84:31|93:77,1,64,0|0,3:2|2:0,0:0:0:0:
164,109,3848,1,0,1:2:0:0:
236,86,4021,1,0,2:0:0:0:
280,148,4195,1,0,1:2:0:0:
235,209,4368,1,0,1:2:0:0:
162,183,4542,1,0,1:2:0:0:
102,249,4715,2,0,L|99:273,4,16,0|0|0|0|0,3:2|2:0|3:2|2:0|3:2,0:0:0:0:
256,192,5062,12,0,5929,1:2:0:0:
113,35,11825,6,0,L|187:46,1,64,2|0,2:0|2:0,0:0:0:0:
265,57,12172,1,2,2:0:0:0:
265,57,12345,1,2,2:0:0:0:
457,110,12692,5,2,2:0:0:0:
381,119,12866,1,2,2:0:0:0:
305,128,13039,1,2,2:0:0:0:
91,173,13385,5,2,2:0:0:0:
167,182,13559,1,2,2:0:0:0:
243,191,13732,1,2,2:0:0:0:
457,240,14079,5,2,2:0:0:0:
381,249,14253,1,2,2:0:0:0:
305,258,14426,1,2,2:0:0:0:
305,258,14599,2,0,L|291:343,1,64,2|0,2:0|2:0,0:0:0:0:
213,264,14946,2,0,L|200:349,2,64,2|0|0,2:0|2:0|2:0,0:0:0:0:
134,185,15466,5,2,2:0:0:0:
231,131,15640,1,2,2:0:0:0:
310,210,15813,1,2,2:0:0:0:
213,264,15987,5,2,2:0:0:0:
134,185,16160,2,0,P|109:137|46:151,1,120,2|0,2:0|2:0,0:0:0:0:
39,164,16507,1,2,2:0:0:0:
172,12,16680,6,0,L|168:42,9,26.6666666666667,2|0|0|0|0|0|0|0|0|0,2:0|2:0|2:0|2:0|2:0|2:0|2:0|2:0|2:0|2:0,0:0:0:0:
270,109,17374,6,0,P|365:122|381:124,1,80,2|0,3:2|2:0,0:0:0:0:
487,129,17721,2,0,L|478:184,2,40,2|2|2,2:0|2:0|2:0,0:0:0:0:
428,302,18068,2,0,L|434:262,2,40,2|0|0,2:0|2:0|2:0,0:0:0:0:
441,339,18328,2,0,P|397:311|331:321,1,120,2|2,2:0|2:0,0:0:0:0:
221,366,18761,6,0,L|141:356,1,80,2|0,2:0|2:0,0:0:0:0:
24,348,19108,2,0,L|19:295,2,40,2|2|2,2:0|2:0|2:0,0:0:0:0:
113,204,19455,2,0,L|108:257,2,40,2|0|0,2:0|2:0|2:0,0:0:0:0:
97,166,19715,2,0,P|147:177|206:145,1,120,2|2,2:0|2:0,0:0:0:0:
403,136,20148,6,0,L|323:126,1,80,2|0,2:0|2:0,0:0:0:0:
250,39,20495,2,0,L|243:-3,2,40,2|2|2,2:0|2:0|2:0,0:0:0:0:
205,145,20842,2,0,L|211:187,2,40,2|0|0,2:0|2:0|2:0,0:0:0:0:
172,121,21102,2,0,P|120:111|63:145,1,120,2|2,2:0|2:0,0:0:0:0:
143,277,21536,6,0,L|131:188,1,80,2|0,2:0|2:0,0:0:0:0:
231,343,21883,2,0,L|224:385,2,40,2|2|2,2:0|2:0|2:0,0:0:0:0:
326,290,22229,1,2,2:0:0:0:
346,292,22316,1,2,2:0:0:0:
365,294,22402,1,2,2:0:0:0:
385,298,22490,1,2,2:0:0:0:
405,300,22576,2,0,L|454:306,2,40,2|0|0,2:0|2:0|2:0,0:0:0:0:
512,211,22923,5,2,2:0:0:0:
433,123,23096,1,2,2:0:0:0:
433,123,23183,1,2,2:0:0:0:
433,123,23270,2,0,L|437:77,2,40,2|0|0,2:0|2:0|2:0,0:0:0:0:
334,178,23617,2,0,L|330:217,2,40,2|0|0,2:0|2:0|2:0,0:0:0:0:
320,140,23877,2,0,B|281:150|281:150|203:123,1,120,2|2,2:0|2:0,0:0:0:0:
205,123,24310,5,2,2:0:0:0:
102,77,24484,1,2,2:0:0:0:
102,77,24570,1,2,2:0:0:0:
102,77,24657,2,0,L|42:79,2,40,2|0|0,2:0|2:0|2:0,0:0:0:0:
117,196,25004,2,0,L|156:194,2,40,2|0|0,2:0|2:0|2:0,0:0:0:0:
89,225,25264,2,0,B|79:264|79:264|106:342,1,120,2|2,2:0|2:0,0:0:0:0:
105,339,25698,5,2,2:0:0:0:
204,282,25871,1,2,2:0:0:0:
204,282,25958,1,2,2:0:0:0:
204,282,26044,2,0,L|255:287,2,40,2|0|0,2:0|2:0|2:0,0:0:0:0:
374,355,26391,2,0,L|334:351,2,40,2|0|0,2:0|2:0|2:0,0:0:0:0:
411,339,26651,2,0,B|437:263|437:263|427:224,1,120,2|2,2:0|2:0,0:0:0:0:
427,224,27085,5,2,2:0:0:0:
376,116,27258,1,2,2:0:0:0:
378,96,27345,1,2,2:0:0:0:
380,76,27432,2,0,L|386:31,2,40,2|0|0,2:0|2:0|2:0,0:0:0:0:
252,107,27779,1,2,2:0:0:0:
224,104,27865,1,2,2:0:0:0:
196,101,27952,1,2,2:0:0:0:
167,98,28039,1,2,2:0:0:0:
139,79,28125,2,0,P|84:98|65:142,1,106.399995616455,2|0,2:0|2:0,0:0:0:0:
157,262,28472,5,2,3:2:0:0:
139,79,28819,1,2,1:2:0:0:
154,236,29166,1,2,2:0:0:0:
152,210,29253,1,2,2:0:0:0:
150,184,29339,1,2,2:0:0:0:
147,158,29426,1,2,2:0:0:0:
144,132,29513,2,0,L|141:105,2,26.7999987322999,2|0|0,1:2|2:0|2:0,0:0:0:0:
98,310,29859,5,2,2:0:0:0:
281,292,30206,1,2,1:2:0:0:
124,307,30553,1,2,2:0:0:0:
150,305,30640,1,2,2:0:0:0:
176,303,30726,1,2,2:0:0:0:
202,300,30813,1,2,2:0:0:0:
228,297,30900,2,0,L|265:294,2,26.7999987322999,2|0|0,1:2|2:0|2:0,0:0:0:0:
348,373,31247,5,2,2:0:0:0:
459,305,31420,1,2,2:0:0:0:
459,305,31507,1,2,2:0:0:0:
459,305,31594,2,0,L|449:353,2,40,2|2|2,1:2|2:0|2:0,0:0:0:0:
483,187,31940,2,0,L|436:178,3,40,2|2|2|2,2:0|2:0|2:0|2:0,0:0:0:0:
425,144,32287,2,0,P|417:90|393:63,1,80,2|2,1:2|2:0,0:0:0:0:
305,140,32634,5,2,2:0:0:0:
210,82,32807,1,2,2:0:0:0:
210,82,32894,1,2,2:0:0:0:
210,82,32981,2,0,L|204:30,2,40,2|2|2,1:2|2:0|2:0,0:0:0:0:
115,142,33328,1,2,2:0:0:0:
114,122,33414,1,2,2:0:0:0:
14,104,33588,1,2,2:0:0:0:
15,123,33674,2,0,L|19:217,1,80,2|2,1:2|2:0,0:0:0:0:
126,253,34021,5,2,2:0:0:0:
121,149,34195,1,2,2:0:0:0:
121,149,34281,1,2,2:0:0:0:
121,149,34368,2,0,L|116:101,2,40,2|2|2,1:2|2:0|2:0,0:0:0:0:
222,76,34715,2,0,L|218:126,3,40,2|2|2|2,2:0|2:0|2:0|2:0,0:0:0:0:
245,146,35062,2,0,P|299:154|326:178,1,80,2|2,1:2|2:0,0:0:0:0:
249,266,35409,5,2,2:0:0:0:
170,313,35583,1,2,2:0:0:0:
170,313,35669,1,2,2:0:0:0:
170,313,35756,2,0,L|165:361,2,40,2|2|2,1:2|2:0|2:0,0:0:0:0:
46,254,36102,2,0,L|98:247,3,40,2|2|2|2,2:0|2:0|2:0|2:0,0:0:0:0:
113,219,36449,2,0,L|123:116,1,80,2|2,1:2|2:0,0:0:0:0:
52,59,36796,5,2,2:0:0:0:
174,42,36969,1,2,2:0:0:0:
174,42,37056,1,2,2:0:0:0:
174,42,37143,2,0,L|223:50,2,40,2|2|2,1:2|2:0|2:0,0:0:0:0:
300,141,37490,2,0,L|306:101,3,40,2|2|2|2,2:0|2:0|2:0|2:0,0:0:0:0:
330,70,37836,2,0,L|429:60,1,80,2|2,1:2|2:0,0:0:0:0:
415,189,38183,5,2,2:0:0:0:
300,141,38357,1,2,2:0:0:0:
280,145,38443,1,2,2:0:0:0:
260,148,38530,2,0,L|206:158,2,40,2|2|2,1:2|2:0|2:0,0:0:0:0:
68,229,38877,6,0,L|118:219,1,40,2|0,2:0|2:0,0:0:0:0:
82,309,39050,2,0,L|42:316,1,40,2|0,2:0|2:0,0:0:0:0:
103,384,39224,6,0,L|209:361,1,97.5999959790041,2|2,1:2|2:0,0:0:0:0:
198,363,39570,5,6,3:2:0:0:
82,309,39744,1,2,2:0:0:0:
78,289,39831,1,2,2:0:0:0:
75,269,39917,2,0,L|66:218,2,40,2|2|2,1:2|2:0|2:0,0:0:0:0:
40,98,40264,1,2,2:0:0:0:
36,104,40351,1,2,2:0:0:0:
33,111,40437,1,2,3:2:0:0:
30,118,40524,1,2,2:0:0:0:
44,140,40611,2,0,L|126:147,1,80,2|2,1:2|2:0,0:0:0:0:
123,146,40958,5,2,3:2:0:0:
254,80,41131,1,2,2:0:0:0:
252,100,41218,1,2,2:0:0:0:
250,120,41305,2,0,L|246:165,2,40,2|2|2,1:2|2:0|2:0,0:0:0:0:
196,315,41651,1,2,3:2:0:0:
194,308,41737,1,2,2:0:0:0:
192,301,41824,1,2,3:2:0:0:
191,296,41911,1,2,2:0:0:0:
207,274,41998,2,0,L|290:265,1,80,2|2,1:2|3:2,0:0:0:0:
286,266,42345,5,6,3:2:0:0:
401,325,42518,1,2,3:2:0:0:
403,305,42605,1,2,2:0:0:0:
405,285,42692,2,0,L|409:240,2,40,2|2|2,1:2|2:0|3:2,0:0:0:0:
402,71,43039,1,2,3:2:0:0:
402,79,43125,1,2,2:0:0:0:
402,87,43212,1,2,3:2:0:0:
403,95,43299,1,2,2:0:0:0:
420,112,43385,2,0,L|305:129,1,80,2|2,1:2|3:2,0:0:0:0:
340,124,43732,5,2,3:2:0:0:
205,108,43906,1,2,3:2:0:0:
181,104,43992,1,2,2:0:0:0:
157,100,44079,2,0,L|97:90,2,40,2|2|2,1:2|2:0|3:2,0:0:0:0:
27,183,44426,1,2,3:2:0:0:
24,174,44513,1,2,2:0:0:0:
22,165,44599,1,2,3:2:0:0:
19,157,44686,1,2,2:0:0:0:
15,149,44773,2,0,L|-2:256,1,80,2|2,1:2|3:2,0:0:0:0:
244,287,45119,5,6,3:2:0:0:
117,93,45293,2,0,L|100:67,4,20,2|2|2|2|2,3:2|2:0|1:2|2:0|3:2,0:0:0:0:
158,306,45813,5,2,3:2:0:0:
205,79,45987,2,0,L|211:48,4,20,2|2|2|2|2,3:2|2:0|1:2|2:0|3:2,0:0:0:0:
83,258,46506,5,2,3:2:0:0:
277,131,46680,2,0,L|302:114,4,20,2|2|2|2|2,3:2|2:0|1:2|2:0|3:2,0:0:0:0:
72,169,47200,5,2,3:2:0:0:
297,218,47374,2,0,L|327:224,4,20,2|2|2|2|2,3:2|2:0|1:2|2:0|3:2,0:0:0:0:
77,312,47894,6,0,P|73:292|79:264,3,35.9999989013672,2|2|2|2,3:2|3:2|3:2|3:2,0:0:0:0:
83,258,48241,5,2,3:2:0:0:
103,254,48328,1,2,3:2:0:0:
106,233,48414,1,2,3:2:0:0:
88,223,48501,1,2,3:2:0:0:
73,238,48587,5,2,3:2:0:0:
25,250,48674,5,2,3:2:0:0:
3,207,48761,5,2,3:2:0:0:
37,172,48848,5,2,3:2:0:0:
76,191,48935,6,0,P|101:110|183:105,1,160,6|0,1:2|2:0,0:0:0:0:
346,197,49281,6,0,B|395:227|392:264|392:264|362:264|333:236,1,120.000004577637,6|0,3:2|2:0,0:0:0:0:
279,279,49542,2,0,B|265:335|229:343|229:343|220:315|237:278,1,120.000004577637,6|0,3:2|2:0,0:0:0:0:
180,240,49802,2,0,B|122:245|103:213|103:213|127:196|167:201,1,120.000004577637,6|0,3:2|2:0,0:0:0:0:
186,135,50062,2,0,B|164:81|188:53|188:53|212:71|219:111,1,120.000004577637,6|0,3:2|2:0,0:0:0:0:
347,112,50322,6,0,B|357:113|366:84|366:84|332:70|288:106,1,120.000004577637,6|6,3:2|3:2,0:0:0:0:
279,279,50669,5,6,3:2:0:0:
366,381,50842,1,2,2:0:0:0:
370,351,50929,1,2,2:0:0:0:
374,321,51016,1,2,1:2:0:0:
378,291,51102,1,2,2:0:0:0:
408,266,51189,2,0,L|416:202,1,50,2|0,2:0|2:0,0:0:0:0:
352,141,51362,1,2,3:2:0:0:
352,141,51449,1,2,2:0:0:0:
352,141,51536,2,0,L|401:135,2,50,2|2|2,2:0|2:0|3:2,0:0:0:0:
177,150,51883,1,2,2:0:0:0:
177,150,51969,1,2,2:0:0:0:
177,150,52056,5,2,3:2:0:0:
70,83,52229,1,2,2:0:0:0:
65,112,52316,1,2,2:0:0:0:
60,141,52403,1,2,1:2:0:0:
56,170,52490,1,2,2:0:0:0:
74,203,52576,2,0,L|66:252,1,50,2|0,2:0|2:0,0:0:0:0:
6,326,52750,2,0,L|62:336,3,50,2|2|2|2,3:2|2:0|2:0|2:0,0:0:0:0:
139,307,53096,2,0,L|188:298,3,50,2|2|2|2,3:2|2:0|2:0|2:0,0:0:0:0:
284,340,53443,5,6,3:2:0:0:
447,274,53617,1,2,2:0:0:0:
417,272,53703,1,2,2:0:0:0:
386,270,53790,1,2,1:2:0:0:
355,268,53877,1,2,2:0:0:0:
326,239,53963,2,0,L|258:233,1,50,2|0,2:0|2:0,0:0:0:0:
189,298,54137,1,2,3:2:0:0:
189,298,54224,2,0,L|193:248,1,50,2|0,2:0|2:0,0:0:0:0:
174,212,54397,1,2,2:0:0:0:
174,212,54484,2,0,P|136:179|68:184,1,100,2|2,3:2|2:0,0:0:0:0:
159,91,54831,5,2,3:2:0:0:
113,256,55004,1,2,2:0:0:0:
113,256,55091,2,0,L|97:315,1,50,2|0,2:0|3:2,0:0:0:0:
200,306,55264,1,2,2:0:0:0:
200,306,55351,2,0,L|184:365,1,50,2|0,2:0|2:0,0:0:0:0:
277,241,55524,2,0,L|343:235,3,50,2|2|2|2,3:2|2:0|2:0|2:0,0:0:0:0:
410,310,55871,1,2,3:2:0:0:
410,310,55958,2,0,L|400:376,2,50,2|2|2,2:0|2:0|2:0,0:0:0:0:
512,277,56218,5,6,3:2:0:0:
326,236,56391,1,2,2:0:0:0:
296,231,56478,1,2,2:0:0:0:
266,226,56565,1,2,1:2:0:0:
236,221,56651,1,2,2:0:0:0:
205,246,56738,2,0,L|122:230,1,50,2|0,2:0|2:0,0:0:0:0:
117,157,56911,1,2,3:2:0:0:
117,157,56998,1,2,2:0:0:0:
117,157,57085,2,0,L|68:166,2,50,2|2|2,2:0|2:0|3:2,0:0:0:0:
218,62,57432,1,2,2:0:0:0:
218,62,57518,1,2,2:0:0:0:
218,62,57605,5,2,3:2:0:0:
278,156,57779,1,2,2:0:0:0:
253,170,57865,1,2,2:0:0:0:
224,177,57952,1,2,1:2:0:0:
195,173,58039,1,2,2:0:0:0:
167,161,58125,2,0,L|118:158,1,50,2|0,2:0|2:0,0:0:0:0:
34,123,58299,2,0,L|25:175,3,50,2|2|2|2,3:2|2:0|2:0|2:0,0:0:0:0:
90,239,58646,2,0,L|81:291,3,50,2|2|2|2,3:2|2:0|2:0|2:0,0:0:0:0:
7,368,58992,5,6,3:2:0:0:
236,329,59166,1,2,2:0:0:0:
241,299,59252,1,2,2:0:0:0:
256,273,59339,1,2,1:2:0:0:
279,254,59426,1,2,2:0:0:0:
307,244,59513,2,0,L|361:251,1,50,2|0,2:0|2:0,0:0:0:0:
498,176,59686,1,2,3:2:0:0:
498,176,59773,2,0,L|448:182,1,50,2|0,2:0|2:0,0:0:0:0:
427,154,59946,1,2,2:0:0:0:
427,154,60033,2,0,P|386:120|318:126,1,100,2|2,3:2|2:0,0:0:0:0:
416,47,60380,5,2,3:2:0:0:
364,201,60553,1,2,2:0:0:0:
364,201,60640,2,0,L|356:250,1,50,2|0,2:0|3:2,0:0:0:0:
433,301,60813,1,2,2:0:0:0:
433,301,60900,2,0,L|421:371,1,50,2|0,2:0|2:0,0:0:0:0:
336,381,61073,2,0,L|285:374,3,50,2|2|2|2,3:2|2:0|2:0|2:0,0:0:0:0:
179,316,61420,1,2,3:2:0:0:
179,316,61507,2,0,L|228:309,2,50,2|2|2,2:0|2:0|2:0,0:0:0:0:
98,383,61767,5,6,3:2:0:0:
15,260,61940,1,2,2:0:0:0:
45,256,62027,1,2,2:0:0:0:
75,250,62113,1,2,1:2:0:0:
105,245,62200,1,2,2:0:0:0:
132,217,62287,2,0,L|190:206,1,50,2|0,2:0|2:0,0:0:0:0:
278,227,62461,1,2,3:2:0:0:
278,227,62547,1,2,2:0:0:0:
278,227,62634,2,0,L|283:154,2,50,2|2|2,2:0|2:0|3:2,0:0:0:0:
210,112,62981,1,2,2:0:0:0:
210,112,63068,1,2,2:0:0:0:
210,112,63154,5,2,3:2:0:0:
385,139,63328,1,2,2:0:0:0:
415,143,63415,1,2,2:0:0:0:
445,149,63501,1,2,1:2:0:0:
475,154,63588,1,2,2:0:0:0:
503,184,63675,2,0,L|494:241,1,50,2|0,2:0|2:0,0:0:0:0:
512,340,63848,2,0,L|462:332,3,50,2|2|2|2,3:2|2:0|2:0|2:0,0:0:0:0:
356,272,64195,2,0,L|405:264,3,50,2|2|2|2,3:2|2:0|2:0|2:0,0:0:0:0:
382,355,64542,5,6,3:2:0:0:
342,186,64715,1,2,2:0:0:0:
313,193,64801,1,2,2:0:0:0:
289,211,64888,1,2,1:2:0:0:
276,237,64975,1,2,2:0:0:0:
269,267,65062,2,0,L|274:333,1,50,2|0,2:0|2:0,0:0:0:0:
202,384,65235,1,2,3:2:0:0:
202,384,65322,2,0,L|197:311,1,50,2|0,2:0|2:0,0:0:0:0:
176,303,65495,1,2,2:0:0:0:
176,303,65582,2,0,P|129:289|74:306,1,100,2|2,3:2|2:0,0:0:0:0:
0,186,65929,5,2,3:2:0:0:
78,85,66102,1,2,2:0:0:0:
78,85,66189,2,0,L|144:80,1,50,2|0,2:0|3:2,0:0:0:0:
213,123,66362,1,2,2:0:0:0:
213,123,66449,2,0,L|279:118,1,50,2|0,2:0|2:0,0:0:0:0:
362,84,66622,2,0,L|356:144,3,50,2|2|2|2,3:2|2:0|2:0|2:0,0:0:0:0:
429,224,66969,1,2,3:2:0:0:
429,224,67056,2,0,L|424:174,2,50,2|2|2,2:0|2:0|2:0,0:0:0:0:
494,307,67316,6,0,L|403:301,1,50,6|0,3:2|2:0,0:0:0:0:
417,377,67490,2,0,L|326:371,1,50,2|2,2:0|2:0,0:0:0:0:
347,272,67663,2,0,L|256:278,1,50,0|2,1:2|2:0,0:0:0:0:
273,349,67836,2,0,L|182:355,1,50,2|2,2:0|2:0,0:0:0:0:
146,297,68010,1,2,3:2:0:0:
142,267,68096,1,2,2:0:0:0:
138,237,68183,1,2,2:0:0:0:
134,207,68270,1,2,2:0:0:0:
130,177,68357,2,0,L|119:101,1,50,2|0,3:2|2:0,0:0:0:0:
193,55,68530,2,0,L|200:104,1,50,2|0,2:0|2:0,0:0:0:0:
282,140,68703,6,0,L|361:126,1,50,6|2,3:2|2:0,0:0:0:0:
371,55,68877,2,0,L|450:41,1,50,2|2,2:0|2:0,0:0:0:0:
483,106,69050,2,0,L|469:185,1,50,0|2,3:2|2:0,0:0:0:0:
398,195,69224,2,0,L|384:274,1,50,2|2,2:0|2:0,0:0:0:0:
407,336,69397,1,2,3:2:0:0:
377,338,69483,1,2,2:0:0:0:
348,330,69570,1,2,2:0:0:0:
323,313,69657,1,2,2:0:0:0:
305,289,69744,2,0,L|314:228,1,50,2|0,3:2|2:0,0:0:0:0:
389,244,69917,2,0,L|398:183,1,50,2|0,2:0|2:0,0:0:0:0:
481,207,70091,5,6,3:2:0:0:
479,246,70177,1,2,2:0:0:0:
466,284,70264,1,2,2:0:0:0:
441,315,70351,1,2,2:0:0:0:
407,336,70437,1,2,3:2:0:0:
369,346,70524,1,2,2:0:0:0:
330,336,70611,2,0,L|263:332,1,50,2|0,2:0|2:0,0:0:0:0:
189,254,70784,5,6,3:2:0:0:
189,254,70871,2,0,L|256:250,1,50,2|0,2:0|2:0,0:0:0:0:
136,333,71044,1,2,2:0:0:0:
136,333,71131,2,0,L|69:329,2,50,2|2|2,3:2|2:0|2:0,0:0:0:0:
135,166,71478,5,6,3:2:0:0:
208,78,71651,1,2,2:0:0:0:
208,78,71738,2,0,L|141:74,1,50,2|0,2:0|2:0,0:0:0:0:
324,147,71911,1,2,2:0:0:0:
324,147,71998,2,0,L|256:147,1,50,2|0,2:0|2:0,0:0:0:0:
408,102,72172,5,2,3:2:0:0:
384,303,72345,5,2,3:2:0:0:
183,278,72518,5,2,3:2:0:0:
208,78,72692,5,2,3:2:0:0:
347,112,72865,6,0,B|357:113|366:84|366:84|332:70|288:107,1,120.000004577637,6|0,3:2|2:0,0:0:0:0:
208,78,73125,2,0,B|212:71|188:53|188:53|164:81|186:135,1,120.000004577637,6|0,3:2|2:0,0:0:0:0:
134,200,73385,2,0,B|127:196|103:213|103:213|122:245|180:240,1,120.000004577637,6|0,3:2|2:0,0:0:0:0:
227,309,73645,2,0,B|220:315|229:343|229:343|265:335|279:279,1,120.000004577637,6|0,3:2|2:0,0:0:0:0:
347,197,73906,6,0,B|395:227|392:264|392:264|362:264|359:255,1,120.000004577637,6|4,3:2|3:2,0:0:0:0:
256,192,74253,12,0,75466,0:0:0:0:
97,304,75640,6,0,P|118:379|148:298,1,191.999994140625,6|0,3:2|0:0,0:0:0:0:
175,331,75900,2,0,P|253:334|186:280,1,191.999994140625,6|0,3:2|0:0,0:0:0:0:
225,263,76161,2,0,P|251:189|179:236,1,191.999994140625,6|0,3:2|0:0,0:0:0:0:
177,195,76421,2,0,P|115:146|138:229,1,191.999994140625,6|0,3:2|0:0,0:0:0:0:
104,288,76681,6,0,P|31:261|97:219,1,191.999994140625,6|6,3:2|3:2,0:0:0:0:
256,192,77027,12,0,78241,0:0:0:0:
380,80,78414,6,0,P|458:77|391:131,1,191.999994140625,6|0,3:2|0:0,0:0:0:0:
430,146,78674,2,0,P|456:219|384:172,1,191.999994140625,6|0,3:2|0:0,0:0:0:0:
381,215,78935,2,0,P|319:263|342:180,1,191.999994140625,6|0,3:2|0:0,0:0:0:0:
302,190,79195,2,0,P|237:146|323:142,1,191.999994140625,6|0,3:2|0:0,0:0:0:0:
369,91,79455,6,0,P|319:31|300:107,1,191.999994140625,6|6,3:2|3:2,0:0:0:0:
256,192,79802,12,0,81016,0:0:0:0:
346,197,81189,6,0,B|395:227|392:264|392:264|362:264|333:236,1,120.000004577637,6|0,3:2|2:0,0:0:0:0:
279,279,81450,2,0,B|265:335|229:343|229:343|220:315|237:278,1,120.000004577637,6|0,3:2|2:0,0:0:0:0:
180,240,81710,2,0,B|122:245|103:213|103:213|127:196|167:201,1,120.000004577637,6|0,3:2|2:0,0:0:0:0:
186,135,81970,2,0,B|164:81|188:53|188:53|212:71|219:111,1,120.000004577637,6|0,3:2|2:0,0:0:0:0:
347,112,82230,6,0,B|357:113|366:84|366:84|332:70|288:107,1,120.000004577637,6|6,3:2|3:2,0:0:0:0:
256,192,82576,12,8,83617,2:0:0:0:
185,150,83963,6,0,B|141:96|187:42|187:42|258:63|253:134|253:134|284:85|355:99|355:99|351:173|290:192|290:192|406:190|454:237|442:338|394:367|326:372|285:341|279:275,1,857.599959433596,4|0,1:2|3:2,0:0:0:0:
182,149,92287,6,0,B|138:95|184:41|184:41|255:62|250:133|250:133|281:84|352:98|352:98|351:179|286:192|286:192,1,481.600007348633,6|0,3:2|2:0,0:0:0:0:
180,220,93674,6,0,B|141:271|182:333|182:333|247:303|244:245|244:245|281:305|351:280|351:280|355:204|288:192,1,481.600007348633,6|0,3:2|2:0,0:0:0:0:
141,136,95062,6,0,P|103:173|95:89,1,180.000006866455,0|0,3:2|2:0,0:0:0:0:
151,65,95755,2,0,P|94:18|86:91,1,180.000006866455,0|0,3:2|2:0,0:0:0:0:
299,240,96449,6,0,L|244:288,1,60.0000022888184,2|0,3:2|2:0,0:0:0:0:
313,161,96709,2,0,L|341:228,1,60.0000022888184,2|0,3:2|2:0,0:0:0:0:
242,123,96969,2,0,L|315:117,1,60.0000022888184,2|0,3:2|2:0,0:0:0:0:
185,178,97229,2,0,L|201:107,1,60.0000022888184,6|0,3:2|2:0,0:0:0:0:
219,250,97490,2,0,L|157:213,1,60.0000022888184,6|0,3:2|3:2,0:0:0:0:
94,325,97836,5,6,3:2:0:0:
34,202,98010,2,0,L|45:141,1,50,2|0,2:0|2:0,0:0:0:0:
114,103,98183,1,2,1:2:0:0:
114,103,98270,2,0,L|124:155,2,50,2|2|2,2:0|2:0|2:0,0:0:0:0:
185,54,98530,1,2,3:2:0:0:
214,59,98617,1,2,2:0:0:0:
243,64,98703,1,2,2:0:0:0:
272,70,98790,1,2,2:0:0:0:
301,74,98877,2,0,L|350:65,3,50,2|2|2|2,3:2|2:0|2:0|2:0,0:0:0:0:
424,117,99224,6,0,L|506:127,1,50,2|0,3:2|2:0,0:0:0:0:
506,224,99397,1,2,2:0:0:0:
509,215,99484,1,2,2:0:0:0:
512,205,99570,2,0,L|430:225,3,50,2|2|2|2,1:2|2:0|2:0|2:0,0:0:0:0:
424,292,99917,1,2,3:2:0:0:
400,273,100004,1,2,2:0:0:0:
385,248,100091,1,2,2:0:0:0:
379,219,100177,1,2,2:0:0:0:
378,189,100264,2,0,L|389:140,3,50,2|2|2|2,3:2|2:0|2:0|2:0,0:0:0:0:
351,65,100611,5,6,3:2:0:0:
291,213,100784,2,0,L|224:224,1,50,2|0,2:0|2:0,0:0:0:0:
225,309,100958,1,2,1:2:0:0:
225,309,101044,2,0,L|274:300,2,50,2|2|2,2:0|2:0|2:0,0:0:0:0:
153,248,101305,1,2,3:2:0:0:
125,237,101391,1,2,2:0:0:0:
103,216,101478,1,2,2:0:0:0:
91,189,101565,1,2,2:0:0:0:
89,159,101651,1,2,3:2:0:0:
154,50,101825,1,2,2:0:0:0:
154,50,101911,1,2,2:0:0:0:
154,50,101998,6,0,L|220:55,1,50,2|0,3:2|2:0,0:0:0:0:
269,126,102172,1,2,2:0:0:0:
269,126,102258,2,0,L|347:131,1,50,2|0,2:0|3:2,0:0:0:0:
405,91,102432,1,2,2:0:0:0:
405,91,102518,2,0,L|481:97,1,50,2|0,2:0|2:0,0:0:0:0:
492,166,102692,2,0,L|482:218,3,50,2|2|2|2,3:2|2:0|2:0|2:0,0:0:0:0:
408,270,103039,1,2,3:2:0:0:
408,270,103125,2,0,L|418:322,2,50,2|2|2,2:0|2:0|2:0,0:0:0:0:
391,178,103385,5,6,3:2:0:0:
324,38,103559,2,0,L|253:44,1,50,2|0,2:0|2:0,0:0:0:0:
188,60,103732,1,2,1:2:0:0:
188,60,103819,2,0,L|195:-19,2,50,2|2|2,2:0|2:0|2:0,0:0:0:0:
105,100,104079,1,2,3:2:0:0:
124,124,104166,1,2,2:0:0:0:
148,141,104253,1,2,2:0:0:0:
177,150,104339,1,2,2:0:0:0:
208,150,104426,2,0,L|203:200,3,50,2|2|2|2,3:2|2:0|2:0|2:0,0:0:0:0:
179,288,104773,6,0,L|258:279,1,50,6|0,3:2|2:0,0:0:0:0:
315,312,104946,1,2,2:0:0:0:
324,312,105033,1,2,2:0:0:0:
333,311,105120,2,0,L|320:230,3,50,2|2|2|2,3:2|2:0|2:0|2:0,0:0:0:0:
394,207,105466,1,2,3:2:0:0:
391,178,105553,1,2,2:0:0:0:
388,149,105640,1,2,2:0:0:0:
385,120,105727,1,2,2:0:0:0:
382,91,105813,2,0,L|390:30,3,50,2|2|2|2,3:2|2:0|2:0|2:0,0:0:0:0:
466,88,106160,5,6,3:2:0:0:
297,64,106333,1,2,2:0:0:0:
297,75,106420,1,2,2:0:0:0:
296,85,106507,2,0,L|232:73,3,50,2|2|2|2,3:2|2:0|2:0|2:0,0:0:0:0:
174,43,106854,5,6,3:2:0:0:
150,76,106940,1,2,2:0:0:0:
116,95,107027,1,2,2:0:0:0:
76,97,107114,1,2,2:0:0:0:
44,76,107200,2,0,L|53:150,1,50,2|2,3:2|2:0,0:0:0:0:
101,211,107374,1,2,2:0:0:0:
101,211,107461,1,2,2:0:0:0:
101,211,107547,6,0,L|90:289,1,50,6|0,3:2|2:0,0:0:0:0:
131,351,107721,1,2,2:0:0:0:
131,351,107807,2,0,L|194:364,1,50,2|0,2:0|2:0,0:0:0:0:
229,296,107981,1,2,2:0:0:0:
229,296,108068,2,0,L|292:309,1,50,2|0,2:0|2:0,0:0:0:0:
350,321,108241,5,2,3:2:0:0:
213,275,108414,5,2,3:2:0:0:
104,370,108588,5,2,3:2:0:0:
186,134,108761,5,2,3:2:0:0:
180,240,108935,6,0,B|122:244|104:212|104:212|127:195|168:200,1,120.000004577637,6|0,3:2|2:0,0:0:0:0:
186,134,109196,2,0,B|165:80|190:53|190:53|213:70|221:110,1,120.000004577637,6|0,3:2|2:0,0:0:0:0:
289,107,109456,2,0,B|334:69|368:84|368:84|358:112|322:131,1,120.000004577637,6|0,3:2|2:0,0:0:0:0:
346,196,109716,2,0,B|395:227|393:264|393:264|363:263|334:234,1,120.000004577637,6|0,3:2|2:0,0:0:0:0:
227,309,109976,6,0,B|221:314|230:343|230:343|266:334|280:278,1,120.000004577637,6|6,3:2|3:2,0:0:0:0:
256,192,110322,12,0,111536,2:0:0:0:
97,80,111709,6,0,P|118:5|148:86,1,191.999994140625,4|0,3:2|0:0,0:0:0:0:
175,53,111969,2,0,P|253:50|186:104,1,191.999994140625,4|0,3:2|0:0,0:0:0:0:
225,121,112230,2,0,P|251:195|179:148,1,191.999994140625,6|0,3:2|0:0,0:0:0:0:
177,189,112490,2,0,P|115:238|138:155,1,191.999994140625,6|0,3:2|0:0,0:0:0:0:
104,95,112750,6,0,P|31:122|97:165,1,191.999994140625,6|6,3:2|3:2,0:0:0:0:
256,192,113096,12,0,114310,2:0:0:0:
415,304,114484,6,0,P|394:379|364:298,1,191.999994140625,6|0,3:2|0:0,0:0:0:0:
337,331,114744,2,0,P|259:334|326:280,1,191.999994140625,6|0,3:2|0:0,0:0:0:0:
287,263,115005,2,0,P|261:189|333:236,1,191.999994140625,6|0,3:2|0:0,0:0:0:0:
335,195,115265,2,0,P|397:146|374:229,1,191.999994140625,6|0,3:2|0:0,0:0:0:0:
407,288,115525,6,0,P|480:261|415:219,1,191.999994140625,6|6,3:2|3:2,0:0:0:0:
256,192,115871,12,0,117085,2:0:0:0:
359,254,117258,6,0,B|362:263|392:263|392:263|395:226|346:196,1,120.000004577637,6|0,3:2|2:0,0:0:0:0:
349,112,117518,2,0,B|357:112|367:84|367:84|333:70|288:107,1,120.000004577637,6|0,3:2|2:0,0:0:0:0:
209,78,117778,2,0,B|212:70|188:52|188:52|164:80|186:134,1,120.000004577637,6|0,3:2|2:0,0:0:0:0:
135,200,118038,2,0,B|127:195|104:212|104:212|122:244|180:240,1,120.000004577637,6|0,3:2|2:0,0:0:0:0:
278,280,118299,6,0,B|265:335|229:343|229:343|220:315|227:309,1,120.000004577637,6|6,3:2|3:2,0:0:0:0:
256,192,118646,12,0,119686,1:2:0:0:
256,192,120033,5,0,0:0:0:0:
