osu file format v14

[General]
AudioFilename: DJ YOSHITAKA - FLOWER.mp3
AudioLeadIn: 0
PreviewTime: 48611
Countdown: 0
SampleSet: Normal
StackLeniency: 0.7
Mode: 3
LetterboxInBreaks: 0
SpecialStyle: 0
WidescreenStoryboard: 1

[Editor]
DistanceSpacing: 1.2
BeatDivisor: 4
GridSize: 4
TimelineZoom: 2.1

[Metadata]
Title:FLOWER
TitleUnicode:FLOWER
Artist:DJ YOSHITAKA
ArtistUnicode:DJ YOSHITAKA
Creator:Adot
Version:Hyper
Source:beatmania IIDX 20 tricoro
Tags:original soundtrack bemani konami
BeatmapID:1132229
BeatmapSetID:534274

[Difficulty]
HPDrainRate:8
CircleSize:4
OverallDifficulty:7.5
ApproachRate:5
SliderMultiplier:1.4
SliderTickRate:1

[Events]
//Background and Video events
0,0,"bgflower.jpg",0,0
//Break Periods
//Storyboard Layer 0 (Background)
//Storyboard Layer 1 (Fail)
//Storyboard Layer 2 (Pass)
//Storyboard Layer 3 (Foreground)
//Storyboard Sound Samples

[TimingPoints]
94.311377245509,346.820809248555,4,1,0,33,1,0
50036,-100,4,1,0,33,0,1
70845,-100,4,1,0,33,0,0
97204,-100,4,1,0,33,0,1
108302,-100,4,1,0,33,0,0

[HitObjects]
448,192,94,5,0,0:0:0:0:
64,192,94,1,0,0:0:0:0:
192,192,267,1,0,0:0:0:0:
320,192,441,1,0,0:0:0:0:
448,192,441,1,0,0:0:0:0:
64,192,614,1,0,0:0:0:0:
192,192,787,1,0,0:0:0:0:
448,192,787,1,0,0:0:0:0:
320,192,961,1,0,0:0:0:0:
64,192,1134,1,0,0:0:0:0:
448,192,1134,1,0,0:0:0:0:
192,192,1308,1,0,0:0:0:0:
320,192,1481,1,0,0:0:0:0:
448,192,1481,1,0,0:0:0:0:
192,192,1655,1,0,0:0:0:0:
192,192,1828,1,0,0:0:0:0:
320,192,2001,1,0,0:0:0:0:
448,192,2001,1,0,0:0:0:0:
64,192,2175,1,0,0:0:0:0:
192,192,2261,1,0,0:0:0:0:
320,192,2348,1,0,0:0:0:0:
448,192,2435,1,0,0:0:0:0:
320,192,2522,1,0,0:0:0:0:
448,192,2868,1,0,0:0:0:0:
64,192,2868,1,0,0:0:0:0:
320,192,3215,1,0,0:0:0:0:
448,192,3215,1,0,0:0:0:0:
192,192,3389,1,0,0:0:0:0:
64,192,3389,1,0,0:0:0:0:
320,192,3562,1,0,0:0:0:0:
448,192,3562,1,0,0:0:0:0:
64,192,3735,1,0,0:0:0:0:
192,192,3735,1,0,0:0:0:0:
320,192,3909,1,0,0:0:0:0:
448,192,3909,1,0,0:0:0:0:
192,192,4082,1,0,0:0:0:0:
320,192,4169,1,0,0:0:0:0:
448,192,4256,1,0,0:0:0:0:
64,192,4256,128,0,5296:0:0:0:0:
320,192,5296,1,0,0:0:0:0:
448,192,5296,1,0,0:0:0:0:
64,192,5643,1,0,0:0:0:0:
448,192,5643,1,0,0:0:0:0:
192,192,5990,1,0,0:0:0:0:
448,192,6163,1,0,0:0:0:0:
320,192,6683,1,0,0:0:0:0:
192,192,6857,1,0,0:0:0:0:
320,192,7030,1,0,0:0:0:0:
192,192,7377,1,0,0:0:0:0:
320,192,7550,1,0,0:0:0:0:
192,192,7724,1,0,0:0:0:0:
64,192,8071,1,0,0:0:0:0:
320,192,8244,1,0,0:0:0:0:
448,192,8764,1,0,0:0:0:0:
192,192,8938,1,0,0:0:0:0:
320,192,9458,1,0,0:0:0:0:
64,192,9631,1,0,0:0:0:0:
192,192,9805,1,0,0:0:0:0:
320,192,10152,1,0,0:0:0:0:
448,192,10325,1,0,0:0:0:0:
192,192,10498,1,0,0:0:0:0:
320,192,10845,1,0,0:0:0:0:
192,192,11019,1,0,0:0:0:0:
64,192,11192,1,0,0:0:0:0:
192,192,11539,1,0,0:0:0:0:
448,192,11712,1,0,0:0:0:0:
320,192,12233,1,0,0:0:0:0:
64,192,12406,1,0,0:0:0:0:
192,192,12926,1,0,0:0:0:0:
448,192,13100,1,0,0:0:0:0:
192,192,13620,1,0,0:0:0:0:
320,192,13793,1,0,0:0:0:0:
448,192,13967,1,0,0:0:0:0:
64,192,14313,1,0,0:0:0:0:
320,192,14487,1,0,0:0:0:0:
64,192,14834,128,0,15007:0:0:0:0:
192,192,15007,128,0,15181:0:0:0:0:
320,192,15181,128,0,15527:0:0:0:0:
448,192,15527,128,0,15874:0:0:0:0:
320,192,15874,128,0,16221:0:0:0:0:
192,192,16221,128,0,16568:0:0:0:0:
64,192,16568,128,0,20556:0:0:0:0:
320,192,16741,1,0,0:0:0:0:
448,192,16741,1,0,0:0:0:0:
448,192,17088,1,0,0:0:0:0:
448,192,17435,1,0,0:0:0:0:
448,192,17782,1,0,0:0:0:0:
320,192,18128,1,0,0:0:0:0:
320,192,18475,1,0,0:0:0:0:
320,192,18822,1,0,0:0:0:0:
320,192,19169,1,0,0:0:0:0:
192,192,19516,1,0,0:0:0:0:
192,192,19863,1,0,0:0:0:0:
192,192,20209,1,0,0:0:0:0:
192,192,20556,128,0,20730:0:0:0:0:
320,192,20730,128,0,21076:0:0:0:0:
64,192,20903,1,0,0:0:0:0:
448,192,21076,128,0,21423:0:0:0:0:
64,192,21250,1,0,0:0:0:0:
320,192,21423,128,0,21770:0:0:0:0:
64,192,21597,1,0,0:0:0:0:
192,192,21770,128,0,22290:0:0:0:0:
448,192,21944,1,0,0:0:0:0:
64,192,22290,128,0,26452:0:0:0:0:
320,192,22637,1,0,0:0:0:0:
320,192,22984,1,0,0:0:0:0:
320,192,23331,1,0,0:0:0:0:
192,192,23678,1,0,0:0:0:0:
192,192,24024,1,0,0:0:0:0:
192,192,24371,1,0,0:0:0:0:
192,192,24718,1,0,0:0:0:0:
448,192,25065,1,0,0:0:0:0:
448,192,25412,1,0,0:0:0:0:
448,192,25759,1,0,0:0:0:0:
448,192,26105,1,0,0:0:0:0:
192,192,26452,128,0,27146:0:0:0:0:
448,192,26799,1,0,0:0:0:0:
320,192,27146,128,0,27839:0:0:0:0:
64,192,27493,1,0,0:0:0:0:
448,192,27839,128,0,28360:0:0:0:0:
192,192,28186,1,0,0:0:0:0:
320,192,28360,128,0,28880:0:0:0:0:
64,192,28533,1,0,0:0:0:0:
64,192,28880,128,0,31655:0:0:0:0:
192,192,28880,1,0,0:0:0:0:
448,192,29227,1,0,0:0:0:0:
448,192,29574,1,0,0:0:0:0:
448,192,29920,1,0,0:0:0:0:
448,192,30267,1,0,0:0:0:0:
320,192,30614,1,0,0:0:0:0:
320,192,30961,1,0,0:0:0:0:
320,192,31308,1,0,0:0:0:0:
192,192,31655,128,0,31828:0:0:0:0:
320,192,31828,128,0,32175:0:0:0:0:
64,192,32001,1,0,0:0:0:0:
448,192,32175,128,0,32522:0:0:0:0:
64,192,32348,1,0,0:0:0:0:
320,192,32522,128,0,32868:0:0:0:0:
64,192,32695,1,0,0:0:0:0:
192,192,32868,128,0,33215:0:0:0:0:
448,192,33042,1,0,0:0:0:0:
64,192,33215,128,0,37550:0:0:0:0:
320,192,33389,1,0,0:0:0:0:
320,192,33735,1,0,0:0:0:0:
320,192,34082,1,0,0:0:0:0:
320,192,34429,1,0,0:0:0:0:
448,192,34776,1,0,0:0:0:0:
448,192,35123,1,0,0:0:0:0:
448,192,35470,1,0,0:0:0:0:
448,192,35816,1,0,0:0:0:0:
192,192,36163,1,0,0:0:0:0:
192,192,36510,1,0,0:0:0:0:
192,192,36857,1,0,0:0:0:0:
192,192,37204,1,0,0:0:0:0:
448,192,37550,128,0,38938:0:0:0:0:
320,192,37897,1,0,0:0:0:0:
320,192,38244,1,0,0:0:0:0:
320,192,38591,1,0,0:0:0:0:
192,192,38938,1,0,0:0:0:0:
64,192,38938,1,0,0:0:0:0:
320,192,39111,1,0,0:0:0:0:
448,192,39285,1,0,0:0:0:0:
64,192,39285,1,0,0:0:0:0:
192,192,39458,1,0,0:0:0:0:
320,192,39631,1,0,0:0:0:0:
448,192,39631,1,0,0:0:0:0:
64,192,39805,1,0,0:0:0:0:
320,192,39978,1,0,0:0:0:0:
448,192,39978,1,0,0:0:0:0:
64,192,40152,1,0,0:0:0:0:
192,192,40325,1,0,0:0:0:0:
448,192,40325,1,0,0:0:0:0:
320,192,40498,1,0,0:0:0:0:
448,192,40672,1,0,0:0:0:0:
64,192,40672,1,0,0:0:0:0:
320,192,40845,1,0,0:0:0:0:
192,192,41019,1,0,0:0:0:0:
64,192,41019,1,0,0:0:0:0:
448,192,41192,1,0,0:0:0:0:
64,192,41365,1,0,0:0:0:0:
192,192,41365,1,0,0:0:0:0:
448,192,41539,1,0,0:0:0:0:
192,192,41712,1,0,0:0:0:0:
320,192,41712,1,0,0:0:0:0:
64,192,41886,1,0,0:0:0:0:
192,192,42059,1,0,0:0:0:0:
448,192,42059,1,0,0:0:0:0:
320,192,42233,1,0,0:0:0:0:
448,192,42406,1,0,0:0:0:0:
64,192,42406,1,0,0:0:0:0:
192,192,42579,1,0,0:0:0:0:
448,192,42753,1,0,0:0:0:0:
64,192,42753,1,0,0:0:0:0:
192,192,42926,1,0,0:0:0:0:
64,192,43100,1,0,0:0:0:0:
320,192,43100,1,0,0:0:0:0:
448,192,43273,1,0,0:0:0:0:
320,192,43446,1,0,0:0:0:0:
192,192,43446,1,0,0:0:0:0:
448,192,43620,1,0,0:0:0:0:
192,192,43793,1,0,0:0:0:0:
64,192,43793,1,0,0:0:0:0:
320,192,43967,1,0,0:0:0:0:
448,192,44140,1,0,0:0:0:0:
64,192,44140,1,0,0:0:0:0:
320,192,44313,1,0,0:0:0:0:
192,192,44487,1,0,0:0:0:0:
64,192,44487,128,0,47261:0:0:0:0:
320,192,44660,1,0,0:0:0:0:
448,192,44834,1,0,0:0:0:0:
320,192,45007,1,0,0:0:0:0:
192,192,45181,1,0,0:0:0:0:
320,192,45354,1,0,0:0:0:0:
448,192,45527,1,0,0:0:0:0:
320,192,45701,1,0,0:0:0:0:
192,192,45874,1,0,0:0:0:0:
320,192,46048,1,0,0:0:0:0:
448,192,46221,1,0,0:0:0:0:
320,192,46394,1,0,0:0:0:0:
192,192,46568,1,0,0:0:0:0:
320,192,46741,1,0,0:0:0:0:
448,192,46915,1,0,0:0:0:0:
320,192,47088,1,0,0:0:0:0:
192,192,47261,1,0,0:0:0:0:
320,192,47348,1,0,0:0:0:0:
448,192,47435,1,0,0:0:0:0:
320,192,47522,1,0,0:0:0:0:
192,192,47608,1,0,0:0:0:0:
64,192,47695,1,0,0:0:0:0:
192,192,47782,1,0,0:0:0:0:
320,192,47868,1,0,0:0:0:0:
448,192,47955,1,0,0:0:0:0:
320,192,48042,1,0,0:0:0:0:
64,192,48128,1,0,0:0:0:0:
192,192,48215,1,0,0:0:0:0:
320,192,48302,1,0,0:0:0:0:
448,192,48302,1,0,0:0:0:0:
192,192,48649,1,0,0:0:0:0:
64,192,48649,1,0,0:0:0:0:
192,192,48909,1,0,0:0:0:0:
320,192,48909,1,0,0:0:0:0:
320,192,49169,1,0,0:0:0:0:
448,192,49169,1,0,0:0:0:0:
192,192,49429,1,0,0:0:0:0:
64,192,49429,1,0,0:0:0:0:
64,192,49689,1,0,0:0:0:0:
448,192,49689,1,0,0:0:0:0:
192,192,49863,1,0,0:0:0:0:
320,192,49863,1,0,0:0:0:0:
448,192,50036,1,0,0:0:0:0:
192,192,50036,1,0,0:0:0:0:
64,192,50036,1,0,0:0:0:0:
320,192,50209,1,0,0:0:0:0:
64,192,50383,1,0,0:0:0:0:
448,192,50383,1,0,0:0:0:0:
192,192,50556,1,0,0:0:0:0:
320,192,50730,1,0,0:0:0:0:
448,192,50730,1,0,0:0:0:0:
64,192,50816,1,0,0:0:0:0:
192,192,50903,1,0,0:0:0:0:
320,192,50990,1,0,0:0:0:0:
448,192,51076,1,0,0:0:0:0:
64,192,51076,1,0,0:0:0:0:
320,192,51250,1,0,0:0:0:0:
192,192,51337,1,0,0:0:0:0:
320,192,51423,1,0,0:0:0:0:
448,192,51423,1,0,0:0:0:0:
64,192,51597,1,0,0:0:0:0:
448,192,51770,1,0,0:0:0:0:
192,192,51770,1,0,0:0:0:0:
320,192,51944,1,0,0:0:0:0:
192,192,52117,1,0,0:0:0:0:
64,192,52117,1,0,0:0:0:0:
448,192,52204,1,0,0:0:0:0:
320,192,52290,1,0,0:0:0:0:
192,192,52377,1,0,0:0:0:0:
64,192,52464,1,0,0:0:0:0:
448,192,52464,1,0,0:0:0:0:
320,192,52550,1,0,0:0:0:0:
192,192,52637,1,0,0:0:0:0:
320,192,52724,1,0,0:0:0:0:
448,192,52811,1,0,0:0:0:0:
64,192,52811,1,0,0:0:0:0:
320,192,52984,1,0,0:0:0:0:
192,192,53071,1,0,0:0:0:0:
64,192,53157,1,0,0:0:0:0:
448,192,53157,1,0,0:0:0:0:
320,192,53244,1,0,0:0:0:0:
64,192,53331,1,0,0:0:0:0:
192,192,53418,1,0,0:0:0:0:
320,192,53504,1,0,0:0:0:0:
448,192,53504,1,0,0:0:0:0:
192,192,53678,1,0,0:0:0:0:
64,192,53764,1,0,0:0:0:0:
192,192,53851,1,0,0:0:0:0:
320,192,53851,1,0,0:0:0:0:
448,192,54024,1,0,0:0:0:0:
320,192,54198,1,0,0:0:0:0:
64,192,54198,1,0,0:0:0:0:
192,192,54371,1,0,0:0:0:0:
320,192,54458,1,0,0:0:0:0:
64,192,54545,1,0,0:0:0:0:
448,192,54545,1,0,0:0:0:0:
192,192,54631,1,0,0:0:0:0:
320,192,54718,1,0,0:0:0:0:
192,192,54891,1,0,0:0:0:0:
448,192,54891,1,0,0:0:0:0:
320,192,55065,1,0,0:0:0:0:
192,192,55152,1,0,0:0:0:0:
64,192,55238,1,0,0:0:0:0:
448,192,55238,1,0,0:0:0:0:
320,192,55325,1,0,0:0:0:0:
192,192,55412,1,0,0:0:0:0:
64,192,55498,1,0,0:0:0:0:
320,192,55585,1,0,0:0:0:0:
448,192,55585,1,0,0:0:0:0:
192,192,55759,1,0,0:0:0:0:
64,192,55932,1,0,0:0:0:0:
448,192,55932,1,0,0:0:0:0:
320,192,56105,1,0,0:0:0:0:
192,192,56279,1,0,0:0:0:0:
448,192,56279,1,0,0:0:0:0:
320,192,56365,1,0,0:0:0:0:
64,192,56452,1,0,0:0:0:0:
192,192,56539,1,0,0:0:0:0:
320,192,56626,1,0,0:0:0:0:
448,192,56626,1,0,0:0:0:0:
192,192,56799,1,0,0:0:0:0:
320,192,56886,1,0,0:0:0:0:
64,192,56972,1,0,0:0:0:0:
448,192,56972,1,0,0:0:0:0:
320,192,57146,1,0,0:0:0:0:
64,192,57319,1,0,0:0:0:0:
192,192,57319,1,0,0:0:0:0:
448,192,57493,1,0,0:0:0:0:
320,192,57666,1,0,0:0:0:0:
64,192,57666,1,0,0:0:0:0:
192,192,57753,1,0,0:0:0:0:
448,192,57839,1,0,0:0:0:0:
320,192,57926,1,0,0:0:0:0:
64,192,58013,1,0,0:0:0:0:
192,192,58013,1,0,0:0:0:0:
448,192,58100,1,0,0:0:0:0:
320,192,58186,1,0,0:0:0:0:
192,192,58273,1,0,0:0:0:0:
448,192,58360,1,0,0:0:0:0:
320,192,58360,1,0,0:0:0:0:
64,192,58533,1,0,0:0:0:0:
192,192,58620,1,0,0:0:0:0:
448,192,58707,1,0,0:0:0:0:
320,192,58707,1,0,0:0:0:0:
64,192,58793,1,0,0:0:0:0:
192,192,58880,1,0,0:0:0:0:
320,192,58967,1,0,0:0:0:0:
448,192,59053,1,0,0:0:0:0:
64,192,59053,1,0,0:0:0:0:
192,192,59227,1,0,0:0:0:0:
320,192,59313,1,0,0:0:0:0:
192,192,59400,1,0,0:0:0:0:
448,192,59400,1,0,0:0:0:0:
64,192,59574,1,0,0:0:0:0:
320,192,59747,1,0,0:0:0:0:
192,192,59747,1,0,0:0:0:0:
448,192,59920,1,0,0:0:0:0:
320,192,60007,1,0,0:0:0:0:
64,192,60094,1,0,0:0:0:0:
192,192,60094,1,0,0:0:0:0:
320,192,60181,1,0,0:0:0:0:
192,192,60267,1,0,0:0:0:0:
448,192,60441,1,0,0:0:0:0:
64,192,60441,1,0,0:0:0:0:
192,192,60527,1,0,0:0:0:0:
320,192,60614,1,0,0:0:0:0:
192,192,60701,1,0,0:0:0:0:
448,192,60787,1,0,0:0:0:0:
64,192,60787,1,0,0:0:0:0:
320,192,60874,1,0,0:0:0:0:
192,192,60961,1,0,0:0:0:0:
320,192,61048,1,0,0:0:0:0:
192,192,61134,1,0,0:0:0:0:
64,192,61134,1,0,0:0:0:0:
320,192,61308,1,0,0:0:0:0:
448,192,61481,1,0,0:0:0:0:
64,192,61481,1,0,0:0:0:0:
192,192,61655,1,0,0:0:0:0:
320,192,61828,1,0,0:0:0:0:
64,192,61828,1,0,0:0:0:0:
192,192,61915,1,0,0:0:0:0:
448,192,62001,1,0,0:0:0:0:
320,192,62088,1,0,0:0:0:0:
192,192,62175,1,0,0:0:0:0:
64,192,62175,1,0,0:0:0:0:
320,192,62348,1,0,0:0:0:0:
192,192,62435,1,0,0:0:0:0:
448,192,62522,1,0,0:0:0:0:
64,192,62522,1,0,0:0:0:0:
320,192,62695,1,0,0:0:0:0:
448,192,62868,1,0,0:0:0:0:
192,192,62868,1,0,0:0:0:0:
64,192,63042,1,0,0:0:0:0:
320,192,63215,1,0,0:0:0:0:
448,192,63215,1,0,0:0:0:0:
64,192,63302,1,0,0:0:0:0:
192,192,63389,1,0,0:0:0:0:
320,192,63475,1,0,0:0:0:0:
448,192,63562,1,0,0:0:0:0:
64,192,63562,1,0,0:0:0:0:
192,192,63649,1,0,0:0:0:0:
320,192,63735,1,0,0:0:0:0:
448,192,63822,1,0,0:0:0:0:
192,192,63909,1,0,0:0:0:0:
64,192,63909,1,0,0:0:0:0:
448,192,64082,1,0,0:0:0:0:
320,192,64169,1,0,0:0:0:0:
192,192,64256,1,0,0:0:0:0:
448,192,64256,1,0,0:0:0:0:
64,192,64342,1,0,0:0:0:0:
192,192,64429,1,0,0:0:0:0:
320,192,64516,1,0,0:0:0:0:
448,192,64602,1,0,0:0:0:0:
64,192,64602,1,0,0:0:0:0:
320,192,64776,1,0,0:0:0:0:
192,192,64863,1,0,0:0:0:0:
448,192,64949,1,0,0:0:0:0:
320,192,64949,1,0,0:0:0:0:
64,192,65123,1,0,0:0:0:0:
192,192,65296,1,0,0:0:0:0:
448,192,65296,1,0,0:0:0:0:
320,192,65470,1,0,0:0:0:0:
192,192,65556,1,0,0:0:0:0:
448,192,65643,1,0,0:0:0:0:
64,192,65643,1,0,0:0:0:0:
320,192,65730,1,0,0:0:0:0:
192,192,65816,1,0,0:0:0:0:
64,192,65990,1,0,0:0:0:0:
448,192,65990,1,0,0:0:0:0:
192,192,66076,1,0,0:0:0:0:
320,192,66163,1,0,0:0:0:0:
448,192,66250,1,0,0:0:0:0:
320,192,66337,1,0,0:0:0:0:
192,192,66337,1,0,0:0:0:0:
64,192,66423,1,0,0:0:0:0:
192,192,66510,1,0,0:0:0:0:
320,192,66597,1,0,0:0:0:0:
448,192,66683,1,0,0:0:0:0:
64,192,66683,1,0,0:0:0:0:
192,192,66857,1,0,0:0:0:0:
448,192,67030,1,0,0:0:0:0:
64,192,67030,1,0,0:0:0:0:
192,192,67204,1,0,0:0:0:0:
448,192,67377,1,0,0:0:0:0:
64,192,67377,1,0,0:0:0:0:
192,192,67550,1,0,0:0:0:0:
448,192,67724,1,0,0:0:0:0:
64,192,67724,1,0,0:0:0:0:
320,192,67897,1,0,0:0:0:0:
192,192,68071,1,0,0:0:0:0:
64,192,68071,1,0,0:0:0:0:
448,192,68244,1,0,0:0:0:0:
192,192,68418,1,0,0:0:0:0:
64,192,68418,1,0,0:0:0:0:
448,192,68591,1,0,0:0:0:0:
192,192,68764,1,0,0:0:0:0:
64,192,68764,1,0,0:0:0:0:
448,192,68938,1,0,0:0:0:0:
192,192,69111,1,0,0:0:0:0:
64,192,69111,1,0,0:0:0:0:
448,192,69285,1,0,0:0:0:0:
192,192,69458,1,0,0:0:0:0:
64,192,69458,1,0,0:0:0:0:
320,192,69545,1,0,0:0:0:0:
448,192,69631,1,0,0:0:0:0:
320,192,69718,1,0,0:0:0:0:
192,192,69805,1,0,0:0:0:0:
64,192,69891,1,0,0:0:0:0:
192,192,69978,1,0,0:0:0:0:
320,192,70065,1,0,0:0:0:0:
448,192,70152,1,0,0:0:0:0:
320,192,70238,1,0,0:0:0:0:
192,192,70325,1,0,0:0:0:0:
64,192,70412,1,0,0:0:0:0:
192,192,70498,1,0,0:0:0:0:
448,192,70585,1,0,0:0:0:0:
320,192,70672,1,0,0:0:0:0:
192,192,70759,1,0,0:0:0:0:
320,192,70845,1,0,0:0:0:0:
448,192,70845,1,0,0:0:0:0:
64,192,71019,1,0,0:0:0:0:
320,192,71192,1,0,0:0:0:0:
192,192,71365,1,0,0:0:0:0:
320,192,71539,1,0,0:0:0:0:
448,192,71539,1,0,0:0:0:0:
192,192,71712,1,0,0:0:0:0:
64,192,71712,1,0,0:0:0:0:
320,192,71886,1,0,0:0:0:0:
448,192,71886,1,0,0:0:0:0:
192,192,72059,1,0,0:0:0:0:
64,192,72059,1,0,0:0:0:0:
448,192,72233,1,0,0:0:0:0:
320,192,72233,1,0,0:0:0:0:
64,192,72493,1,0,0:0:0:0:
320,192,72493,1,0,0:0:0:0:
192,192,72753,1,0,0:0:0:0:
448,192,72753,1,0,0:0:0:0:
192,192,73013,1,0,0:0:0:0:
64,192,73013,1,0,0:0:0:0:
64,192,73273,1,0,0:0:0:0:
448,192,73273,1,0,0:0:0:0:
320,192,73446,1,0,0:0:0:0:
192,192,73446,1,0,0:0:0:0:
64,192,73620,1,0,0:0:0:0:
448,192,73620,1,0,0:0:0:0:
320,192,73793,1,0,0:0:0:0:
192,192,73967,1,0,0:0:0:0:
64,192,73967,1,0,0:0:0:0:
320,192,74140,1,0,0:0:0:0:
64,192,74313,1,0,0:0:0:0:
192,192,74400,1,0,0:0:0:0:
320,192,74487,1,0,0:0:0:0:
448,192,74574,1,0,0:0:0:0:
64,192,74660,1,0,0:0:0:0:
192,192,74834,1,0,0:0:0:0:
320,192,75007,1,0,0:0:0:0:
448,192,75007,1,0,0:0:0:0:
64,192,75267,1,0,0:0:0:0:
320,192,75267,1,0,0:0:0:0:
192,192,75527,1,0,0:0:0:0:
64,192,75527,1,0,0:0:0:0:
192,192,75787,1,0,0:0:0:0:
320,192,75787,1,0,0:0:0:0:
448,192,76048,1,0,0:0:0:0:
64,192,76048,1,0,0:0:0:0:
192,192,76221,1,0,0:0:0:0:
320,192,76221,1,0,0:0:0:0:
448,192,76394,1,0,0:0:0:0:
64,192,76394,1,0,0:0:0:0:
192,192,76568,1,0,0:0:0:0:
320,192,76655,1,0,0:0:0:0:
192,192,76741,1,0,0:0:0:0:
64,192,76741,1,0,0:0:0:0:
448,192,76915,1,0,0:0:0:0:
64,192,77088,1,0,0:0:0:0:
192,192,77088,1,0,0:0:0:0:
448,192,77261,1,0,0:0:0:0:
320,192,77261,1,0,0:0:0:0:
192,192,77348,1,0,0:0:0:0:
64,192,77348,1,0,0:0:0:0:
320,192,77522,1,0,0:0:0:0:
448,192,77522,1,0,0:0:0:0:
192,192,77608,1,0,0:0:0:0:
64,192,77608,1,0,0:0:0:0:
448,192,77782,1,0,0:0:0:0:
320,192,77782,1,0,0:0:0:0:
448,192,78042,1,0,0:0:0:0:
192,192,78042,1,0,0:0:0:0:
64,192,78302,1,0,0:0:0:0:
320,192,78302,1,0,0:0:0:0:
64,192,78562,1,0,0:0:0:0:
192,192,78562,1,0,0:0:0:0:
320,192,78822,1,0,0:0:0:0:
448,192,78822,1,0,0:0:0:0:
192,192,78996,1,0,0:0:0:0:
64,192,78996,1,0,0:0:0:0:
448,192,79169,1,0,0:0:0:0:
320,192,79169,1,0,0:0:0:0:
192,192,79342,1,0,0:0:0:0:
64,192,79516,1,0,0:0:0:0:
448,192,79516,1,0,0:0:0:0:
320,192,79689,1,0,0:0:0:0:
192,192,79863,1,0,0:0:0:0:
64,192,79949,1,0,0:0:0:0:
192,192,80036,1,0,0:0:0:0:
320,192,80123,1,0,0:0:0:0:
448,192,80209,1,0,0:0:0:0:
320,192,80383,1,0,0:0:0:0:
192,192,80556,1,0,0:0:0:0:
64,192,80556,1,0,0:0:0:0:
64,192,80816,1,0,0:0:0:0:
320,192,80816,1,0,0:0:0:0:
192,192,81076,1,0,0:0:0:0:
448,192,81076,1,0,0:0:0:0:
320,192,81337,1,0,0:0:0:0:
448,192,81337,1,0,0:0:0:0:
192,192,81597,1,0,0:0:0:0:
64,192,81597,1,0,0:0:0:0:
320,192,81770,1,0,0:0:0:0:
448,192,81770,1,0,0:0:0:0:
64,192,81944,1,0,0:0:0:0:
192,192,81944,1,0,0:0:0:0:
320,192,82030,1,0,0:0:0:0:
448,192,82117,1,0,0:0:0:0:
64,192,82290,1,0,0:0:0:0:
320,192,82290,1,0,0:0:0:0:
192,192,82377,1,0,0:0:0:0:
192,192,82637,1,0,0:0:0:0:
448,192,82637,1,0,0:0:0:0:
320,192,82724,1,0,0:0:0:0:
192,192,82984,1,0,0:0:0:0:
64,192,82984,1,0,0:0:0:0:
448,192,83157,1,0,0:0:0:0:
320,192,83157,1,0,0:0:0:0:
192,192,83331,1,0,0:0:0:0:
448,192,83331,1,0,0:0:0:0:
64,192,83331,128,0,87493:0:0:0:0:
320,192,86105,1,0,0:0:0:0:
448,192,86105,1,0,0:0:0:0:
192,192,86279,1,0,0:0:0:0:
320,192,86365,1,0,0:0:0:0:
320,192,86539,1,0,0:0:0:0:
448,192,86626,1,0,0:0:0:0:
192,192,86799,1,0,0:0:0:0:
320,192,86886,1,0,0:0:0:0:
448,192,86972,1,0,0:0:0:0:
320,192,87059,1,0,0:0:0:0:
192,192,87146,1,0,0:0:0:0:
320,192,87319,1,0,0:0:0:0:
448,192,87493,1,0,0:0:0:0:
192,192,87666,1,0,0:0:0:0:
448,192,87753,1,0,0:0:0:0:
320,192,87839,1,0,0:0:0:0:
64,192,87926,1,0,0:0:0:0:
192,192,88013,1,0,0:0:0:0:
448,192,88186,1,0,0:0:0:0:
320,192,88273,1,0,0:0:0:0:
192,192,88360,1,0,0:0:0:0:
64,192,88446,1,0,0:0:0:0:
192,192,88533,1,0,0:0:0:0:
320,192,88620,1,0,0:0:0:0:
448,192,88707,1,0,0:0:0:0:
320,192,88793,1,0,0:0:0:0:
192,192,88880,1,0,0:0:0:0:
64,192,88880,1,0,0:0:0:0:
448,192,89053,1,0,0:0:0:0:
192,192,89140,1,0,0:0:0:0:
64,192,89313,1,0,0:0:0:0:
320,192,89400,1,0,0:0:0:0:
192,192,89574,1,0,0:0:0:0:
320,192,89660,1,0,0:0:0:0:
448,192,89747,1,0,0:0:0:0:
320,192,89834,1,0,0:0:0:0:
192,192,89920,1,0,0:0:0:0:
64,192,90094,1,0,0:0:0:0:
448,192,90267,1,0,0:0:0:0:
320,192,90441,1,0,0:0:0:0:
64,192,90527,1,0,0:0:0:0:
448,192,90701,1,0,0:0:0:0:
192,192,90787,1,0,0:0:0:0:
320,192,90961,1,0,0:0:0:0:
64,192,91134,1,0,0:0:0:0:
192,192,91221,1,0,0:0:0:0:
448,192,91394,1,0,0:0:0:0:
320,192,91481,1,0,0:0:0:0:
192,192,91568,1,0,0:0:0:0:
64,192,91655,1,0,0:0:0:0:
448,192,91655,1,0,0:0:0:0:
320,192,91828,1,0,0:0:0:0:
64,192,92001,1,0,0:0:0:0:
192,192,92001,1,0,0:0:0:0:
320,192,92175,1,0,0:0:0:0:
192,192,92348,1,0,0:0:0:0:
64,192,92348,1,0,0:0:0:0:
320,192,92522,1,0,0:0:0:0:
192,192,92695,1,0,0:0:0:0:
64,192,92695,1,0,0:0:0:0:
320,192,92868,1,0,0:0:0:0:
448,192,93042,1,0,0:0:0:0:
64,192,93042,1,0,0:0:0:0:
192,192,93215,1,0,0:0:0:0:
320,192,93389,1,0,0:0:0:0:
448,192,93389,1,0,0:0:0:0:
192,192,93562,1,0,0:0:0:0:
320,192,93735,1,0,0:0:0:0:
448,192,93735,1,0,0:0:0:0:
192,192,93909,1,0,0:0:0:0:
320,192,94082,1,0,0:0:0:0:
448,192,94082,1,0,0:0:0:0:
192,192,94256,1,0,0:0:0:0:
64,192,94429,1,0,0:0:0:0:
448,192,94429,1,0,0:0:0:0:
320,192,94516,1,0,0:0:0:0:
192,192,94602,1,0,0:0:0:0:
64,192,94689,1,0,0:0:0:0:
320,192,94776,1,0,0:0:0:0:
448,192,94863,1,0,0:0:0:0:
320,192,94949,1,0,0:0:0:0:
192,192,95036,1,0,0:0:0:0:
64,192,95123,1,0,0:0:0:0:
448,192,95123,1,0,0:0:0:0:
320,192,95209,1,0,0:0:0:0:
192,192,95296,1,0,0:0:0:0:
320,192,95383,1,0,0:0:0:0:
448,192,95470,1,0,0:0:0:0:
64,192,95816,1,0,0:0:0:0:
192,192,95816,1,0,0:0:0:0:
320,192,95816,1,0,0:0:0:0:
448,192,96076,1,0,0:0:0:0:
192,192,96076,1,0,0:0:0:0:
64,192,96076,1,0,0:0:0:0:
448,192,96337,1,0,0:0:0:0:
320,192,96337,1,0,0:0:0:0:
64,192,96337,1,0,0:0:0:0:
320,192,96510,1,0,0:0:0:0:
448,192,96597,1,0,0:0:0:0:
64,192,96597,1,0,0:0:0:0:
192,192,96597,1,0,0:0:0:0:
320,192,96857,1,0,0:0:0:0:
448,192,96857,1,0,0:0:0:0:
192,192,97030,1,0,0:0:0:0:
64,192,97030,1,0,0:0:0:0:
320,192,97204,1,0,0:0:0:0:
448,192,97204,1,0,0:0:0:0:
64,192,97204,1,0,0:0:0:0:
192,192,97290,1,0,0:0:0:0:
320,192,97377,1,0,0:0:0:0:
448,192,97464,1,0,0:0:0:0:
192,192,97550,1,0,0:0:0:0:
64,192,97550,1,0,0:0:0:0:
320,192,97637,1,0,0:0:0:0:
448,192,97724,1,0,0:0:0:0:
320,192,97897,1,0,0:0:0:0:
64,192,97897,1,0,0:0:0:0:
192,192,97984,1,0,0:0:0:0:
448,192,98071,1,0,0:0:0:0:
320,192,98157,1,0,0:0:0:0:
192,192,98244,1,0,0:0:0:0:
64,192,98244,1,0,0:0:0:0:
320,192,98331,1,0,0:0:0:0:
192,192,98418,1,0,0:0:0:0:
320,192,98504,1,0,0:0:0:0:
448,192,98591,1,0,0:0:0:0:
64,192,98591,1,0,0:0:0:0:
192,192,98764,1,0,0:0:0:0:
320,192,98851,1,0,0:0:0:0:
192,192,98938,1,0,0:0:0:0:
64,192,98938,1,0,0:0:0:0:
320,192,99111,1,0,0:0:0:0:
192,192,99285,1,0,0:0:0:0:
448,192,99285,1,0,0:0:0:0:
320,192,99371,1,0,0:0:0:0:
64,192,99458,1,0,0:0:0:0:
192,192,99545,1,0,0:0:0:0:
320,192,99631,1,0,0:0:0:0:
448,192,99631,1,0,0:0:0:0:
64,192,99718,1,0,0:0:0:0:
192,192,99805,1,0,0:0:0:0:
320,192,99891,1,0,0:0:0:0:
64,192,99978,1,0,0:0:0:0:
448,192,99978,1,0,0:0:0:0:
320,192,100152,1,0,0:0:0:0:
192,192,100238,1,0,0:0:0:0:
64,192,100325,1,0,0:0:0:0:
448,192,100325,1,0,0:0:0:0:
320,192,100412,1,0,0:0:0:0:
192,192,100498,1,0,0:0:0:0:
320,192,100585,1,0,0:0:0:0:
192,192,100672,1,0,0:0:0:0:
64,192,100672,1,0,0:0:0:0:
320,192,100845,1,0,0:0:0:0:
448,192,100932,1,0,0:0:0:0:
320,192,101019,1,0,0:0:0:0:
192,192,101019,1,0,0:0:0:0:
64,192,101192,1,0,0:0:0:0:
192,192,101365,1,0,0:0:0:0:
448,192,101365,1,0,0:0:0:0:
64,192,101539,1,0,0:0:0:0:
192,192,101626,1,0,0:0:0:0:
320,192,101712,1,0,0:0:0:0:
448,192,101712,1,0,0:0:0:0:
192,192,101799,1,0,0:0:0:0:
320,192,101886,1,0,0:0:0:0:
448,192,102059,1,0,0:0:0:0:
64,192,102059,1,0,0:0:0:0:
320,192,102233,1,0,0:0:0:0:
192,192,102319,1,0,0:0:0:0:
320,192,102406,1,0,0:0:0:0:
448,192,102406,1,0,0:0:0:0:
64,192,102493,1,0,0:0:0:0:
192,192,102579,1,0,0:0:0:0:
320,192,102666,1,0,0:0:0:0:
64,192,102753,1,0,0:0:0:0:
448,192,102753,1,0,0:0:0:0:
320,192,102839,1,0,0:0:0:0:
192,192,102926,1,0,0:0:0:0:
64,192,103013,1,0,0:0:0:0:
320,192,103100,1,0,0:0:0:0:
192,192,103100,1,0,0:0:0:0:
448,192,103186,1,0,0:0:0:0:
320,192,103273,1,0,0:0:0:0:
192,192,103446,1,0,0:0:0:0:
64,192,103446,1,0,0:0:0:0:
320,192,103533,1,0,0:0:0:0:
192,192,103620,1,0,0:0:0:0:
64,192,103707,1,0,0:0:0:0:
320,192,103793,1,0,0:0:0:0:
448,192,103793,1,0,0:0:0:0:
192,192,103880,1,0,0:0:0:0:
320,192,103967,1,0,0:0:0:0:
448,192,104053,1,0,0:0:0:0:
192,192,104140,1,0,0:0:0:0:
64,192,104140,1,0,0:0:0:0:
320,192,104313,1,0,0:0:0:0:
192,192,104400,1,0,0:0:0:0:
320,192,104487,1,0,0:0:0:0:
448,192,104487,1,0,0:0:0:0:
64,192,104574,1,0,0:0:0:0:
192,192,104660,1,0,0:0:0:0:
320,192,104747,1,0,0:0:0:0:
64,192,104834,1,0,0:0:0:0:
448,192,104834,1,0,0:0:0:0:
192,192,104920,1,0,0:0:0:0:
320,192,105007,1,0,0:0:0:0:
448,192,105094,1,0,0:0:0:0:
320,192,105181,1,0,0:0:0:0:
192,192,105181,1,0,0:0:0:0:
64,192,105267,1,0,0:0:0:0:
192,192,105354,1,0,0:0:0:0:
320,192,105441,1,0,0:0:0:0:
64,192,105527,1,0,0:0:0:0:
192,192,105527,1,0,0:0:0:0:
448,192,105614,1,0,0:0:0:0:
320,192,105701,1,0,0:0:0:0:
192,192,105787,1,0,0:0:0:0:
64,192,105874,1,0,0:0:0:0:
448,192,105874,1,0,0:0:0:0:
320,192,105961,1,0,0:0:0:0:
192,192,106048,1,0,0:0:0:0:
64,192,106134,1,0,0:0:0:0:
320,192,106221,1,0,0:0:0:0:
192,192,106221,1,0,0:0:0:0:
448,192,106308,1,0,0:0:0:0:
320,192,106394,1,0,0:0:0:0:
192,192,106481,1,0,0:0:0:0:
64,192,106568,1,0,0:0:0:0:
448,192,106568,1,0,0:0:0:0:
320,192,106655,1,0,0:0:0:0:
192,192,106741,1,0,0:0:0:0:
64,192,106828,1,0,0:0:0:0:
320,192,106915,1,0,0:0:0:0:
448,192,106915,1,0,0:0:0:0:
192,192,107088,1,0,0:0:0:0:
448,192,107175,1,0,0:0:0:0:
192,192,107348,1,0,0:0:0:0:
448,192,107435,1,0,0:0:0:0:
192,192,107608,1,0,0:0:0:0:
64,192,107608,1,0,0:0:0:0:
320,192,107782,1,0,0:0:0:0:
448,192,107782,1,0,0:0:0:0:
192,192,107955,1,0,0:0:0:0:
64,192,107955,1,0,0:0:0:0:
320,192,108128,1,0,0:0:0:0:
448,192,108128,1,0,0:0:0:0:
192,192,108302,1,0,0:0:0:0:
64,192,108302,1,0,0:0:0:0:
64,192,108562,1,0,0:0:0:0:
320,192,108562,1,0,0:0:0:0:
448,192,108822,1,0,0:0:0:0:
192,192,108822,1,0,0:0:0:0:
320,192,109082,1,0,0:0:0:0:
448,192,109082,1,0,0:0:0:0:
448,192,109342,1,0,0:0:0:0:
320,192,109342,1,0,0:0:0:0:
192,192,109516,1,0,0:0:0:0:
64,192,109516,1,0,0:0:0:0:
320,192,109689,1,0,0:0:0:0:
448,192,109689,1,0,0:0:0:0:
192,192,109863,1,0,0:0:0:0:
64,192,110036,1,0,0:0:0:0:
448,192,110036,1,0,0:0:0:0:
192,192,110209,1,0,0:0:0:0:
448,192,110383,1,0,0:0:0:0:
320,192,110470,1,0,0:0:0:0:
192,192,110556,1,0,0:0:0:0:
64,192,110643,1,0,0:0:0:0:
320,192,110730,1,0,0:0:0:0:
192,192,110903,1,0,0:0:0:0:
320,192,111076,1,0,0:0:0:0:
448,192,111076,1,0,0:0:0:0:
448,192,111337,1,0,0:0:0:0:
192,192,111337,1,0,0:0:0:0:
320,192,111597,1,0,0:0:0:0:
64,192,111597,1,0,0:0:0:0:
192,192,111857,1,0,0:0:0:0:
64,192,111857,1,0,0:0:0:0:
64,192,112117,1,0,0:0:0:0:
192,192,112117,1,0,0:0:0:0:
448,192,112290,1,0,0:0:0:0:
320,192,112290,1,0,0:0:0:0:
192,192,112464,1,0,0:0:0:0:
64,192,112464,1,0,0:0:0:0:
320,192,112637,1,0,0:0:0:0:
192,192,112724,1,0,0:0:0:0:
448,192,112811,1,0,0:0:0:0:
64,192,112811,1,0,0:0:0:0:
320,192,112984,1,0,0:0:0:0:
192,192,113157,1,0,0:0:0:0:
64,192,113157,1,0,0:0:0:0:
320,192,113331,1,0,0:0:0:0:
448,192,113331,1,0,0:0:0:0:
64,192,113418,1,0,0:0:0:0:
192,192,113418,1,0,0:0:0:0:
448,192,113591,1,0,0:0:0:0:
320,192,113591,1,0,0:0:0:0:
192,192,113678,1,0,0:0:0:0:
64,192,113678,1,0,0:0:0:0:
320,192,113851,1,0,0:0:0:0:
448,192,113851,1,0,0:0:0:0:
192,192,114111,1,0,0:0:0:0:
448,192,114111,1,0,0:0:0:0:
320,192,114371,1,0,0:0:0:0:
64,192,114371,1,0,0:0:0:0:
64,192,114631,1,0,0:0:0:0:
192,192,114631,1,0,0:0:0:0:
320,192,114891,1,0,0:0:0:0:
448,192,114891,1,0,0:0:0:0:
192,192,115065,1,0,0:0:0:0:
64,192,115065,1,0,0:0:0:0:
320,192,115238,1,0,0:0:0:0:
448,192,115238,1,0,0:0:0:0:
64,192,115412,1,0,0:0:0:0:
192,192,115585,1,0,0:0:0:0:
448,192,115585,1,0,0:0:0:0:
320,192,115759,1,0,0:0:0:0:
64,192,115932,1,0,0:0:0:0:
192,192,116019,1,0,0:0:0:0:
320,192,116105,1,0,0:0:0:0:
448,192,116192,1,0,0:0:0:0:
192,192,116279,1,0,0:0:0:0:
320,192,116452,1,0,0:0:0:0:
192,192,116626,1,0,0:0:0:0:
64,192,116626,1,0,0:0:0:0:
64,192,116886,1,0,0:0:0:0:
448,192,116886,1,0,0:0:0:0:
320,192,117146,1,0,0:0:0:0:
448,192,117146,1,0,0:0:0:0:
192,192,117406,1,0,0:0:0:0:
64,192,117406,1,0,0:0:0:0:
448,192,117666,1,0,0:0:0:0:
64,192,117666,1,0,0:0:0:0:
192,192,117839,1,0,0:0:0:0:
320,192,117839,1,0,0:0:0:0:
448,192,118013,1,0,0:0:0:0:
64,192,118013,1,0,0:0:0:0:
192,192,118100,1,0,0:0:0:0:
320,192,118186,1,0,0:0:0:0:
64,192,118360,1,0,0:0:0:0:
448,192,118360,1,0,0:0:0:0:
192,192,118446,1,0,0:0:0:0:
448,192,118707,1,0,0:0:0:0:
64,192,118707,1,0,0:0:0:0:
320,192,118793,1,0,0:0:0:0:
192,192,118967,1,0,0:0:0:0:
64,192,118967,1,0,0:0:0:0:
320,192,119227,1,0,0:0:0:0:
448,192,119227,1,0,0:0:0:0:
