osu file format v14

[General]
AudioFilename: audio.mp3
AudioLeadIn: 0
PreviewTime: 24826
Countdown: 0
SampleSet: Normal
StackLeniency: 0.7
Mode: 1
LetterboxInBreaks: 0
WidescreenStoryboard: 0

[Editor]
Bookmarks: 12197,24846,35224,45603,61170,81927,92305
DistanceSpacing: 1
BeatDivisor: 4
GridSize: 4
TimelineZoom: 1.6

[Metadata]
Title:Evans
TitleUnicode:Evans
Artist:DJ YOSHITAKA
ArtistUnicode:DJ YOSHITAKA
Creator:op45667
Version:Nostalgia
Source:jubeat
Tags:cynplytholowazy cynp-zy electronic instrumental video game jukebeat nishimura hard renaissance konami bemani beatmania iidx 17 sirius reflec beat colette -all seasons- sound voltex IV heavenly haven sdvx pop'n music sunny park ポップンリズミン chunithm air plus sega DanceDanceRevolution A20
BeatmapID:3698054
BeatmapSetID:1803410

[Difficulty]
HPDrainRate:7
CircleSize:5
OverallDifficulty:7
ApproachRate:5
SliderMultiplier:1.4
SliderTickRate:1

[Events]
//Background and Video events
0,0,"bg.jpg",0,-95
//Break Periods
2,25046,34024
//Storyboard Layer 0 (Background)
//Storyboard Layer 1 (Fail)
//Storyboard Layer 2 (Pass)
//Storyboard Layer 3 (Foreground)
//Storyboard Layer 4 (Overlay)
//Storyboard Sound Samples

[TimingPoints]
198,324.324324324324,4,1,0,80,1,8
1495,324.324324324324,4,1,0,80,1,0
1495,-100,4,1,0,80,0,0
7007,-100,4,1,0,80,0,0
7169,-99.65673,4,1,0,80,0,0
7493,-98.97719,4,1,0,80,0,0
7656,-98.63882,4,1,0,80,0,0
7980,-97.973045,4,1,0,80,0,0
8142,-97.64352,4,1,0,80,0,0
8466,-96.991066,4,1,0,80,0,0
8629,-96.666115,4,1,0,80,0,0
8791,-96.345314,4,1,0,80,0,0
8953,-96.02662,4,1,0,80,0,0
9115,-95.71004,4,1,0,80,0,0
9277,-95.39553,4,1,0,80,0,0
9439,-95.08309,4,1,0,80,0,0
9764,-94.4624,4,1,0,80,0,0
9926,-94.15604,4,1,0,80,0,0
10088,-93.85164,4,1,0,80,0,0
10412,-93.248726,4,1,0,80,0,0
10575,-92.948326,4,1,0,80,0,0
10737,-92.65169,4,1,0,80,0,0
10899,-92.356926,4,1,0,80,0,0
11061,-92.06405,4,1,0,80,0,0
11142,-91.9183,4,1,0,80,0,0
11223,-91.77302,4,1,0,80,0,0
11385,-91.48381,4,1,0,80,0,0
11466,-91.33989,4,1,0,80,0,0
11629,-91.05165,4,1,0,80,0,0
11710,-90.90909,4,1,0,80,0,0
11873,-99.9999989,4,1,0,80,0,0
12197,-100,4,1,0,80,0,0
17385,-100,4,1,0,80,0,0
17548,-99.16934,4,1,0,80,0,0
17710,-98.35734,4,1,0,80,0,0
17872,-97.558525,4,1,0,80,0,0
17953,-97.16397,4,1,0,80,0,0
18034,-96.77259,4,1,0,80,0,0
18196,-95.999214,4,1,0,80,0,0
18358,-95.2381,4,1,0,80,0,0
18520,-94.48895,4,1,0,80,0,0
18601,-94.118774,4,1,0,80,0,0
18682,-93.7515,4,1,0,80,0,0
18845,-93.021034,4,1,0,80,0,0
18926,-92.662254,4,1,0,80,0,0
19007,-92.30623,4,1,0,80,0,0
19088,-91.952934,4,1,0,80,0,0
19169,-91.60233,4,1,0,80,0,0
19250,-91.254395,4,1,0,80,0,0
19331,-90.90909,4,1,0,80,0,0
19493,-90.226265,4,1,0,80,0,0
19574,-89.88867,4,1,0,80,0,0
19655,-89.55361,4,1,0,80,0,0
19818,-88.886856,4,1,0,80,0,0
19980,-88.233955,4,1,0,80,0,0
20142,-87.59058,4,1,0,80,0,0
20223,-87.2724,4,1,0,80,0,0
20304,-86.95651,4,1,0,80,0,0
20466,-86.33158,4,1,0,80,0,0
20547,-86.02245,4,1,0,80,0,0
20628,-85.71554,4,1,0,80,0,0
20710,-85.40706,4,1,0,80,0,0
20791,-85.10452,4,1,0,80,0,0
20872,-84.80411,4,1,0,80,0,0
20953,-84.50582,4,1,0,80,0,0
21115,-83.915474,4,1,0,80,0,0
21277,-83.33333,4,1,0,80,0,0
21358,-83.04528,4,1,0,80,0,0
21439,-82.75921,4,1,0,80,0,0
21520,-82.4751,4,1,0,80,0,0
21601,-82.19293,4,1,0,80,0,0
21683,-81.90925,4,1,0,80,0,0
21764,-81.630936,4,1,0,80,0,0
21818,-81.44644,4,1,0,80,0,0
21872,-81.26278,4,1,0,80,0,0
21926,-81.07995,4,1,0,80,0,0
22007,-80.807236,4,1,0,80,0,0
22088,-80.536354,4,1,0,80,0,0
22142,-80.35677,4,1,0,80,0,0
22196,-80.177986,4,1,0,80,0,0
22250,-79.99999,4,1,0,80,0,0
22413,-79.99999,4,1,0,30,0,0
24846,-90.9090909090909,4,1,0,50,0,0
35223,-100,4,1,0,80,0,0
35466,-99.59113,4,1,0,80,0,0
35710,-99.18393,4,1,0,80,0,0
35953,-98.78171,4,1,0,80,0,0
36196,-98.38273,4,1,0,80,0,0
36277,-98.25044,4,1,0,80,0,0
36358,-98.11852,4,1,0,80,0,0
36520,-97.85573,4,1,0,80,0,0
36764,-97.46258,4,1,0,80,0,0
37007,-97.07416,4,1,0,80,0,0
37250,-96.688835,4,1,0,80,0,0
37493,-96.30654,4,1,0,80,0,0
37575,-96.17822,4,1,0,80,0,0
37656,-96.051796,4,1,0,80,0,0
37818,-95.79996,4,1,0,80,0,0
38061,-95.424644,4,1,0,80,0,0
38304,-95.05227,4,1,0,80,0,0
38547,-94.682785,4,1,0,80,0,0
38791,-94.31467,4,1,0,80,0,0
38872,-94.19309,4,1,0,80,0,0
38953,-94.07183,4,1,0,80,0,0
39115,-93.830246,4,1,0,80,0,0
39358,-93.470184,4,1,0,80,0,0
39602,-93.11142,4,1,0,80,0,0
39845,-92.75684,4,1,0,80,0,0
40088,-92.40496,4,1,0,80,0,0
40169,-92.28825,4,1,0,80,0,0
40250,-92.17185,4,1,0,80,0,0
40412,-91.9399,4,1,0,80,0,0
40656,-91.592766,4,1,0,80,0,0
40899,-91.24964,4,1,0,80,0,0
41142,-90.90909,4,1,0,80,0,0
41385,-90.90909,4,1,0,80,0,0
41466,-90.671585,4,1,0,80,0,0
41547,-90.43533,4,1,0,80,0,0
41710,-89.963615,4,1,0,80,0,0
41953,-89.269455,4,1,0,80,0,0
42196,-88.585915,4,1,0,80,0,0
42439,-87.91277,4,1,0,80,0,0
42683,-87.24706,4,1,0,80,0,0
42764,-87.0283,4,1,0,80,0,0
42845,-86.81062,4,1,0,80,0,0
43007,-86.378525,4,1,0,80,0,0
43169,-85.950714,4,1,0,80,0,0
43250,-85.73839,4,1,0,80,0,0
43412,-85.31688,4,1,0,80,0,0
43493,-85.107666,4,1,0,80,0,0
43656,-84.68976,4,1,0,80,0,0
43736,-84.48615,4,1,0,80,0,0
43899,-84.074326,4,1,0,80,0,0
43980,-83.87116,4,1,0,80,0,0
44061,-83.66897,4,1,0,80,0,0
44142,-83.46776,4,1,0,80,0,0
44304,-83.06822,4,1,0,80,0,0
44466,-82.6725,4,1,0,80,0,0
44547,-82.476036,4,1,0,80,0,0
44710,-82.08352,4,1,0,80,0,0
44791,-81.889854,4,1,0,80,0,0
44953,-81.50525,4,1,0,80,0,0
45115,-81.12423,4,1,0,80,0,0
45169,-80.998024,4,1,0,80,0,0
45223,-80.8722,4,1,0,80,0,0
45277,-80.746765,4,1,0,80,0,0
45358,-80.55935,4,1,0,80,0,0
45439,-80.372795,4,1,0,80,0,0
45494,-80.24661,4,1,0,80,0,0
45548,-80.123116,4,1,0,80,0,0
45602,-79.99999,4,1,0,70,0,0
45926,-100,4,1,0,70,0,0
46250,-99.67878,4,1,0,70,0,0
46575,-99.35862,4,1,0,70,0,0
46737,-99.199814,4,1,0,70,0,0
46818,-99.12059,4,1,0,70,0,0
46899,-99.0415,4,1,0,70,0,0
47223,-98.726395,4,1,0,70,0,0
47548,-98.412315,4,1,0,70,0,0
47872,-98.1012,4,1,0,70,0,0
48034,-97.94638,4,1,0,70,0,0
48115,-97.86914,4,1,0,70,0,0
48196,-97.79205,4,1,0,70,0,0
48521,-97.48388,4,1,0,70,0,0
48845,-97.17858,4,1,0,70,0,0
49169,-96.875206,4,1,0,70,0,0
49331,-96.72423,4,1,0,70,0,0
49412,-96.6489,4,1,0,70,0,0
49493,-96.573715,4,1,0,70,0,0
49818,-96.27317,4,1,0,70,0,0
50142,-95.9754,4,1,0,70,0,0
50466,-95.679474,4,1,0,70,0,0
50629,-95.531296,4,1,0,70,0,0
50683,-95.4823,4,1,0,70,0,0
50737,-95.43336,4,1,0,70,0,0
50791,-95.38447,4,1,0,70,0,0
51115,-95.09217,4,1,0,70,0,0
51277,-94.946686,4,1,0,70,0,0
51439,-94.80166,4,1,0,70,0,0
51602,-94.656166,4,1,0,70,0,0
51764,-94.51202,4,1,0,70,0,0
51845,-94.44011,4,1,0,70,0,0
51926,-94.36832,4,1,0,70,0,0
51980,-94.3205,4,1,0,70,0,0
52034,-94.272736,4,1,0,70,0,0
52088,-94.22504,4,1,0,70,0,0
52412,-93.93979,4,1,0,70,0,0
52575,-93.796936,4,1,0,70,0,0
52737,-93.65539,4,1,0,70,0,0
52899,-93.51426,4,1,0,70,0,0
53061,-93.37357,4,1,0,70,0,0
53142,-93.30339,4,1,0,70,0,0
53223,-93.2333,4,1,0,70,0,0
53277,-93.18664,4,1,0,70,0,0
53331,-93.140015,4,1,0,70,0,0
53385,-93.09345,4,1,0,70,0,0
53710,-92.81414,4,1,0,70,0,0
54034,-92.53736,4,1,0,70,0,0
54358,-92.26223,4,1,0,70,0,0
54521,-92.12443,4,1,0,70,0,0
54602,-92.05611,4,1,0,70,0,0
54683,-91.987885,4,1,0,70,0,0
55007,-91.716,4,1,0,70,0,0
55331,-91.44572,4,1,0,70,0,0
55656,-91.17619,4,1,0,70,0,0
55818,-91.04244,4,1,0,70,0,0
55899,-90.975716,4,1,0,70,0,0
55980,-90.90431,4,1,0,80,0,0
56142,-90.13732,4,1,0,80,0,0
56304,-89.38316,4,1,0,80,0,0
56466,-88.64152,4,1,0,80,0,0
56548,-88.27079,4,1,0,80,0,0
56629,-87.907616,4,1,0,80,0,0
56710,-87.54742,4,1,0,80,0,0
56791,-87.19016,4,1,0,80,0,0
56953,-86.48432,4,1,0,80,0,0
57115,-85.78982,4,1,0,80,0,0
57277,-85.10638,4,1,0,80,0,0
57358,-84.76872,4,1,0,80,0,0
57439,-84.43375,4,1,0,80,0,0
57521,-84.097305,4,1,0,80,0,0
57602,-83.7676,4,1,0,80,0,0
57683,-83.44047,4,1,0,80,0,0
57764,-83.115875,4,1,0,80,0,0
57845,-82.79381,4,1,0,80,0,0
57926,-82.47422,4,1,0,80,0,0
58007,-82.1571,4,1,0,80,0,0
58088,-81.84239,4,1,0,80,0,0
58142,-81.63394,4,1,0,80,0,0
58196,-81.42653,4,1,0,80,0,0
58250,-81.22018,4,1,0,80,0,0
58331,-80.9126,4,1,0,80,0,0
58412,-80.60735,4,1,0,80,0,0
58466,-80.40512,4,1,0,80,0,0
58521,-80.20019,4,1,0,80,0,0
58575,-79.99999,4,1,0,80,0,0
59872,-99.98596,4,1,0,80,0,0
60034,-97.73646,4,1,0,80,0,0
60196,-95.537575,4,1,0,80,0,0
60358,-93.38815,4,1,0,80,0,0
60439,-92.33165,4,1,0,80,0,0
60602,-90.241684,4,1,0,80,0,0
60683,-89.22078,4,1,0,80,0,0
60764,-88.21141,4,1,0,80,0,0
60845,-87.21348,4,1,0,80,0,0
60926,-86.22682,4,1,0,80,0,0
61007,-85.25133,4,1,0,80,0,0
61170,-83.333336,4,1,0,100,0,1
79331,-83.330765,4,1,0,100,0,1
79493,-82.914894,4,1,0,100,0,1
79574,-82.70775,4,1,0,100,0,1
79736,-82.295,4,1,0,100,0,1
79817,-82.089386,4,1,0,100,0,1
79899,-81.881775,4,1,0,100,0,1
79980,-81.6772,4,1,0,100,0,1
80142,-81.2696,4,1,0,100,0,1
80223,-81.06655,4,1,0,100,0,1
80304,-80.86403,4,1,0,100,0,1
80385,-80.662,4,1,0,100,0,1
80466,-80.46047,4,1,0,100,0,1
80548,-80.25697,4,1,0,100,0,1
80629,-80.05646,4,1,0,100,0,1
80791,-79.656944,4,1,0,100,0,1
80872,-79.45793,4,1,0,100,0,1
80953,-79.259415,4,1,0,100,0,1
81115,-78.86386,4,1,0,100,0,1
81277,-78.47031,4,1,0,100,0,1
81358,-78.27426,4,1,0,100,0,1
81439,-78.0787,4,1,0,100,0,1
81521,-77.881226,4,1,0,100,0,1
81602,-77.68665,4,1,0,100,0,1
81764,-77.29895,4,1,0,100,0,1
81845,-77.10584,4,1,0,100,0,1
81927,-76.9230791952663,4,1,0,80,0,0
82251,-100,4,1,0,80,0,0
89710,-100,4,1,0,80,0,0
89872,-98.46271,4,1,0,80,0,0
90034,-96.97196,4,1,0,80,0,0
90115,-96.24339,4,1,0,80,0,0
90196,-95.52568,4,1,0,80,0,0
90277,-94.81861,4,1,0,80,0,0
90358,-94.12191,4,1,0,80,0,0
90521,-92.75052,4,1,0,80,0,0
90683,-91.42655,4,1,0,80,0,0
90764,-90.778656,4,1,0,80,0,0
90845,-90.139854,4,1,0,80,0,0
90926,-89.51001,4,1,0,80,0,0
91007,-88.888885,4,1,0,80,0,0
91169,-87.67216,4,1,0,80,0,0
91331,-86.48829,4,1,0,80,0,0
91493,-85.33596,4,1,0,80,0,0
91575,-84.76431,4,1,0,80,0,0
91737,-83.65718,4,1,0,80,0,0
91818,-83.11438,4,1,0,80,0,0
91899,-82.57859,4,1,0,80,0,0
91980,-82.04965,4,1,0,80,0,0
92061,-81.52746,4,1,0,80,0,0
92142,-81.01186,4,1,0,80,0,0
92196,-80.67174,4,1,0,80,0,0
92250,-80.334465,4,1,0,80,0,0
92305,-66.6666666666667,4,1,0,30,0,1
92386,-100,4,1,0,100,0,0
92630,-80,4,1,0,100,0,1
99923,-80,4,1,0,100,0,1
99977,-79.75008,4,1,0,100,0,1
100031,-79.5017,4,1,0,100,0,1
100085,-79.254875,4,1,0,100,0,1
100166,-78.8875,4,1,0,100,0,1
100247,-78.52351,4,1,0,100,0,1
100301,-78.28272,4,1,0,100,0,1
100355,-78.043396,4,1,0,100,0,1
100409,-77.80553,4,1,0,100,0,1
100490,-77.45143,4,1,0,100,0,1
100572,-77.09624,4,1,0,100,0,1
100626,-76.8641,4,1,0,100,0,1
100680,-76.633354,4,1,0,100,0,1
100734,-76.404,4,1,0,100,0,1
100815,-76.062515,4,1,0,100,0,1
100896,-75.724075,4,1,0,100,0,1
100950,-75.500114,4,1,0,100,0,1
101004,-75.27747,4,1,0,100,0,1
101058,-75.056145,4,1,0,100,0,1
101139,-74.72658,4,1,0,100,0,1
101220,-74.3999,4,1,0,100,0,1
101301,-74.076065,4,1,0,100,0,1
101382,-73.75503,4,1,0,100,0,1
101463,-73.43677,4,1,0,100,0,1
101545,-73.11737,4,1,0,100,0,1
101626,-72.80457,4,1,0,100,0,1
101707,-72.494446,4,1,0,100,0,1
101788,-72.18695,4,1,0,100,0,1
101869,-71.88205,4,1,0,100,0,1
101950,-71.57972,4,1,0,100,0,1
102031,-71.27991,4,1,0,100,0,1
102112,-70.982605,4,1,0,100,0,1
102193,-70.687775,4,1,0,100,0,1
102247,-70.492584,4,1,0,100,0,1
102301,-70.298454,4,1,0,100,0,1
102355,-70.1054,4,1,0,100,0,1
102436,-69.8178,4,1,0,100,0,1
102518,-69.529045,4,1,0,100,0,1
102572,-69.34017,4,1,0,100,0,1
102626,-69.15234,4,1,0,100,0,1
102684,-68.96552,4,1,0,100,0,0
102844,-68.96552,4,1,0,50,0,0
103332,-68.96552,4,1,0,30,0,0
103981,-68.96552,4,1,0,20,0,0
104630,-68.96552,4,1,0,10,0,0
105278,-68.96552,4,1,0,5,0,0

[HitObjects]
242,174,1495,5,4,0:0:0:0:
327,149,1657,1,0,0:0:0:0:
327,149,1819,1,8,0:0:0:0:
327,149,1981,1,0,0:0:0:0:
238,118,2305,1,0,0:0:0:0:
238,118,2467,1,8,0:0:0:0:
238,118,2792,1,8,0:0:0:0:
238,118,2954,1,4,0:0:0:0:
238,118,3278,1,8,0:0:0:0:
268,114,3440,1,4,0:0:0:0:
268,114,3765,1,4,0:0:0:0:
268,114,3927,1,8,0:0:0:0:
320,97,4008,1,8,0:0:0:0:
320,97,4089,1,4,0:0:0:0:
341,169,4251,1,0,0:0:0:0:
341,169,4413,1,8,0:0:0:0:
183,113,4576,1,0,0:0:0:0:
238,83,4900,1,0,0:0:0:0:
238,83,5062,1,8,0:0:0:0:
234,87,5386,1,8,0:0:0:0:
234,87,5549,1,0,0:0:0:0:
234,87,5711,1,8,0:0:0:0:
234,87,5873,1,8,0:0:0:0:
317,212,6035,1,0,0:0:0:0:
337,99,6116,1,0,0:0:0:0:
235,77,6197,1,8,0:0:0:0:
235,77,6251,1,8,0:0:0:0:
235,77,6305,1,8,0:0:0:0:
235,77,6359,1,0,0:0:0:0:
335,71,6440,1,0,0:0:0:0:
294,45,6522,1,8,0:0:0:0:
294,45,6576,1,8,0:0:0:0:
294,45,6630,1,8,0:0:0:0:
294,45,6684,1,4,0:0:0:0:
231,115,6846,1,8,0:0:0:0:
206,73,7008,1,4,0:0:0:0:
206,73,7170,1,8,0:0:0:0:
252,60,7494,1,0,0:0:0:0:
250,64,7657,1,8,0:0:0:0:
250,64,7981,1,8,0:0:0:0:
250,64,8143,1,4,0:0:0:0:
250,64,8467,1,8,0:0:0:0:
250,64,8630,1,4,0:0:0:0:
250,64,8792,1,8,0:0:0:0:
215,75,8954,1,4,0:0:0:0:
263,54,9116,1,8,0:0:0:0:
205,50,9278,1,4,0:0:0:0:
205,50,9440,1,8,0:0:0:0:
205,50,9765,1,8,0:0:0:0:
205,50,9927,1,4,0:0:0:0:
205,50,10089,1,8,0:0:0:0:
205,50,10413,1,8,0:0:0:0:
205,50,10576,1,4,0:0:0:0:
205,50,10738,1,4,0:0:0:0:
205,50,10900,1,12,0:0:0:0:
285,129,11062,1,8,0:0:0:0:
285,129,11143,1,8,0:0:0:0:
285,129,11224,1,4,0:0:0:0:
241,55,11467,1,4,0:0:0:0:
237,61,11711,1,12,0:0:0:0:
252,268,12197,1,4,0:0:0:0:
252,268,12359,1,8,0:0:0:0:
315,129,12522,1,0,0:0:0:0:
252,268,12684,1,0,0:0:0:0:
445,251,12765,1,0,0:0:0:0:
252,268,12846,1,8,0:0:0:0:
252,268,13008,1,8,0:0:0:0:
170,99,13170,1,0,0:0:0:0:
170,99,13332,1,0,0:0:0:0:
272,176,13413,1,0,0:0:0:0:
272,176,13494,1,8,0:0:0:0:
272,176,13657,1,8,0:0:0:0:
272,176,13738,1,8,0:0:0:0:
272,176,13819,1,0,0:0:0:0:
88,120,13900,1,8,0:0:0:0:
210,138,13981,1,0,0:0:0:0:
210,138,14062,1,0,0:0:0:0:
210,138,14143,1,8,0:0:0:0:
210,138,14305,1,8,0:0:0:0:
210,138,14386,1,8,0:0:0:0:
210,138,14467,1,0,0:0:0:0:
210,138,14630,1,8,0:0:0:0:
210,138,14792,1,8,0:0:0:0:
210,138,14954,1,0,0:0:0:0:
210,138,15116,1,0,0:0:0:0:
210,138,15278,1,8,0:0:0:0:
216,144,15359,1,8,0:0:0:0:
216,144,15440,1,0,0:0:0:0:
216,144,15522,1,0,0:0:0:0:
325,226,15603,1,8,0:0:0:0:
283,233,15684,1,8,0:0:0:0:
224,206,15765,1,4,0:0:0:0:
224,206,15927,1,4,0:0:0:0:
224,206,16089,1,12,0:0:0:0:
224,206,16251,1,8,0:0:0:0:
224,206,16332,1,8,0:0:0:0:
224,206,16413,1,4,0:0:0:0:
236,91,16576,1,8,0:0:0:0:
236,91,16657,1,8,0:0:0:0:
236,91,16738,1,4,0:0:0:0:
236,91,16900,1,8,0:0:0:0:
236,91,17062,1,4,0:0:0:0:
252,268,17386,1,4,0:0:0:0:
452,274,17549,1,8,0:0:0:0:
315,129,17711,1,0,0:0:0:0:
252,268,17873,1,0,0:0:0:0:
445,251,17954,1,0,0:0:0:0:
252,268,18035,1,8,0:0:0:0:
252,268,18197,1,8,0:0:0:0:
170,99,18359,1,4,0:0:0:0:
170,99,18521,1,0,0:0:0:0:
272,176,18602,1,0,0:0:0:0:
272,176,18683,1,8,0:0:0:0:
272,176,18846,1,8,0:0:0:0:
272,176,18927,1,8,0:0:0:0:
272,176,19008,1,0,0:0:0:0:
88,120,19089,1,8,0:0:0:0:
210,138,19170,1,0,0:0:0:0:
210,138,19251,1,0,0:0:0:0:
210,138,19332,1,8,0:0:0:0:
210,138,19494,1,8,0:0:0:0:
210,138,19575,1,8,0:0:0:0:
210,138,19656,1,4,0:0:0:0:
188,204,19819,1,0,0:0:0:0:
210,138,19981,1,8,0:0:0:0:
188,204,20143,1,8,0:0:0:0:
123,146,20224,1,8,0:0:0:0:
210,138,20305,1,4,0:0:0:0:
210,138,20467,1,8,0:0:0:0:
216,144,20548,1,8,0:0:0:0:
216,144,20629,1,0,0:0:0:0:
216,144,20711,1,0,0:0:0:0:
325,226,20792,1,8,0:0:0:0:
283,233,20873,1,8,0:0:0:0:
224,206,20954,1,4,0:0:0:0:
224,206,21116,1,4,0:0:0:0:
224,206,21278,1,8,0:0:0:0:
438,43,21359,1,0,0:0:0:0:
224,206,21440,1,8,0:0:0:0:
224,206,21521,1,8,0:0:0:0:
224,206,21602,1,0,0:0:0:0:
321,173,21684,1,0,0:0:0:0:
236,91,21765,1,8,0:0:0:0:
231,19,21819,1,8,0:0:0:0:
236,91,21873,1,8,0:0:0:0:
236,91,21927,1,4,0:0:0:0:
236,91,22089,1,0,0:0:0:0:
303,19,22143,1,0,0:0:0:0:
303,19,22197,1,0,0:0:0:0:
303,19,22251,1,12,0:0:0:0:
256,192,22413,12,0,24522,0:0:0:0:
247,109,24846,5,4,0:0:0:0:
450,277,35224,5,4,0:0:0:0:
349,130,35467,1,8,0:0:0:0:
353,250,35711,1,0,0:0:0:0:
330,237,35954,1,8,0:0:0:0:
330,237,36197,1,8,0:0:0:0:
330,237,36278,1,8,0:0:0:0:
330,237,36359,1,0,0:0:0:0:
176,162,36521,1,8,0:0:0:0:
176,162,36765,1,0,0:0:0:0:
212,162,37008,1,0,0:0:0:0:
212,162,37251,1,8,0:0:0:0:
212,162,37494,1,8,0:0:0:0:
212,162,37576,1,0,0:0:0:0:
212,162,37657,1,8,0:0:0:0:
212,162,37819,1,0,0:0:0:0:
368,228,38062,1,0,0:0:0:0:
368,228,38305,1,8,0:0:0:0:
368,228,38548,1,8,0:0:0:0:
368,228,38792,1,0,0:0:0:0:
368,228,38873,1,8,0:0:0:0:
368,228,38954,1,0,0:0:0:0:
368,228,39116,1,8,0:0:0:0:
450,286,39359,1,8,0:0:0:0:
353,293,39603,1,0,0:0:0:0:
219,92,39846,1,0,0:0:0:0:
359,80,40089,1,0,0:0:0:0:
214,32,40170,1,0,0:0:0:0:
214,32,40251,1,8,0:0:0:0:
297,91,40413,1,8,0:0:0:0:
297,91,40657,1,0,0:0:0:0:
205,18,40900,1,8,0:0:0:0:
152,24,41143,1,8,0:0:0:0:
193,101,41386,1,8,0:0:0:0:
209,51,41467,1,0,0:0:0:0:
209,51,41548,1,8,0:0:0:0:
317,37,41711,1,8,0:0:0:0:
150,236,41954,1,8,0:0:0:0:
150,236,42197,1,0,0:0:0:0:
150,236,42440,1,8,0:0:0:0:
163,184,42684,1,8,0:0:0:0:
163,184,42765,1,0,0:0:0:0:
163,184,42846,1,8,0:0:0:0:
163,184,43008,1,0,0:0:0:0:
163,184,43170,1,0,0:0:0:0:
163,184,43251,1,8,0:0:0:0:
206,45,43413,1,8,0:0:0:0:
206,45,43494,1,0,0:0:0:0:
174,141,43657,1,0,0:0:0:0:
206,45,43737,1,8,0:0:0:0:
134,286,43900,1,0,0:0:0:0:
281,74,43981,1,8,0:0:0:0:
281,74,44062,1,8,0:0:0:0:
225,76,44143,1,0,0:0:0:0:
203,28,44305,1,8,0:0:0:0:
373,308,44467,1,0,0:0:0:0:
214,31,44548,1,8,0:0:0:0:
373,308,44711,1,8,0:0:0:0:
373,308,44792,1,0,0:0:0:0:
197,33,44954,1,8,0:0:0:0:
373,100,45116,1,0,0:0:0:0:
246,99,45170,1,0,0:0:0:0:
246,99,45224,1,0,0:0:0:0:
246,99,45278,1,8,0:0:0:0:
197,75,45359,1,0,0:0:0:0:
212,22,45440,1,8,0:0:0:0:
246,99,45495,1,8,0:0:0:0:
246,99,45549,1,8,0:0:0:0:
246,99,45603,1,4,0:0:0:0:
306,305,45927,1,8,0:0:0:0:
306,305,46251,1,8,0:0:0:0:
306,305,46576,1,0,0:0:0:0:
306,305,46738,1,8,0:0:0:0:
306,305,46819,1,8,0:0:0:0:
306,305,46900,1,8,0:0:0:0:
235,280,47224,1,8,0:0:0:0:
175,228,47549,1,8,0:0:0:0:
175,228,47873,1,0,0:0:0:0:
156,217,48035,1,8,0:0:0:0:
156,217,48116,1,8,0:0:0:0:
133,224,48197,1,4,0:0:0:0:
228,85,48522,1,4,0:0:0:0:
228,85,48846,1,8,0:0:0:0:
228,85,49170,1,0,0:0:0:0:
228,85,49332,1,8,0:0:0:0:
228,85,49413,1,8,0:0:0:0:
228,85,49494,1,8,0:0:0:0:
228,85,49819,1,8,0:0:0:0:
228,85,50143,1,8,0:0:0:0:
228,85,50467,1,0,0:0:0:0:
130,63,50630,1,8,0:0:0:0:
130,63,50684,1,8,0:0:0:0:
235,69,50738,1,8,0:0:0:0:
235,69,50792,1,4,0:0:0:0:
337,86,51116,1,0,0:0:0:0:
337,86,51278,1,8,0:0:0:0:
337,86,51440,1,8,0:0:0:0:
337,86,51603,1,8,0:0:0:0:
337,86,51765,1,0,0:0:0:0:
337,86,51846,1,0,0:0:0:0:
337,86,51927,1,8,0:0:0:0:
392,173,51981,1,8,0:0:0:0:
392,173,52035,1,8,0:0:0:0:
383,156,52089,1,4,0:0:0:0:
237,71,52413,1,0,0:0:0:0:
303,73,52576,1,8,0:0:0:0:
303,73,52738,1,8,0:0:0:0:
303,73,52900,1,0,0:0:0:0:
303,73,53062,1,8,0:0:0:0:
303,73,53143,1,0,0:0:0:0:
339,93,53224,1,8,0:0:0:0:
339,93,53278,1,8,0:0:0:0:
339,93,53332,1,8,0:0:0:0:
339,93,53386,1,4,0:0:0:0:
429,254,53711,1,8,0:0:0:0:
429,254,54035,1,4,0:0:0:0:
429,254,54359,1,8,0:0:0:0:
429,254,54522,1,8,0:0:0:0:
436,114,54603,1,8,0:0:0:0:
436,114,54684,1,4,0:0:0:0:
208,66,55008,1,8,0:0:0:0:
208,66,55332,1,4,0:0:0:0:
208,66,55657,1,8,0:0:0:0:
208,66,55819,1,8,0:0:0:0:
228,117,55900,1,8,0:0:0:0:
228,117,55981,1,4,0:0:0:0:
326,236,56143,1,8,0:0:0:0:
326,236,56305,1,0,0:0:0:0:
326,236,56467,1,8,0:0:0:0:
326,236,56549,1,8,0:0:0:0:
326,236,56630,1,0,0:0:0:0:
206,108,56711,1,0,0:0:0:0:
326,236,56792,1,8,0:0:0:0:
330,238,56954,1,0,0:0:0:0:
330,238,57116,1,8,0:0:0:0:
170,253,57197,1,8,0:0:0:0:
330,238,57278,1,0,0:0:0:0:
330,238,57359,1,0,0:0:0:0:
330,238,57440,1,0,0:0:0:0:
330,238,57522,1,0,0:0:0:0:
330,238,57603,1,8,0:0:0:0:
330,238,57684,1,8,0:0:0:0:
330,238,57765,1,8,0:0:0:0:
330,238,57846,1,8,0:0:0:0:
330,238,57927,1,0,0:0:0:0:
330,238,58008,1,0,0:0:0:0:
330,238,58089,1,8,0:0:0:0:
285,91,58143,1,8,0:0:0:0:
264,57,58197,1,8,0:0:0:0:
330,238,58251,1,0,0:0:0:0:
190,61,58332,1,8,0:0:0:0:
450,56,58413,1,0,0:0:0:0:
450,56,58467,1,0,0:0:0:0:
450,56,58522,1,0,0:0:0:0:
450,56,58576,1,12,0:0:0:0:
256,192,58738,8,0,59549,0:0:0:0:
331,135,59873,5,0,0:0:0:0:
331,135,60035,1,0,0:0:0:0:
403,102,60197,1,8,0:0:0:0:
403,102,60359,1,0,0:0:0:0:
406,118,60440,1,8,0:0:0:0:
407,124,60603,1,8,0:0:0:0:
450,277,60684,1,0,0:0:0:0:
450,277,60765,1,8,0:0:0:0:
450,277,60846,1,0,0:0:0:0:
450,277,60927,1,0,0:0:0:0:
450,277,61008,1,8,0:0:0:0:
450,277,61170,1,4,0:0:0:0:
349,130,61332,1,0,0:0:0:0:
349,130,61413,1,8,0:0:0:0:
353,250,61576,1,0,0:0:0:0:
353,250,61657,1,8,0:0:0:0:
330,237,61819,1,0,0:0:0:0:
330,237,61900,1,0,0:0:0:0:
330,237,61981,1,8,0:0:0:0:
330,237,62062,1,0,0:0:0:0:
330,237,62143,1,8,0:0:0:0:
330,237,62224,1,8,0:0:0:0:
330,237,62305,1,0,0:0:0:0:
330,237,62386,1,0,0:0:0:0:
176,162,62467,1,8,0:0:0:0:
176,162,62630,1,8,0:0:0:0:
176,162,62711,1,0,0:0:0:0:
212,162,62873,1,0,0:0:0:0:
212,162,62954,1,8,0:0:0:0:
212,162,63035,1,0,0:0:0:0:
212,162,63116,1,8,0:0:0:0:
212,162,63197,1,0,0:0:0:0:
212,162,63278,1,0,0:0:0:0:
212,162,63359,1,8,0:0:0:0:
212,162,63440,1,0,0:0:0:0:
212,162,63522,1,8,0:0:0:0:
212,162,63603,1,8,0:0:0:0:
212,162,63684,1,8,0:0:0:0:
212,162,63765,1,0,0:0:0:0:
368,228,63927,1,8,0:0:0:0:
368,228,64008,1,0,0:0:0:0:
368,228,64170,1,0,0:0:0:0:
368,228,64251,1,8,0:0:0:0:
368,228,64413,1,0,0:0:0:0:
368,228,64494,1,8,0:0:0:0:
368,228,64576,1,8,0:0:0:0:
368,228,64657,1,8,0:0:0:0:
368,228,64738,1,0,0:0:0:0:
368,228,64819,1,0,0:0:0:0:
368,228,64900,1,8,0:0:0:0:
368,228,64981,1,8,0:0:0:0:
368,228,65062,1,4,0:0:0:0:
232,86,65224,1,8,0:0:0:0:
450,286,65305,1,0,0:0:0:0:
263,184,65386,1,0,0:0:0:0:
353,293,65467,1,8,0:0:0:0:
353,293,65549,1,0,0:0:0:0:
220,248,65630,1,8,0:0:0:0:
220,248,65711,1,4,0:0:0:0:
247,138,65873,1,8,0:0:0:0:
247,138,65954,1,4,0:0:0:0:
258,106,66116,1,8,0:0:0:0:
224,68,66197,1,4,0:0:0:0:
297,91,66359,1,8,0:0:0:0:
297,91,66522,1,8,0:0:0:0:
297,91,66603,1,8,0:0:0:0:
204,60,66684,1,4,0:0:0:0:
297,91,66846,1,0,0:0:0:0:
250,184,66927,1,8,0:0:0:0:
250,184,67089,1,0,0:0:0:0:
317,37,67170,1,8,0:0:0:0:
317,37,67251,1,8,0:0:0:0:
193,101,67332,1,0,0:0:0:0:
317,37,67413,1,8,0:0:0:0:
193,101,67494,1,4,0:0:0:0:
317,37,67657,1,4,0:0:0:0:
150,236,67819,1,8,0:0:0:0:
150,236,67900,1,0,0:0:0:0:
150,236,68062,1,8,0:0:0:0:
150,236,68143,1,0,0:0:0:0:
150,236,68224,1,8,0:0:0:0:
150,236,68305,1,0,0:0:0:0:
150,236,68386,1,8,0:0:0:0:
150,236,68467,1,8,0:0:0:0:
163,184,68549,1,0,0:0:0:0:
163,184,68630,1,8,0:0:0:0:
163,184,68711,1,0,0:0:0:0:
163,184,68792,1,8,0:0:0:0:
163,184,68873,1,8,0:0:0:0:
163,184,68954,1,4,0:0:0:0:
163,184,69116,1,0,0:0:0:0:
163,184,69197,1,8,0:0:0:0:
163,184,69359,1,0,0:0:0:0:
163,184,69440,1,0,0:0:0:0:
174,141,69522,1,8,0:0:0:0:
174,141,69603,1,4,0:0:0:0:
281,74,69765,1,8,0:0:0:0:
134,286,69846,1,0,0:0:0:0:
281,74,69927,1,8,0:0:0:0:
281,74,70008,1,0,0:0:0:0:
225,76,70089,1,8,0:0:0:0:
225,76,70170,1,8,0:0:0:0:
373,308,70251,1,4,0:0:0:0:
373,308,70413,1,4,0:0:0:0:
373,308,70576,1,8,0:0:0:0:
373,308,70657,1,8,0:0:0:0:
373,308,70738,1,4,0:0:0:0:
430,263,70981,1,8,0:0:0:0:
430,263,71062,1,4,0:0:0:0:
430,263,71224,1,12,0:0:0:0:
249,241,71386,1,4,0:0:0:0:
421,292,71549,1,4,0:0:0:0:
349,130,71711,1,0,0:0:0:0:
349,130,71792,1,8,0:0:0:0:
353,250,71955,1,0,0:0:0:0:
353,250,72036,1,8,0:0:0:0:
330,237,72198,1,0,0:0:0:0:
330,237,72279,1,0,0:0:0:0:
330,237,72359,1,8,0:0:0:0:
330,237,72441,1,8,0:0:0:0:
330,237,72522,1,0,0:0:0:0:
330,237,72603,1,0,0:0:0:0:
330,237,72684,1,8,0:0:0:0:
330,237,72765,1,0,0:0:0:0:
176,162,72846,1,8,0:0:0:0:
176,162,73009,1,8,0:0:0:0:
176,162,73090,1,0,0:0:0:0:
212,162,73252,1,0,0:0:0:0:
212,162,73333,1,0,0:0:0:0:
212,162,73414,1,8,0:0:0:0:
212,162,73495,1,0,0:0:0:0:
212,162,73576,1,8,0:0:0:0:
212,162,73657,1,8,0:0:0:0:
212,162,73738,1,0,0:0:0:0:
212,162,73819,1,0,0:0:0:0:
212,162,73901,1,8,0:0:0:0:
212,162,73982,1,0,0:0:0:0:
212,162,74063,1,8,0:0:0:0:
212,162,74144,1,0,0:0:0:0:
368,228,74306,1,8,0:0:0:0:
368,228,74387,1,0,0:0:0:0:
368,228,74549,1,0,0:0:0:0:
368,228,74630,1,8,0:0:0:0:
368,228,74792,1,0,0:0:0:0:
368,228,74873,1,8,0:0:0:0:
368,228,74955,1,8,0:0:0:0:
368,228,75036,1,8,0:0:0:0:
368,228,75117,1,0,0:0:0:0:
368,228,75198,1,0,0:0:0:0:
368,228,75279,1,8,0:0:0:0:
368,228,75360,1,8,0:0:0:0:
368,228,75440,1,4,0:0:0:0:
232,86,75603,1,8,0:0:0:0:
450,286,75684,1,8,0:0:0:0:
283,91,75765,1,4,0:0:0:0:
353,293,75927,1,8,0:0:0:0:
177,119,76008,1,8,0:0:0:0:
220,248,76090,1,4,0:0:0:0:
194,73,76251,1,8,0:0:0:0:
194,73,76332,1,4,0:0:0:0:
254,39,76494,1,8,0:0:0:0:
320,125,76576,1,4,0:0:0:0:
320,125,76738,1,4,0:0:0:0:
297,91,76900,1,8,0:0:0:0:
297,91,76981,1,8,0:0:0:0:
204,60,77062,1,0,0:0:0:0:
297,91,77224,1,0,0:0:0:0:
250,184,77305,1,8,0:0:0:0:
250,184,77467,1,0,0:0:0:0:
317,37,77548,1,8,0:0:0:0:
317,37,77629,1,0,0:0:0:0:
193,101,77710,1,0,0:0:0:0:
317,37,77791,1,8,0:0:0:0:
193,101,77872,1,8,0:0:0:0:
460,278,77954,1,8,0:0:0:0:
317,37,78035,1,4,0:0:0:0:
150,236,78197,1,8,0:0:0:0:
150,236,78278,1,0,0:0:0:0:
150,236,78440,1,8,0:0:0:0:
150,236,78521,1,8,0:0:0:0:
150,236,78602,1,0,0:0:0:0:
150,236,78683,1,0,0:0:0:0:
150,236,78764,1,8,0:0:0:0:
150,236,78845,1,8,0:0:0:0:
163,184,78927,1,0,0:0:0:0:
163,184,79008,1,8,0:0:0:0:
163,184,79089,1,0,0:0:0:0:
163,184,79170,1,8,0:0:0:0:
163,184,79251,1,8,0:0:0:0:
163,184,79332,1,4,0:0:0:0:
163,184,79494,1,0,0:0:0:0:
163,184,79575,1,8,0:0:0:0:
163,184,79737,1,0,0:0:0:0:
163,184,79818,1,0,0:0:0:0:
174,141,79900,1,8,0:0:0:0:
174,141,79981,1,4,0:0:0:0:
305,96,80143,1,8,0:0:0:0:
305,96,80224,1,0,0:0:0:0:
138,79,80305,1,8,0:0:0:0:
138,79,80386,1,0,0:0:0:0:
138,79,80467,1,8,0:0:0:0:
138,79,80549,1,8,0:0:0:0:
345,249,80630,1,4,0:0:0:0:
317,184,80792,1,0,0:0:0:0:
181,17,80873,1,0,0:0:0:0:
348,158,80954,1,12,0:0:0:0:
288,179,81116,1,4,0:0:0:0:
259,124,81278,1,0,0:0:0:0:
259,124,81359,1,8,0:0:0:0:
259,124,81440,1,0,0:0:0:0:
259,124,81522,1,0,0:0:0:0:
259,124,81603,1,12,0:0:0:0:
106,107,81765,1,8,0:0:0:0:
106,107,81846,1,0,0:0:0:0:
106,107,81927,1,12,0:0:0:0:
264,140,82251,1,4,0:0:0:0:
264,140,82413,1,8,0:0:0:0:
264,140,83224,1,0,0:0:0:0:
193,142,83549,1,4,0:0:0:0:
193,142,83711,1,8,0:0:0:0:
193,142,83873,1,4,0:0:0:0:
193,142,84035,1,8,0:0:0:0:
193,142,84197,1,4,0:0:0:0:
193,142,84522,1,4,0:0:0:0:
193,142,84846,1,8,0:0:0:0:
193,142,85170,1,4,0:0:0:0:
193,142,85494,1,8,0:0:0:0:
161,114,85657,1,8,0:0:0:0:
161,114,85819,1,4,0:0:0:0:
161,114,85981,1,8,0:0:0:0:
161,114,86143,1,4,0:0:0:0:
161,114,86305,1,8,0:0:0:0:
223,115,86467,1,4,0:0:0:0:
223,115,86630,1,8,0:0:0:0:
223,115,86711,1,4,0:0:0:0:
223,115,86873,1,8,0:0:0:0:
223,115,86954,1,4,0:0:0:0:
223,115,87116,1,4,0:0:0:0:
214,124,87440,1,0,0:0:0:0:
214,124,87603,1,0,0:0:0:0:
214,124,87765,1,8,0:0:0:0:
214,124,88089,1,4,0:0:0:0:
214,124,88413,1,4,0:0:0:0:
214,124,88738,1,8,0:0:0:0:
214,124,88900,1,0,0:0:0:0:
214,124,89062,1,8,0:0:0:0:
214,124,89386,1,4,0:0:0:0:
214,124,89711,1,4,0:0:0:0:
214,124,89873,1,8,0:0:0:0:
214,124,90035,1,8,0:0:0:0:
298,202,90116,1,0,0:0:0:0:
157,134,90197,1,8,0:0:0:0:
298,202,90278,1,8,0:0:0:0:
395,69,90359,1,4,0:0:0:0:
298,202,90522,1,8,0:0:0:0:
298,202,90684,1,0,0:0:0:0:
298,202,90765,1,0,0:0:0:0:
298,202,90846,1,8,0:0:0:0:
298,202,90927,1,8,0:0:0:0:
298,202,91008,1,4,0:0:0:0:
298,202,91170,1,0,0:0:0:0:
298,202,91332,1,8,0:0:0:0:
298,202,91494,1,0,0:0:0:0:
298,202,91576,1,8,0:0:0:0:
239,173,91738,1,8,0:0:0:0:
239,173,91819,1,8,0:0:0:0:
239,173,91900,1,0,0:0:0:0:
239,173,91981,1,8,0:0:0:0:
239,173,92062,1,0,0:0:0:0:
152,73,92143,1,8,0:0:0:0:
152,73,92197,1,8,0:0:0:0:
193,150,92251,1,8,0:0:0:0:
421,292,92305,1,0,0:0:0:0:
193,150,92630,1,4,0:0:0:0:
238,214,92792,1,8,0:0:0:0:
330,237,92954,1,0,0:0:0:0:
330,237,93035,1,8,0:0:0:0:
330,237,93116,1,8,0:0:0:0:
330,237,93197,1,0,0:0:0:0:
330,237,93278,1,8,0:0:0:0:
330,237,93359,1,8,0:0:0:0:
330,237,93440,1,0,0:0:0:0:
330,237,93521,1,0,0:0:0:0:
176,162,93602,1,8,0:0:0:0:
176,162,93765,1,8,0:0:0:0:
176,162,93846,1,0,0:0:0:0:
212,162,94008,1,0,0:0:0:0:
212,162,94089,1,8,0:0:0:0:
212,162,94170,1,0,0:0:0:0:
212,162,94251,1,0,0:0:0:0:
212,162,94332,1,8,0:0:0:0:
212,162,94413,1,8,0:0:0:0:
212,162,94494,1,0,0:0:0:0:
212,162,94575,1,8,0:0:0:0:
212,162,94657,1,0,0:0:0:0:
212,162,94738,1,0,0:0:0:0:
212,162,94819,1,8,0:0:0:0:
212,162,94900,1,0,0:0:0:0:
368,228,95062,1,8,0:0:0:0:
368,228,95143,1,0,0:0:0:0:
368,228,95305,1,0,0:0:0:0:
368,228,95386,1,8,0:0:0:0:
368,228,95548,1,0,0:0:0:0:
368,228,95629,1,8,0:0:0:0:
368,228,95711,1,0,0:0:0:0:
368,228,95792,1,8,0:0:0:0:
368,228,95873,1,0,0:0:0:0:
368,228,95954,1,0,0:0:0:0:
368,228,96035,1,8,0:0:0:0:
368,228,96116,1,8,0:0:0:0:
368,228,96197,1,4,0:0:0:0:
232,86,96359,1,4,0:0:0:0:
283,91,96521,1,8,0:0:0:0:
296,240,96603,1,8,0:0:0:0:
353,293,96684,1,0,0:0:0:0:
220,248,96846,1,0,0:0:0:0:
177,119,96926,1,12,0:0:0:0:
194,73,97088,1,0,0:0:0:0:
194,73,97169,1,12,0:0:0:0:
320,125,97332,1,4,0:0:0:0:
320,125,97494,1,4,0:0:0:0:
258,104,97657,1,4,0:0:0:0:
226,66,97819,1,8,0:0:0:0:
226,66,97900,1,0,0:0:0:0:
226,66,97981,1,8,0:0:0:0:
226,66,98062,1,8,0:0:0:0:
226,66,98143,1,4,0:0:0:0:
226,66,98305,1,8,0:0:0:0:
260,93,98359,1,8,0:0:0:0:
226,66,98413,1,8,0:0:0:0:
226,66,98467,1,4,0:0:0:0:
131,61,98630,1,8,0:0:0:0:
385,148,98792,1,4,0:0:0:0:
385,148,98954,1,4,0:0:0:0:
188,82,99116,1,8,0:0:0:0:
188,82,99197,1,0,0:0:0:0:
201,70,99278,1,8,0:0:0:0:
201,70,99359,1,8,0:0:0:0:
385,208,99440,1,4,0:0:0:0:
276,59,99603,1,8,0:0:0:0:
385,208,99765,1,4,0:0:0:0:
328,109,99927,1,8,0:0:0:0:
328,109,99981,1,8,0:0:0:0:
328,109,100035,1,8,0:0:0:0:
328,109,100089,1,0,0:0:0:0:
289,44,100170,1,8,0:0:0:0:
281,122,100251,1,0,0:0:0:0:
281,122,100305,1,0,0:0:0:0:
281,122,100359,1,0,0:0:0:0:
281,122,100413,1,8,0:0:0:0:
174,39,100494,1,0,0:0:0:0:
281,122,100576,1,8,0:0:0:0:
281,122,100630,1,0,0:0:0:0:
281,122,100684,1,0,0:0:0:0:
281,122,100738,1,8,0:0:0:0:
209,51,100819,1,0,0:0:0:0:
281,122,100900,1,8,0:0:0:0:
281,122,100954,1,8,0:0:0:0:
281,122,101008,1,8,0:0:0:0:
281,122,101062,1,0,0:0:0:0:
208,37,101143,1,8,0:0:0:0:
232,126,101224,1,0,0:0:0:0:
232,126,101305,1,8,0:0:0:0:
232,126,101386,1,0,0:0:0:0:
245,92,101467,1,0,0:0:0:0:
223,88,101549,1,8,0:0:0:0:
245,92,101630,1,0,0:0:0:0:
245,92,101711,1,8,0:0:0:0:
223,88,101792,1,8,0:0:0:0:
223,88,101873,1,0,0:0:0:0:
245,92,101954,1,8,0:0:0:0:
223,88,102035,1,0,0:0:0:0:
223,88,102116,1,0,0:0:0:0:
235,48,102197,1,8,0:0:0:0:
244,48,102251,1,0,0:0:0:0:
244,48,102305,1,0,0:0:0:0:
244,48,102359,1,8,0:0:0:0:
315,75,102440,1,0,0:0:0:0:
245,31,102522,1,8,0:0:0:0:
197,47,102576,1,8,0:0:0:0:
197,47,102630,1,8,0:0:0:0:
245,31,102684,1,4,0:0:0:0:
256,192,102846,12,0,105278,0:0:0:0:
