osu file format v14

[General]
AudioFilename: audio.mp3
AudioLeadIn: 0
PreviewTime: 24826
Countdown: 0
SampleSet: Normal
StackLeniency: 0.7
Mode: 1
LetterboxInBreaks: 0
WidescreenStoryboard: 1

[Editor]
Bookmarks: 12197,24846,35224,45603,61170,81927,92305
DistanceSpacing: 1
BeatDivisor: 4
GridSize: 4
TimelineZoom: 0.9999999

[Metadata]
Title:Evans
TitleUnicode:Evans
Artist:DJ YOSHITAKA
ArtistUnicode:DJ YOSHITAKA
Creator:op45667
Version:Futsuu
Source:jubeat
Tags:cynplytholowazy cynp-zy electronic instrumental video game jukebeat nishimura hard renaissance konami bemani beatmania iidx 17 sirius reflec beat colette -all seasons- sound voltex IV heavenly haven sdvx pop'n music sunny park ポップンリズミン chunithm air plus sega DanceDanceRevolution A20
BeatmapID:3698608
BeatmapSetID:1803410

[Difficulty]
HPDrainRate:7
CircleSize:5
OverallDifficulty:4
ApproachRate:5
SliderMultiplier:1.4
SliderTickRate:1

[Events]
//Background and Video events
0,0,"bg.jpg",0,-95
//Break Periods
2,25046,34024
//Storyboard Layer 0 (Background)
//Storyboard Layer 1 (Fail)
//Storyboard Layer 2 (Pass)
//Storyboard Layer 3 (Foreground)
//Storyboard Layer 4 (Overlay)
//Storyboard Sound Samples

[TimingPoints]
198,324.324324324324,4,1,0,80,1,8
1495,324.324324324324,4,1,0,80,1,0
1495,-100,4,1,0,80,0,0
22576,-100,4,1,0,30,0,0
24846,-100,4,1,0,50,0,0
35224,-100,4,1,0,80,0,0
45603,-100,4,1,0,70,0,0
55981,-100,4,1,0,80,0,0
61170,-90.9090909090909,4,1,0,100,0,1
81927,-100,4,1,0,80,0,0
92305,-100,4,1,0,30,0,1
92386,-100,4,1,0,100,0,0
92630,-90.9090909090909,4,1,0,100,0,1
102684,-90.9090909090909,4,1,0,100,0,0
102846,-90.9090909090909,4,1,0,50,0,0
103332,-90.9090909090909,4,1,0,30,0,0
103657,-90.9090909090909,4,1,0,30,0,0
103981,-90.9090909090909,4,1,0,20,0,0
104630,-90.9090909090909,4,1,0,10,0,0
104954,-90.9090909090909,4,1,0,10,0,0
105278,-90.9090909090909,4,1,0,5,0,0

[HitObjects]
242,174,1495,5,4,0:0:0:0:
238,118,2954,1,4,0:0:0:0:
268,114,3440,1,4,0:0:0:0:
268,114,3765,1,4,0:0:0:0:
320,97,4089,1,4,0:0:0:0:
317,212,6035,1,8,0:0:0:0:
235,77,6197,1,0,0:0:0:0:
235,77,6359,1,0,0:0:0:0:
294,45,6522,1,8,0:0:0:0:
294,45,6684,1,4,0:0:0:0:
206,73,7008,1,4,0:0:0:0:
250,64,8143,1,4,0:0:0:0:
250,64,8630,1,4,0:0:0:0:
215,75,8954,1,4,0:0:0:0:
205,50,9278,1,4,0:0:0:0:
205,50,9927,1,4,0:0:0:0:
205,50,10576,1,4,0:0:0:0:
205,50,10738,1,4,0:0:0:0:
205,50,10900,1,12,0:0:0:0:
285,129,11224,1,4,0:0:0:0:
241,55,11467,1,4,0:0:0:0:
237,61,11711,1,12,0:0:0:0:
252,268,12197,1,4,0:0:0:0:
252,268,12846,1,8,0:0:0:0:
170,99,13170,1,0,0:0:0:0:
205,137,13494,1,0,0:0:0:0:
281,97,13819,1,8,0:0:0:0:
210,138,14143,1,8,0:0:0:0:
210,138,14467,1,0,0:0:0:0:
210,138,15116,1,8,0:0:0:0:
216,144,15440,1,0,0:0:0:0:
224,206,15765,1,4,0:0:0:0:
224,206,15927,1,4,0:0:0:0:
224,206,16089,1,12,0:0:0:0:
224,206,16413,1,4,0:0:0:0:
236,91,16738,1,4,0:0:0:0:
236,91,17062,1,4,0:0:0:0:
252,268,17386,1,4,0:0:0:0:
252,268,18035,1,8,0:0:0:0:
170,99,18359,1,4,0:0:0:0:
272,176,19008,1,8,0:0:0:0:
281,97,19170,1,8,0:0:0:0:
210,138,19332,1,8,0:0:0:0:
210,138,19656,1,4,0:0:0:0:
210,138,19981,1,8,0:0:0:0:
210,138,20305,1,4,0:0:0:0:
216,144,20629,1,8,0:0:0:0:
224,206,20954,1,4,0:0:0:0:
224,206,21116,1,4,0:0:0:0:
224,206,21278,1,12,0:0:0:0:
204,37,21603,1,8,0:0:0:0:
236,91,21765,1,8,0:0:0:0:
236,91,21927,1,4,0:0:0:0:
303,19,22251,1,12,0:0:0:0:
256,192,22576,12,0,24522,0:0:0:0:
253,73,24846,5,4,0:0:0:0:
243,56,35224,5,4,0:0:0:0:
274,62,35467,1,8,0:0:0:0:
330,237,35711,1,0,0:0:0:0:
330,237,36197,1,8,0:0:0:0:
330,237,36359,1,0,0:0:0:0:
176,162,36521,1,8,0:0:0:0:
248,73,36765,1,0,0:0:0:0:
208,41,37008,1,8,0:0:0:0:
212,162,37494,1,0,0:0:0:0:
212,162,37657,1,8,0:0:0:0:
212,162,37819,1,0,0:0:0:0:
368,228,38062,1,0,0:0:0:0:
368,228,38305,1,8,0:0:0:0:
368,228,38549,1,8,0:0:0:0:
216,37,38792,1,8,0:0:0:0:
368,228,38954,1,0,0:0:0:0:
368,228,39116,1,8,0:0:0:0:
450,286,39359,1,8,0:0:0:0:
353,293,39603,1,0,0:0:0:0:
297,91,40413,1,8,0:0:0:0:
205,18,40657,1,8,0:0:0:0:
195,37,40900,1,0,0:0:0:0:
291,79,41386,1,0,0:0:0:0:
209,51,41548,1,8,0:0:0:0:
188,15,41711,1,8,0:0:0:0:
163,184,41954,1,0,0:0:0:0:
206,45,42197,1,0,0:0:0:0:
235,114,42684,1,0,0:0:0:0:
225,76,42846,1,8,0:0:0:0:
203,28,43008,1,8,0:0:0:0:
299,168,43251,1,8,0:0:0:0:
190,108,43494,1,0,0:0:0:0:
305,62,43738,1,0,0:0:0:0:
190,108,43981,1,8,0:0:0:0:
190,108,44143,1,0,0:0:0:0:
432,57,44305,1,0,0:0:0:0:
350,142,44549,1,8,0:0:0:0:
373,100,44792,1,0,0:0:0:0:
246,99,45278,1,8,0:0:0:0:
246,99,45441,1,8,0:0:0:0:
246,99,45603,1,4,0:0:0:0:
306,305,45927,1,8,0:0:0:0:
445,161,46251,1,0,0:0:0:0:
306,305,46576,1,0,0:0:0:0:
281,85,46738,1,8,0:0:0:0:
281,85,46900,1,8,0:0:0:0:
235,280,47224,1,0,0:0:0:0:
308,180,47549,1,8,0:0:0:0:
133,224,48197,1,4,0:0:0:0:
228,85,48522,1,4,0:0:0:0:
265,91,48846,1,8,0:0:0:0:
228,85,49170,1,0,0:0:0:0:
228,85,49332,1,8,0:0:0:0:
228,85,49494,1,8,0:0:0:0:
228,85,49819,1,8,0:0:0:0:
265,91,50143,1,0,0:0:0:0:
235,69,50792,1,4,0:0:0:0:
283,60,51116,1,0,0:0:0:0:
337,86,51278,1,8,0:0:0:0:
337,86,51765,1,0,0:0:0:0:
337,86,51927,1,8,0:0:0:0:
383,156,52089,1,4,0:0:0:0:
237,71,52413,1,0,0:0:0:0:
303,73,52576,1,8,0:0:0:0:
303,73,53062,1,8,0:0:0:0:
339,93,53224,1,8,0:0:0:0:
339,93,53386,1,4,0:0:0:0:
429,254,53711,1,8,0:0:0:0:
429,254,54035,1,4,0:0:0:0:
429,254,54359,1,8,0:0:0:0:
429,254,54522,1,8,0:0:0:0:
436,114,54684,1,4,0:0:0:0:
208,66,55008,1,8,0:0:0:0:
208,66,55332,1,4,0:0:0:0:
228,117,55981,1,4,0:0:0:0:
326,236,56143,1,8,0:0:0:0:
326,236,56305,1,0,0:0:0:0:
326,236,56467,1,8,0:0:0:0:
326,236,56630,1,0,0:0:0:0:
330,238,56954,1,0,0:0:0:0:
330,238,57278,1,0,0:0:0:0:
330,238,57440,1,0,0:0:0:0:
330,238,57603,1,8,0:0:0:0:
330,238,57765,1,8,0:0:0:0:
330,238,57927,1,8,0:0:0:0:
330,238,58251,1,0,0:0:0:0:
450,56,58576,1,4,0:0:0:0:
331,135,59873,1,0,0:0:0:0:
403,102,60197,1,8,0:0:0:0:
406,118,60440,1,8,0:0:0:0:
450,277,60684,1,8,0:0:0:0:
450,277,60846,1,0,0:0:0:0:
450,277,61170,1,4,0:0:0:0:
201,18,61413,1,0,0:0:0:0:
353,250,61657,1,8,0:0:0:0:
330,237,61900,1,0,0:0:0:0:
330,237,62143,1,8,0:0:0:0:
330,237,62305,1,8,0:0:0:0:
176,162,62467,1,8,0:0:0:0:
176,162,62711,1,0,0:0:0:0:
212,162,62954,1,8,0:0:0:0:
212,162,63440,1,8,0:0:0:0:
212,162,63603,1,8,0:0:0:0:
212,162,63765,1,0,0:0:0:0:
368,228,64008,1,0,0:0:0:0:
368,228,64251,1,8,0:0:0:0:
368,228,64494,1,8,0:0:0:0:
368,228,64738,1,0,0:0:0:0:
368,228,64900,1,8,0:0:0:0:
368,228,65062,1,4,0:0:0:0:
220,248,65711,1,4,0:0:0:0:
247,138,65954,1,4,0:0:0:0:
224,68,66197,1,4,0:0:0:0:
204,60,66684,1,4,0:0:0:0:
250,184,66846,1,8,0:0:0:0:
317,37,67089,1,8,0:0:0:0:
193,101,67332,1,0,0:0:0:0:
193,101,67494,1,12,0:0:0:0:
317,37,67657,1,4,0:0:0:0:
150,236,67900,1,8,0:0:0:0:
150,236,68143,1,0,0:0:0:0:
150,236,68386,1,0,0:0:0:0:
163,184,68630,1,8,0:0:0:0:
163,184,68792,1,8,0:0:0:0:
163,184,68954,1,4,0:0:0:0:
163,184,69197,1,8,0:0:0:0:
163,184,69440,1,8,0:0:0:0:
313,78,69603,1,4,0:0:0:0:
281,74,69927,1,8,0:0:0:0:
261,65,70251,1,4,0:0:0:0:
221,24,70413,1,4,0:0:0:0:
373,308,70738,1,4,0:0:0:0:
421,292,71549,1,4,0:0:0:0:
223,48,71792,1,8,0:0:0:0:
353,250,72036,1,0,0:0:0:0:
330,237,72279,1,8,0:0:0:0:
330,237,72522,1,0,0:0:0:0:
330,237,72684,1,0,0:0:0:0:
176,162,72846,1,8,0:0:0:0:
176,162,73090,1,0,0:0:0:0:
212,162,73333,1,8,0:0:0:0:
212,162,73819,1,8,0:0:0:0:
212,162,73982,1,0,0:0:0:0:
212,162,74144,1,8,0:0:0:0:
368,228,74387,1,0,0:0:0:0:
368,228,74630,1,8,0:0:0:0:
368,228,74873,1,0,0:0:0:0:
368,228,75117,1,8,0:0:0:0:
368,228,75278,1,8,0:0:0:0:
368,228,75441,1,4,0:0:0:0:
177,119,76089,1,4,0:0:0:0:
194,73,76332,1,4,0:0:0:0:
320,125,76576,1,12,0:0:0:0:
320,125,76738,1,4,0:0:0:0:
204,60,76981,1,0,0:0:0:0:
297,91,77224,1,0,0:0:0:0:
250,184,77467,1,8,0:0:0:0:
193,101,77710,1,8,0:0:0:0:
193,101,77873,1,8,0:0:0:0:
317,37,78035,1,4,0:0:0:0:
150,236,78278,1,8,0:0:0:0:
150,236,78522,1,0,0:0:0:0:
150,236,78765,1,0,0:0:0:0:
163,184,79009,1,8,0:0:0:0:
163,184,79171,1,8,0:0:0:0:
163,184,79333,1,4,0:0:0:0:
163,184,79576,1,8,0:0:0:0:
163,184,79819,1,8,0:0:0:0:
313,78,79982,1,4,0:0:0:0:
297,215,80305,1,8,0:0:0:0:
345,249,80630,1,4,0:0:0:0:
288,179,80954,1,12,0:0:0:0:
288,179,81116,1,4,0:0:0:0:
106,107,81927,1,12,0:0:0:0:
264,140,82251,1,4,0:0:0:0:
264,140,82413,1,8,0:0:0:0:
264,140,83224,1,0,0:0:0:0:
193,142,83549,1,4,0:0:0:0:
193,142,83873,1,4,0:0:0:0:
193,142,84197,1,4,0:0:0:0:
193,142,84522,1,4,0:0:0:0:
193,142,84846,1,8,0:0:0:0:
193,142,85170,1,4,0:0:0:0:
193,142,85494,1,8,0:0:0:0:
161,114,85819,1,4,0:0:0:0:
161,114,86143,1,4,0:0:0:0:
223,115,86467,1,4,0:0:0:0:
223,115,86711,1,4,0:0:0:0:
223,115,86954,1,4,0:0:0:0:
223,115,87116,1,4,0:0:0:0:
214,124,87765,1,8,0:0:0:0:
214,124,88089,1,4,0:0:0:0:
214,124,88413,1,4,0:0:0:0:
214,124,89062,1,8,0:0:0:0:
214,124,89386,1,4,0:0:0:0:
214,124,89711,1,4,0:0:0:0:
214,124,90035,1,8,0:0:0:0:
157,134,90197,1,8,0:0:0:0:
395,69,90359,1,4,0:0:0:0:
298,202,90684,1,0,0:0:0:0:
298,202,90846,1,8,0:0:0:0:
298,202,91008,1,4,0:0:0:0:
298,202,91332,1,8,0:0:0:0:
279,119,91494,1,8,0:0:0:0:
226,34,91657,1,0,0:0:0:0:
239,173,91819,1,0,0:0:0:0:
239,173,91981,1,8,0:0:0:0:
421,292,92305,1,0,0:0:0:0:
223,48,92630,1,12,0:0:0:0:
353,250,92792,1,0,0:0:0:0:
330,237,93035,1,0,0:0:0:0:
330,237,93278,1,8,0:0:0:0:
330,237,93440,1,8,0:0:0:0:
176,162,93602,1,8,0:0:0:0:
176,162,93846,1,0,0:0:0:0:
212,162,94089,1,8,0:0:0:0:
212,162,94575,1,8,0:0:0:0:
212,162,94738,1,8,0:0:0:0:
212,162,94900,1,0,0:0:0:0:
368,228,95143,1,0,0:0:0:0:
368,228,95386,1,8,0:0:0:0:
368,228,95629,1,8,0:0:0:0:
368,228,95873,1,0,0:0:0:0:
368,228,96035,1,8,0:0:0:0:
368,228,96197,1,4,0:0:0:0:
220,43,96359,1,4,0:0:0:0:
194,73,97170,1,12,0:0:0:0:
320,125,97332,1,4,0:0:0:0:
320,125,97494,1,4,0:0:0:0:
204,60,97657,1,4,0:0:0:0:
233,63,98305,1,8,0:0:0:0:
193,101,98467,1,8,0:0:0:0:
317,37,98791,1,4,0:0:0:0:
150,236,98954,1,4,0:0:0:0:
283,77,99603,1,8,0:0:0:0:
163,184,99764,1,0,0:0:0:0:
163,184,99926,1,8,0:0:0:0:
163,184,100088,1,4,0:0:0:0:
163,184,100413,1,8,0:0:0:0:
220,29,100738,1,8,0:0:0:0:
288,62,100900,1,8,0:0:0:0:
204,33,101062,1,0,0:0:0:0:
201,58,101224,1,8,0:0:0:0:
296,85,101386,1,4,0:0:0:0:
201,137,101711,1,8,0:0:0:0:
368,131,101873,1,0,0:0:0:0:
201,137,102035,1,12,0:0:0:0:
215,82,102359,1,8,0:0:0:0:
357,183,102522,1,8,0:0:0:0:
357,183,102684,1,4,0:0:0:0:
256,192,102846,12,0,105278,0:0:0:0:
