osu file format v14

[General]
AudioFilename: audio.mp3
AudioLeadIn: 0
PreviewTime: 24826
Countdown: 0
SampleSet: Normal
StackLeniency: 0.7
Mode: 1
LetterboxInBreaks: 0
WidescreenStoryboard: 1

[Editor]
Bookmarks: 12197,24846,35224,45603,61170,81927,92305
DistanceSpacing: 1
BeatDivisor: 4
GridSize: 32
TimelineZoom: 2.699999

[Metadata]
Title:Evans
TitleUnicode:Evans
Artist:DJ YOSHITAKA
ArtistUnicode:DJ YOSHITAKA
Creator:op45667
Version:Cynp-zy's Inner Oni
Source:jubeat
Tags:cynplytholowazy cynp-zy electronic instrumental video game jukebeat nishimura hard renaissance konami bemani beatmania iidx 17 sirius reflec beat colette -all seasons- sound voltex IV heavenly haven sdvx pop'n music sunny park ポップンリズミン chunithm air plus sega DanceDanceRevolution A20
BeatmapID:3698317
BeatmapSetID:1803410

[Difficulty]
HPDrainRate:6
CircleSize:10
OverallDifficulty:6
ApproachRate:10
SliderMultiplier:1.4
SliderTickRate:1

[Events]
//Background and Video events
0,0,"bg.jpg",0,-95
//Break Periods
2,25046,34774
//Storyboard Layer 0 (Background)
//Storyboard Layer 1 (Fail)
//Storyboard Layer 2 (Pass)
//Storyboard Layer 3 (Foreground)
//Storyboard Layer 4 (Overlay)
//Storyboard Sound Samples

[TimingPoints]
198,324.324324324324,4,1,0,80,1,8
1495,324.324324324324,4,1,0,80,1,0
1495,-100,4,1,0,80,0,0
22576,-100,4,1,0,30,0,0
24846,-100,4,1,0,50,0,0
35224,-100,4,1,0,80,0,0
45603,-100,4,1,0,70,0,0
55981,-100,4,1,0,80,0,0
61170,-90.9090909090909,4,1,0,100,0,1
81927,-100,4,1,0,80,0,0
92305,-100,4,1,0,30,0,1
92386,-100,4,1,0,100,0,0
92630,-90.9090909090909,4,1,0,100,0,1
102684,-90.9090909090909,4,1,0,100,0,0
102846,-90.9090909090909,4,1,0,50,0,0
103332,-90.9090909090909,4,1,0,30,0,0
103981,-90.9090909090909,4,1,0,20,0,0
104630,-90.9090909090909,4,1,0,10,0,0
105278,-90.9090909090909,4,1,0,5,0,0

[HitObjects]
256,192,1495,5,4,0:0:0:0:
256,192,2954,1,4,0:0:0:0:
256,192,3440,1,6,0:0:0:0:
256,192,3765,1,6,0:0:0:0:
256,192,4089,1,4,0:0:0:0:
256,192,6035,1,0,0:0:0:0:
256,192,6197,1,2,0:0:0:0:
256,192,6278,1,2,0:0:0:0:
256,192,6359,1,0,0:0:0:0:
256,192,6522,1,2,0:0:0:0:
256,192,6603,1,2,0:0:0:0:
256,192,6684,1,4,0:0:0:0:
256,192,7008,1,4,0:0:0:0:
256,192,8143,1,4,0:0:0:0:
256,192,8630,1,6,0:0:0:0:
256,192,8954,1,6,0:0:0:0:
256,192,9278,1,4,0:0:0:0:
256,192,9927,1,4,0:0:0:0:
256,192,10576,1,4,0:0:0:0:
256,192,10738,1,4,0:0:0:0:
256,192,11224,1,6,0:0:0:0:
256,192,11467,1,6,0:0:0:0:
256,192,11711,1,6,0:0:0:0:
256,192,12197,1,4,0:0:0:0:
256,192,12522,1,0,0:0:0:0:
256,192,12846,1,2,0:0:0:0:
256,192,13170,1,0,0:0:0:0:
256,192,13494,1,2,0:0:0:0:
256,192,13819,1,0,0:0:0:0:
256,192,13900,1,0,0:0:0:0:
256,192,14143,1,2,0:0:0:0:
256,192,14305,1,2,0:0:0:0:
256,192,14467,1,0,0:0:0:0:
256,192,14792,1,2,0:0:0:0:
256,192,15116,1,0,0:0:0:0:
256,192,15440,1,2,0:0:0:0:
256,192,15765,1,4,0:0:0:0:
256,192,15927,1,4,0:0:0:0:
256,192,16413,1,6,0:0:0:0:
256,192,16738,1,6,0:0:0:0:
256,192,17062,1,4,0:0:0:0:
256,192,17386,1,4,0:0:0:0:
256,192,17711,1,0,0:0:0:0:
256,192,18035,1,2,0:0:0:0:
256,192,18359,1,4,0:0:0:0:
256,192,18684,1,2,0:0:0:0:
256,192,19008,1,0,0:0:0:0:
256,192,19332,1,2,0:0:0:0:
256,192,19657,1,4,0:0:0:0:
256,192,19981,1,0,0:0:0:0:
256,192,20305,1,6,0:0:0:0:
256,192,20630,1,6,0:0:0:0:
256,192,20954,1,4,0:0:0:0:
256,192,21116,1,4,0:0:0:0:
256,192,21278,1,4,0:0:0:0:
256,192,21603,1,2,0:0:0:0:
256,192,21765,1,0,0:0:0:0:
256,192,21846,1,0,0:0:0:0:
256,192,21927,1,6,0:0:0:0:
256,192,22089,1,2,0:0:0:0:
256,192,22251,1,4,0:0:0:0:
256,192,24846,1,4,0:0:0:0:
256,192,35224,5,4,0:0:0:0:
256,192,35386,1,2,0:0:0:0:
256,192,35711,1,2,0:0:0:0:
256,192,36035,1,2,0:0:0:0:
256,192,36359,1,2,0:0:0:0:
256,192,36684,1,2,0:0:0:0:
256,192,37008,1,2,0:0:0:0:
256,192,37332,1,2,0:0:0:0:
256,192,37657,1,2,0:0:0:0:
256,192,37819,1,0,0:0:0:0:
256,192,37981,1,2,0:0:0:0:
256,192,38305,1,2,0:0:0:0:
256,192,38630,1,2,0:0:0:0:
256,192,38954,1,2,0:0:0:0:
256,192,39278,1,2,0:0:0:0:
256,192,39603,1,2,0:0:0:0:
256,192,39927,1,2,0:0:0:0:
256,192,40251,1,2,0:0:0:0:
256,192,40413,1,0,0:0:0:0:
256,192,40576,1,2,0:0:0:0:
256,192,40900,1,2,0:0:0:0:
256,192,41224,1,2,0:0:0:0:
256,192,41549,1,2,0:0:0:0:
256,192,41711,1,0,0:0:0:0:
256,192,41873,1,2,0:0:0:0:
256,192,42197,1,2,0:0:0:0:
256,192,42522,1,2,0:0:0:0:
256,192,42846,1,2,0:0:0:0:
256,192,43008,1,0,0:0:0:0:
256,192,43170,1,2,0:0:0:0:
256,192,43251,1,2,0:0:0:0:
256,192,43332,1,0,0:0:0:0:
256,192,43494,1,2,0:0:0:0:
256,192,43657,1,0,0:0:0:0:
256,192,43738,1,2,0:0:0:0:
256,192,43819,1,0,0:0:0:0:
256,192,43981,1,2,0:0:0:0:
256,192,44143,1,2,0:0:0:0:
256,192,44305,1,0,0:0:0:0:
256,192,44386,1,0,0:0:0:0:
256,192,44467,1,2,0:0:0:0:
256,192,44549,1,0,0:0:0:0:
256,192,44630,1,2,0:0:0:0:
256,192,44711,1,2,0:0:0:0:
256,192,44792,1,0,0:0:0:0:
256,192,44873,1,0,0:0:0:0:
256,192,44954,1,2,0:0:0:0:
256,192,45116,1,2,0:0:0:0:
256,192,45197,1,2,0:0:0:0:
256,192,45278,1,0,0:0:0:0:
256,192,45440,1,2,0:0:0:0:
256,192,45522,1,2,0:0:0:0:
256,192,45603,5,4,0:0:0:0:
256,192,45927,1,2,0:0:0:0:
256,192,46251,1,2,0:0:0:0:
256,192,46576,1,2,0:0:0:0:
256,192,46738,1,2,0:0:0:0:
256,192,46819,1,2,0:0:0:0:
256,192,46900,1,0,0:0:0:0:
256,192,47224,1,2,0:0:0:0:
256,192,47549,1,2,0:0:0:0:
256,192,47873,1,2,0:0:0:0:
256,192,48035,1,2,0:0:0:0:
256,192,48116,1,2,0:0:0:0:
256,192,48197,1,4,0:0:0:0:
256,192,48522,1,4,0:0:0:0:
256,192,48846,1,2,0:0:0:0:
256,192,49170,1,2,0:0:0:0:
256,192,49332,1,2,0:0:0:0:
256,192,49413,1,2,0:0:0:0:
256,192,49494,1,0,0:0:0:0:
256,192,49819,1,2,0:0:0:0:
256,192,50143,1,2,0:0:0:0:
256,192,50467,1,2,0:0:0:0:
256,192,50630,1,2,0:0:0:0:
256,192,50711,1,2,0:0:0:0:
256,192,50792,1,4,0:0:0:0:
256,192,51116,1,0,0:0:0:0:
256,192,51278,1,2,0:0:0:0:
256,192,51440,1,0,0:0:0:0:
256,192,51765,1,0,0:0:0:0:
256,192,51927,1,2,0:0:0:0:
256,192,52008,1,2,0:0:0:0:
256,192,52089,1,4,0:0:0:0:
256,192,52413,1,0,0:0:0:0:
256,192,52576,1,2,0:0:0:0:
256,192,52738,1,0,0:0:0:0:
256,192,53062,1,0,0:0:0:0:
256,192,53224,1,2,0:0:0:0:
256,192,53305,1,0,0:0:0:0:
256,192,53386,1,6,0:0:0:0:
256,192,53711,1,2,0:0:0:0:
256,192,54035,1,6,0:0:0:0:
256,192,54359,1,2,0:0:0:0:
256,192,54522,1,0,0:0:0:0:
256,192,54603,1,0,0:0:0:0:
256,192,54684,1,6,0:0:0:0:
256,192,55008,1,2,0:0:0:0:
256,192,55332,1,6,0:0:0:0:
256,192,55657,1,2,0:0:0:0:
256,192,55819,1,0,0:0:0:0:
256,192,55900,1,0,0:0:0:0:
256,192,55981,1,6,0:0:0:0:
256,192,56143,1,2,0:0:0:0:
256,192,56305,1,2,0:0:0:0:
256,192,56467,1,2,0:0:0:0:
256,192,56630,1,2,0:0:0:0:
256,192,56792,1,2,0:0:0:0:
256,192,56954,1,2,0:0:0:0:
256,192,57116,1,2,0:0:0:0:
256,192,57278,1,2,0:0:0:0:
256,192,57359,1,2,0:0:0:0:
256,192,57440,1,0,0:0:0:0:
256,192,57522,1,0,0:0:0:0:
256,192,57603,1,2,0:0:0:0:
256,192,57684,1,0,0:0:0:0:
256,192,57765,1,2,0:0:0:0:
256,192,57846,1,0,0:0:0:0:
256,192,57927,1,2,0:0:0:0:
256,192,58089,1,2,0:0:0:0:
256,192,58170,1,2,0:0:0:0:
256,192,58251,1,0,0:0:0:0:
256,192,58413,1,2,0:0:0:0:
256,192,58494,1,2,0:0:0:0:
256,192,58576,1,4,0:0:0:0:
256,192,59873,1,0,0:0:0:0:
256,192,60846,1,2,0:0:0:0:
256,192,61170,1,0,0:0:0:0:
256,192,61332,1,0,0:0:0:0:
256,192,61413,1,2,0:0:0:0:
256,192,61576,1,2,0:0:0:0:
256,192,61657,1,0,0:0:0:0:
256,192,61819,1,0,0:0:0:0:
256,192,61900,1,0,0:0:0:0:
256,192,62062,1,0,0:0:0:0:
256,192,62143,1,2,0:0:0:0:
256,192,62305,1,2,0:0:0:0:
256,192,62467,1,2,0:0:0:0:
256,192,62630,1,2,0:0:0:0:
256,192,62711,1,0,0:0:0:0:
256,192,62873,1,0,0:0:0:0:
256,192,62954,1,0,0:0:0:0:
256,192,63116,1,0,0:0:0:0:
256,192,63197,1,0,0:0:0:0:
256,192,63278,1,2,0:0:0:0:
256,192,63440,1,2,0:0:0:0:
256,192,63603,1,2,0:0:0:0:
256,192,63765,1,2,0:0:0:0:
256,192,63927,1,2,0:0:0:0:
256,192,64008,1,0,0:0:0:0:
256,192,64170,1,0,0:0:0:0:
256,192,64251,1,2,0:0:0:0:
256,192,64413,1,2,0:0:0:0:
256,192,64494,1,2,0:0:0:0:
256,192,64657,1,2,0:0:0:0:
256,192,64738,1,0,0:0:0:0:
256,192,64819,1,0,0:0:0:0:
256,192,64900,1,2,0:0:0:0:
256,192,64981,1,2,0:0:0:0:
256,192,65062,5,4,0:0:0:0:
256,192,65305,1,2,0:0:0:0:
256,192,65549,1,0,0:0:0:0:
256,192,65711,1,6,0:0:0:0:
256,192,65954,1,6,0:0:0:0:
256,192,66197,1,6,0:0:0:0:
256,192,66684,1,4,0:0:0:0:
256,192,66846,1,2,0:0:0:0:
256,192,67008,1,0,0:0:0:0:
256,192,67089,1,0,0:0:0:0:
256,192,67251,1,0,0:0:0:0:
256,192,67332,1,2,0:0:0:0:
256,192,67494,1,2,0:0:0:0:
256,192,67657,1,4,0:0:0:0:
256,192,67819,1,2,0:0:0:0:
256,192,67900,1,0,0:0:0:0:
256,192,68062,1,0,0:0:0:0:
256,192,68143,1,0,0:0:0:0:
256,192,68305,1,2,0:0:0:0:
256,192,68386,1,2,0:0:0:0:
256,192,68467,1,0,0:0:0:0:
256,192,68630,1,0,0:0:0:0:
256,192,68792,1,2,0:0:0:0:
256,192,68954,1,4,0:0:0:0:
256,192,69116,1,2,0:0:0:0:
256,192,69197,1,2,0:0:0:0:
256,192,69359,1,2,0:0:0:0:
256,192,69440,1,0,0:0:0:0:
256,192,69603,1,4,0:0:0:0:
256,192,69765,1,0,0:0:0:0:
256,192,69846,1,0,0:0:0:0:
256,192,69927,1,2,0:0:0:0:
256,192,70089,1,0,0:0:0:0:
256,192,70251,1,4,0:0:0:0:
256,192,70413,1,2,0:0:0:0:
256,192,70494,1,0,0:0:0:0:
256,192,70738,1,6,0:0:0:0:
256,192,70981,1,6,0:0:0:0:
256,192,71224,1,6,0:0:0:0:
256,192,71386,1,0,0:0:0:0:
256,192,71873,1,4,0:0:0:0:
256,192,72035,1,2,0:0:0:0:
256,192,72197,1,0,0:0:0:0:
256,192,72278,1,0,0:0:0:0:
256,192,72440,1,0,0:0:0:0:
256,192,72522,1,2,0:0:0:0:
256,192,72684,1,2,0:0:0:0:
256,192,72846,1,2,0:0:0:0:
256,192,73008,1,2,0:0:0:0:
256,192,73089,1,0,0:0:0:0:
256,192,73251,1,0,0:0:0:0:
256,192,73332,1,0,0:0:0:0:
256,192,73494,1,0,0:0:0:0:
256,192,73576,1,0,0:0:0:0:
256,192,73657,1,2,0:0:0:0:
256,192,73819,1,2,0:0:0:0:
256,192,73981,1,2,0:0:0:0:
256,192,74143,1,2,0:0:0:0:
256,192,74305,1,2,0:0:0:0:
256,192,74386,1,0,0:0:0:0:
256,192,74549,1,0,0:0:0:0:
256,192,74630,1,2,0:0:0:0:
256,192,74792,1,2,0:0:0:0:
256,192,74873,1,2,0:0:0:0:
256,192,75035,1,0,0:0:0:0:
256,192,75116,1,2,0:0:0:0:
256,192,75278,1,0,0:0:0:0:
256,192,75440,1,4,0:0:0:0:
256,192,75684,1,2,0:0:0:0:
256,192,75765,1,4,0:0:0:0:
256,192,75927,1,0,0:0:0:0:
256,192,76089,1,6,0:0:0:0:
256,192,76332,1,6,0:0:0:0:
256,192,76576,1,6,0:0:0:0:
256,192,76738,1,4,0:0:0:0:
256,192,76900,1,2,0:0:0:0:
256,192,76981,1,2,0:0:0:0:
256,192,77143,1,2,0:0:0:0:
256,192,77224,1,0,0:0:0:0:
256,192,77386,1,0,0:0:0:0:
256,192,77467,1,0,0:0:0:0:
256,192,77630,1,0,0:0:0:0:
256,192,77711,1,2,0:0:0:0:
256,192,77873,1,2,0:0:0:0:
256,192,78035,1,4,0:0:0:0:
256,192,78197,1,0,0:0:0:0:
256,192,78278,1,2,0:0:0:0:
256,192,78440,1,2,0:0:0:0:
256,192,78522,1,0,0:0:0:0:
256,192,78684,1,0,0:0:0:0:
256,192,78765,1,0,0:0:0:0:
256,192,78927,1,2,0:0:0:0:
256,192,79008,1,0,0:0:0:0:
256,192,79170,1,2,0:0:0:0:
256,192,79332,1,4,0:0:0:0:
256,192,79494,1,0,0:0:0:0:
256,192,79576,1,2,0:0:0:0:
256,192,79738,1,0,0:0:0:0:
256,192,79819,1,0,0:0:0:0:
256,192,79981,1,4,0:0:0:0:
256,192,80143,1,2,0:0:0:0:
256,192,80224,1,0,0:0:0:0:
256,192,80305,1,2,0:0:0:0:
256,192,80467,1,2,0:0:0:0:
256,192,80630,1,4,0:0:0:0:
256,192,80792,1,0,0:0:0:0:
256,192,80873,1,0,0:0:0:0:
256,192,81116,1,2,0:0:0:0:
256,192,81359,1,0,0:0:0:0:
256,192,81603,1,6,0:0:0:0:
256,192,81765,1,2,0:0:0:0:
256,192,81927,2,0,L|352:192,1,70
256,192,82251,1,4,0:0:0:0:
256,192,82413,1,2,0:0:0:0:
256,192,83224,1,0,0:0:0:0:
256,192,83549,1,4,0:0:0:0:
256,192,83711,1,0,0:0:0:0:
256,192,83873,1,6,0:0:0:0:
256,192,84197,1,6,0:0:0:0:
256,192,84522,1,4,0:0:0:0:
256,192,84846,1,0,0:0:0:0:
256,192,85170,1,4,0:0:0:0:
256,192,85494,1,2,0:0:0:0:
256,192,85657,1,2,0:0:0:0:
256,192,85819,1,4,0:0:0:0:
256,192,85981,1,2,0:0:0:0:
256,192,86143,1,4,0:0:0:0:
256,192,86467,1,4,0:0:0:0:
256,192,86711,1,4,0:0:0:0:
256,192,86954,1,4,0:0:0:0:
256,192,87116,1,6,0:0:0:0:
256,192,87765,1,0,0:0:0:0:
256,192,88089,1,4,0:0:0:0:
256,192,88413,1,6,0:0:0:0:
256,192,89062,1,0,0:0:0:0:
256,192,89386,1,4,0:0:0:0:
256,192,89711,1,6,0:0:0:0:
256,192,89873,1,0,0:0:0:0:
256,192,89954,1,0,0:0:0:0:
256,192,90035,1,2,0:0:0:0:
256,192,90197,1,2,0:0:0:0:
256,192,90359,1,4,0:0:0:0:
256,192,90522,1,2,0:0:0:0:
256,192,90684,1,0,0:0:0:0:
256,192,90846,1,0,0:0:0:0:
256,192,91008,1,6,0:0:0:0:
256,192,91332,1,0,0:0:0:0:
256,192,91657,1,2,0:0:0:0:
256,192,91819,1,0,0:0:0:0:
256,192,91981,1,2,0:0:0:0:
256,192,92143,1,2,0:0:0:0:
256,192,92630,1,2,0:0:0:0:
256,192,92792,1,0,0:0:0:0:
256,192,92954,1,0,0:0:0:0:
256,192,93035,1,0,0:0:0:0:
256,192,93197,1,0,0:0:0:0:
256,192,93278,1,2,0:0:0:0:
256,192,93440,1,2,0:0:0:0:
256,192,93602,1,2,0:0:0:0:
256,192,93765,1,2,0:0:0:0:
256,192,93846,1,0,0:0:0:0:
256,192,94008,1,0,0:0:0:0:
256,192,94089,1,0,0:0:0:0:
256,192,94251,1,0,0:0:0:0:
256,192,94332,1,0,0:0:0:0:
256,192,94413,1,2,0:0:0:0:
256,192,94575,1,2,0:0:0:0:
256,192,94738,1,2,0:0:0:0:
256,192,94900,1,2,0:0:0:0:
256,192,95062,1,2,0:0:0:0:
256,192,95143,1,0,0:0:0:0:
256,192,95305,1,0,0:0:0:0:
256,192,95386,1,2,0:0:0:0:
256,192,95548,1,2,0:0:0:0:
256,192,95629,1,2,0:0:0:0:
256,192,95792,5,2,0:0:0:0:
256,192,95873,1,0,0:0:0:0:
256,192,95954,1,0,0:0:0:0:
256,192,96035,1,2,0:0:0:0:
256,192,96116,1,2,0:0:0:0:
256,192,96197,5,4,0:0:0:0:
256,192,96359,1,4,0:0:0:0:
256,192,96684,1,0,0:0:0:0:
256,192,96846,1,2,0:0:0:0:
256,192,96927,1,2,0:0:0:0:
256,192,97008,1,0,0:0:0:0:
256,192,97170,1,6,0:0:0:0:
256,192,97494,1,4,0:0:0:0:
256,192,97657,1,4,0:0:0:0:
256,192,98143,1,6,0:0:0:0:
256,192,98305,1,0,0:0:0:0:
256,192,98386,1,0,0:0:0:0:
256,192,98467,1,6,0:0:0:0:
256,192,98630,1,2,0:0:0:0:
256,192,98711,1,2,0:0:0:0:
256,192,98792,1,4,0:0:0:0:
256,192,98954,1,4,0:0:0:0:
256,192,99440,1,6,0:0:0:0:
256,192,99603,1,0,0:0:0:0:
256,192,99684,1,0,0:0:0:0:
256,192,99765,1,6,0:0:0:0:
256,192,99927,1,2,0:0:0:0:
256,192,100008,1,2,0:0:0:0:
256,192,100089,1,4,0:0:0:0:
256,192,100251,1,0,0:0:0:0:
256,192,100332,1,2,0:0:0:0:
256,192,100413,1,0,0:0:0:0:
256,192,100576,1,2,0:0:0:0:
256,192,100657,1,2,0:0:0:0:
256,192,100738,1,4,0:0:0:0:
256,192,100900,1,2,0:0:0:0:
256,192,100981,1,0,0:0:0:0:
256,192,101062,1,2,0:0:0:0:
256,192,101224,1,2,0:0:0:0:
256,192,101386,1,0,0:0:0:0:
256,192,101467,1,0,0:0:0:0:
256,192,101549,1,2,0:0:0:0:
256,192,101630,1,0,0:0:0:0:
256,192,101711,1,2,0:0:0:0:
256,192,101792,1,2,0:0:0:0:
256,192,101873,1,0,0:0:0:0:
256,192,101954,1,2,0:0:0:0:
256,192,102035,1,0,0:0:0:0:
256,192,102116,1,0,0:0:0:0:
256,192,102197,1,2,0:0:0:0:
256,192,102278,1,0,0:0:0:0:
256,192,102359,1,2,0:0:0:0:
256,192,102440,1,2,0:0:0:0:
256,192,102522,1,0,0:0:0:0:
256,192,102603,1,2,0:0:0:0:
256,192,102684,1,4,0:0:0:0:
256,192,102846,12,0,105278,0:0:0:0:
