osu file format v14

[General]
AudioFilename: audio.mp3
AudioLeadIn: 0
PreviewTime:24846
Countdown: 0
SampleSet: Soft
StackLeniency: 0.7
Mode: 0
LetterboxInBreaks: 0
WidescreenStoryboard: 1

[Editor]
DistanceSpacing: 0.6
BeatDivisor: 4
GridSize: 4
TimelineZoom: 1.8

[Metadata]
Title:Evans
TitleUnicode:Evans
Artist:DJ YOSHITAKA
ArtistUnicode:DJ YOSHITAKA
Creator:Leader
Version:vikala's Insane
Source:jubeat
Tags:Acylica Acyl fanzhen0019 Muya Kloyd -kevincela- Nemis Sulfur toybot vikala Natteke desu Jounzan EvilElvis EvilElvisV2 BEMANI beatmania IIDX 17 SIRIUS REFLEC BEAT colette -All Seasons- HARD RENAISSANCE SOUND VOLTEX IV HEAVENLY HAVEN SDVX pop'n music Sunny Park CHUNITHM AIR PLUS SEGA Instrumental Electronic Video Game
BeatmapID:2141049
BeatmapSetID:1023491

[Difficulty]
HPDrainRate:6
CircleSize:4
OverallDifficulty:8
ApproachRate:9
SliderMultiplier:1.7
SliderTickRate:1

[Events]
//Background and Video events
0,0,"bg.jpg",0,0
//Break Periods
//Storyboard Layer 0 (Background)
//Storyboard Layer 1 (Fail)
//Storyboard Layer 2 (Pass)
//Storyboard Layer 3 (Foreground)
//Storyboard Layer 4 (Overlay)
//Storyboard Sound Samples

[TimingPoints]
1495,324.324324324324,4,1,1,60,1,0
5386,-100,4,1,1,40,0,0
6197,-100,4,1,1,50,0,0
6684,-100,4,1,1,60,0,0
7332,-100,4,1,1,50,0,0
11711,-200,4,1,1,60,0,0
12035,-200,4,1,1,5,0,0
12197,-100,4,1,1,60,0,0
24846,-133.333333333333,4,2,1,50,0,0
35224,-133.333333333333,4,2,1,60,0,0
41062,-133.333333333333,4,1,1,30,0,0
41711,-133.333333333333,4,1,1,35,0,0
42359,-133.333333333333,4,1,1,40,0,0
42684,-133.333333333333,4,1,1,45,0,0
43008,-133.333333333333,4,1,1,50,0,0
43332,-133.333333333333,4,1,1,55,0,0
43657,-133.333333333333,4,1,1,60,0,0
45603,-133.333333333333,4,1,1,70,0,0
45927,-133.333333333333,4,1,1,50,0,0
46900,-100,4,1,1,60,0,0
61170,-90.9090909090909,4,1,1,70,0,1
66197,-200,4,1,1,70,0,0
66522,-200,4,1,1,5,0,0
66684,-90.9090909090909,4,1,1,70,0,1
82089,-90.9090909090909,4,2,1,5,0,1
82251,-133.333333333333,4,1,1,70,0,0
82413,-133.333333333333,4,2,1,60,0,0
83549,-100,4,1,1,60,0,0
87116,-133.333333333333,4,1,1,60,0,0
89305,-133.333333333333,4,1,1,5,0,0
89386,-133.333333333333,4,1,1,60,0,0
91008,-90.9090909090909,4,1,1,60,0,0

[Colours]
Combo1 : 51,56,255
Combo2 : 41,235,235
Combo3 : 18,124,255
Combo4 : 160,252,250

[HitObjects]
465,121,1495,5,4,0:0:0:0:
390,93,1657,1,0,0:0:0:0:
329,143,1819,1,0,0:0:0:0:
403,166,1981,1,0,0:0:0:0:
465,121,2467,5,2,2:0:0:0:
275,245,2792,5,0,0:0:0:0:
211,194,2954,2,0,L|40:175,1,170,4|0,0:0|0:0,0:0:0:0:
275,245,3440,2,0,P|297:290|288:339,1,85,4|0,0:2|0:0,0:0:0:0:
276,142,3765,2,0,P|282:104|309:66,1,85,4|0,0:2|0:0,0:0:0:0:
119,159,4089,5,4,0:0:0:0:
103,79,4251,1,0,0:0:0:0:
183,63,4413,1,0,0:0:0:0:
198,141,4576,1,0,0:0:0:0:
119,159,5062,5,2,2:0:0:0:
352,301,5386,6,0,L|360:213,1,85
426,177,5711,1,0,0:0:0:0:
502,187,5873,2,0,L|494:102,1,85
439,45,6197,6,0,L|441:19,4,21.25
352,118,6522,2,0,L|354:144,4,21.25,0|0|0|0|4,0:0|0:0|0:0|0:0|0:2,0:0:0:0:
352,118,7008,6,0,P|283:71|202:88,1,170,4|0,0:0|0:0,0:0:0:0:
155,153,7494,1,0,0:0:0:0:
79,139,7657,2,0,P|64:97|73:47,1,85
155,153,7981,5,0,0:0:0:0:
64,250,8143,2,0,P|132:203|213:220,1,170,4|0,0:0|0:0,0:0:0:0:
270,314,8630,2,0,P|228:317|190:298,1,85,4|0,0:2|0:0,0:0:0:0:
375,216,8954,2,0,P|332:215|296:235,1,85,4|0,0:2|0:0,0:0:0:0:
459,245,9278,5,4,0:0:0:0:
459,245,9927,5,4,0:0:0:0:
459,245,10576,5,4,0:0:0:0:
375,216,10738,2,0,L|367:55,1,127.5,4|0,0:0|2:0,0:0:0:0:
390,57,11062,1,8,0:0:0:0:
270,166,11224,5,4,0:2:0:0:
473,130,11467,5,4,0:2:0:0:
270,166,11711,6,0,P|231:148|189:151,1,85,4|0,0:2|2:0,0:0:0:0:
101,134,12197,6,0,P|176:108|175:28,1,170,4|0,0:0|0:0,0:0:0:0:
19,107,12684,1,0,0:0:0:0:
133,216,12846,2,0,P|133:263|128:300,1,85,8|0,0:0|0:0,0:0:0:0:
47,253,13170,1,0,0:0:0:0:
218,265,13332,2,0,P|217:217|222:180,1,85,0|8,0:0|0:0,0:0:0:0:
383,216,13657,5,0,0:0:0:0:
383,216,13738,2,0,L|295:223,1,85,0|8,0:0|0:0,0:0:0:0:
298,222,13981,1,0,0:0:0:0:
425,31,14143,2,0,L|453:112,1,85,8|0,0:0|0:0,0:0:0:0:
368,131,14467,6,0,P|323:86|261:75,1,127.5,0|0,0:0|2:0,0:0:0:0:
226,54,14792,1,8,0:0:0:0:
167,180,14954,2,0,P|206:165|249:161,1,85
359,294,15278,1,0,0:0:0:0:
384,215,15440,2,0,P|341:215|302:230,1,85,8|0,0:0|0:0,0:0:0:0:
238,314,15765,5,4,0:0:0:0:
61,299,15927,1,8,0:0:0:0:
207,296,16089,1,0,0:0:0:0:
86,322,16251,1,8,0:0:0:0:
168,368,16413,5,4,0:2:0:0:
152,116,16738,1,4,0:2:0:0:
168,368,17062,2,0,P|171:324|178:283,1,85,4|0,0:2|0:0,0:0:0:0:
45,230,17386,2,0,B|138:259|106:178|225:206,1,170,4|0,0:0|0:0,0:0:0:0:
363,166,17873,1,0,0:0:0:0:
271,128,18035,2,0,P|282:171|287:211,1,85,8|0,0:0|0:0,0:0:0:0:
433,293,18359,6,0,P|393:276|352:268,1,85,4|0,0:0|0:0,0:0:0:0:
478,221,18684,1,8,0:0:0:0:
367,353,18846,2,0,L|223:365,1,127.5,0|8,0:0|0:0,0:0:0:0:
210,339,19170,5,0,0:0:0:0:
231,193,19332,1,8,0:0:0:0:
268,271,19494,1,0,0:0:0:0:
170,260,19657,2,0,P|151:222|146:180,1,85,4|0,0:0|0:0,0:0:0:0:
290,126,19981,5,8,0:0:0:0:
268,271,20143,1,0,0:0:0:0:
146,180,20305,2,0,P|150:137|166:99,1,85,4|0,0:0|0:0,0:0:0:0:
348,189,20630,5,8,0:0:0:0:
188,293,20792,1,0,0:0:0:0:
166,99,20954,1,4,0:0:0:0:
236,190,21116,5,4,0:2:0:0:
105,260,21278,1,0,0:0:0:0:
275,278,21440,1,4,0:2:0:0:
151,187,21603,1,4,0:0:0:0:
275,278,21765,2,0,L|308:272,4,21.25,4|0|0|0|0,0:2|0:0|0:0|0:0|0:0,0:0:0:0:
120,343,22089,1,4,0:2:0:0:
187,273,22251,5,6,0:0:0:0:
177,265,24846,6,0,L|167:159,2,95.6250036478044,4|2|2,1:0|0:0|0:0,0:0:0:0:
245,101,25494,1,0,0:0:0:0:
245,101,25576,2,0,L|253:167,1,63.7500024318696,2|0,0:0|0:0,0:0:0:0:
275,185,25819,2,0,L|347:203,1,63.7500024318696,0|2,0:0|0:0,0:0:0:0:
417,156,26143,6,0,L|424:53,2,95.6250036478044,0|2|2,0:0|0:0|0:0,0:0:0:0:
416,255,26792,1,0,0:0:0:0:
416,255,26873,2,0,L|422:322,1,63.7500024318696,2|0,0:0|0:0,0:0:0:0:
443,333,27116,1,0,0:0:0:0:
341,350,27278,1,2,0:0:0:0:
242,304,27440,6,0,P|194:309|150:327,2,95.6250036478044,0|2|2,0:0|0:0|0:0,0:0:0:0:
314,255,28089,1,0,0:0:0:0:
314,255,28170,2,0,P|323:229|322:183,1,63.7500024318696,2|0,0:0|0:0,0:0:0:0:
319,164,28413,2,0,P|305:135|280:115,1,63.7500024318696,0|2,0:0|0:0,0:0:0:0:
242,38,28738,5,0,0:0:0:0:
208,156,28900,1,0,0:0:0:0:
208,156,28981,1,2,0:0:0:0:
122,78,29143,1,0,0:0:0:0:
122,78,29224,2,0,L|25:70,2,95.6250036478044,2|2|0,0:0|0:0|0:0,0:0:0:0:
208,156,29873,1,2,0:0:0:0:
215,180,29954,1,0,0:0:0:0:
222,204,30035,5,0,0:0:0:0:
151,260,30197,1,0,0:0:0:0:
151,260,30278,2,0,L|136:332,1,63.7500024318696,2|0,0:0|0:0,0:0:0:0:
107,339,30522,2,0,L|10:318,1,95.6250036478044,2|2,0:0|0:0,0:0:0:0:
234,311,30927,1,0,0:0:0:0:
234,311,31008,1,0,0:0:0:0:
320,328,31170,1,2,0:0:0:0:
386,266,31332,6,0,L|375:191,1,63.7500024318696
393,178,31576,1,2,0:0:0:0:
316,120,31738,1,0,0:0:0:0:
316,120,31819,2,0,P|320:84|353:27,2,95.6250036478044,2|2|0,0:0|0:0|0:0,0:0:0:0:
470,218,32467,1,2,0:0:0:0:
497,49,32630,5,0,0:0:0:0:
458,130,32792,1,0,0:0:0:0:
458,130,32873,2,0,L|393:149,1,63.7500024318696,2|0,0:0|0:0,0:0:0:0:
373,177,33116,2,0,P|326:152|283:154,1,95.6250036478044,2|2,0:0|0:0,0:0:0:0:
284,153,33440,1,0,0:0:0:0:
310,244,33603,1,0,0:0:0:0:
262,322,33765,1,2,0:0:0:0:
169,344,33927,6,0,P|168:309|162:267,1,63.7500024318696
164,280,34170,1,2,0:0:0:0:
164,280,34251,1,0,0:0:0:0:
207,134,34413,2,0,P|208:169|214:211,1,63.7500024318696,2|0,0:0|0:0,0:0:0:0:
226,218,34657,2,0,L|294:227,1,63.7500024318696,2|0,0:0|0:0,0:0:0:0:
130,173,34900,2,0,L|55:161,1,63.7500024318696,0|2,0:0|0:0,0:0:0:0:
314,122,35224,5,4,1:2:0:0:
398,102,35386,1,2,0:0:0:0:
398,102,35711,1,2,0:0:0:0:
398,102,36035,1,2,0:0:0:0:
376,180,36197,1,0,0:0:0:0:
328,41,36359,1,2,0:0:0:0:
234,148,36522,5,0,0:0:0:0:
285,283,36684,1,2,0:0:0:0:
285,283,37008,1,2,0:0:0:0:
285,283,37332,1,2,0:0:0:0:
202,315,37494,1,0,0:0:0:0:
346,341,37657,1,2,0:0:0:0:
298,199,37819,5,0,0:0:0:0:
202,315,37981,2,0,P|198:279|193:240,1,63.7500024318696,2|0,0:0|0:0,0:0:0:0:
31,272,38305,2,0,P|34:307|40:347,1,63.7500024318696,2|0,0:0|0:0,0:0:0:0:
115,288,38630,1,2,0:0:0:0:
105,200,38792,1,0,0:0:0:0:
95,112,38954,1,2,0:0:0:0:
158,39,39116,5,0,0:0:0:0:
249,113,39278,2,0,L|240:190,1,63.7500024318696,2|0,0:0|0:0,0:0:0:0:
361,85,39603,2,0,L|368:21,1,63.7500024318696,2|0,0:0|0:0,0:0:0:0:
368,21,39927,1,2,0:2:0:0:
285,43,40089,1,0,0:0:0:0:
446,73,40251,1,2,0:2:0:0:
451,97,40332,1,0,0:0:0:0:
456,121,40413,5,2,0:0:0:0:
367,216,40576,2,0,P|396:202|427:196,1,63.7500024318696,2|0,0:0|0:0,0:0:0:0:
297,276,40900,2,0,P|266:270|229:249,1,63.7500024318696,2|0,0:0|0:0,0:0:0:0:
237,254,41143,1,0,0:0:0:0:
237,254,41224,2,0,L|242:329,1,63.7500024318696,2|0,0:2|0:0,0:0:0:0:
280,180,41549,1,2,0:2:0:0:
148,232,41711,5,0,0:0:0:0:
131,143,41873,2,0,P|163:141|193:131,1,63.7500024318696,2|0,0:2|0:0,0:0:0:0:
82,302,42197,2,0,P|73:271|57:243,1,63.7500024318696,2|0,0:2|0:0,0:0:0:0:
57,243,42440,1,0,0:0:0:0:
57,243,42522,1,2,0:2:0:0:
148,65,42684,1,8,0:0:0:0:
148,232,42846,1,2,0:2:0:0:
60,49,43008,5,0,0:0:0:0:
60,49,43089,1,0,0:0:0:0:
60,49,43170,2,0,L|54:86,1,31.8750012159348
124,152,43332,2,0,L|170:147,3,31.8750012159348,8|0|0|0,0:0|0:0|0:0|0:0,0:0:0:0:
68,263,43657,1,0,0:0:0:0:
68,263,43738,1,0,0:0:0:0:
68,263,43819,2,0,L|61:222,1,31.8750012159348
155,148,43981,2,0,L|198:153,3,31.8750012159348,8|0|0|0,0:0|0:0|0:0|0:0,0:0:0:0:
234,214,44305,5,0,0:0:0:0:
263,225,44386,1,0,0:0:0:0:
294,224,44467,1,2,0:0:0:0:
323,210,44549,1,0,0:0:0:0:
343,185,44630,1,8,0:0:0:0:
350,154,44711,1,0,0:0:0:0:
344,122,44792,1,2,0:0:0:0:
325,95,44873,1,0,0:0:0:0:
298,77,44954,6,0,L|292:33,1,31.8750012159348
381,34,45116,2,0,L|379:7,4,15.9375006079674,2|0|0|0|0,0:0|0:0|0:0|0:0|0:0,0:0:0:0:
497,166,45440,6,0,L|516:167,4,15.9375006079674,2|0|0|0|4,0:0|0:0|0:0|0:0|0:0,0:0:0:0:
416,161,45927,1,8,0:0:0:0:
335,156,46251,1,8,0:0:0:0:
254,151,46576,1,8,0:0:0:0:
131,238,46738,5,8,0:0:0:0:
131,238,46819,1,8,0:0:0:0:
131,238,46900,2,0,P|168:243|216:229,1,85,0|0,0:0|2:0,0:0:0:0:
192,79,47224,2,0,P|149:77|110:93,1,85,8|0,0:0|2:0,0:0:0:0:
167,160,47549,1,8,0:0:0:0:
167,160,47873,1,8,0:0:0:0:
296,229,48035,1,0,0:0:0:0:
292,263,48116,1,0,0:0:0:0:
288,297,48197,5,4,0:0:0:0:
374,309,48522,1,12,0:0:0:0:
386,223,48846,1,8,0:0:0:0:
300,213,49170,1,8,0:0:0:0:
442,154,49332,5,8,0:0:0:0:
442,154,49413,1,8,0:0:0:0:
442,154,49494,2,0,P|465:189|473:238,1,85,0|0,0:0|2:0,0:0:0:0:
343,133,49819,2,0,P|357:93|386:62,1,85,8|0,0:0|2:0,0:0:0:0:
296,19,50143,1,8,0:0:0:0:
296,19,50467,1,8,0:0:0:0:
226,94,50630,6,0,L|221:55,4,21.25,0|0|0|0|4,0:0|0:0|0:0|0:0|0:0,0:0:0:0:
63,190,51116,1,8,0:0:0:0:
144,249,51278,2,0,L|154:158,2,85,2|8|0,2:0|0:0|2:0,0:0:0:0:
293,260,51765,1,8,0:0:0:0:
221,330,51927,6,0,L|218:302,4,21.25,4|0|0|0|4,0:2|0:0|0:0|0:0|0:0,0:0:0:0:
385,227,52413,1,8,0:0:0:0:
301,175,52576,2,0,L|292:260,2,85,2|8|0,2:0|0:0|2:0,0:0:0:0:
153,164,53062,1,8,0:0:0:0:
227,89,53224,2,0,L|229:110,2,21.25,4|0|0,0:2|0:0|0:0,0:0:0:0:
180,29,53386,5,4,0:0:0:0:
201,275,53711,1,2,0:0:0:0:
202,47,54035,5,4,0:0:0:0:
178,291,54359,1,2,0:0:0:0:
79,170,54522,1,0,0:0:0:0:
85,212,54603,1,0,0:0:0:0:
91,253,54684,5,4,0:0:0:0:
352,233,55008,1,2,0:0:0:0:
99,232,55332,5,4,0:0:0:0:
362,279,55657,1,2,0:0:0:0:
460,159,55819,1,0,0:0:0:0:
454,201,55900,1,0,0:0:0:0:
448,242,55981,5,4,0:0:0:0:
338,192,56143,1,0,0:0:0:0:
389,74,56305,1,4,0:2:0:0:
512,134,56467,1,0,0:0:0:0:
512,134,56549,1,0,0:0:0:0:
512,134,56630,2,0,L|424:147,1,85,4|0,0:0|0:0,0:0:0:0:
244,210,56954,2,0,L|328:222,1,85,4|0,0:2|0:0,0:0:0:0:
328,222,57197,1,0,0:0:0:0:
328,222,57278,6,0,L|336:269,3,42.5,4|0|0|0,0:0|0:0|0:0|0:0,0:0:0:0:
224,285,57603,1,0,0:0:0:0:
221,300,57684,1,0,0:0:0:0:
218,316,57765,1,0,0:0:0:0:
215,332,57846,1,0,0:0:0:0:
212,347,57927,5,0,0:0:0:0:
170,353,58008,1,0,0:0:0:0:
127,356,58089,2,0,L|87:360,4,21.25,2|0|0|0|0,0:0|0:0|0:0|0:0|0:0,0:0:0:0:
8,231,58413,2,0,L|48:235,2,21.25,2|0|0,0:0|0:0|0:0,0:0:0:0:
91,188,58576,5,4,0:0:0:0:
256,192,58738,12,0,59873,0:0:0:0:
224,112,60684,5,8,0:0:0:0:
260,283,60846,2,0,L|246:372,1,85,4|0,0:2|2:0,0:0:0:0:
224,112,61170,6,0,L|239:12,1,93.5000028533936,4|0,0:0|0:0,0:0:0:0:
314,55,61413,1,0,0:0:0:0:
314,55,61494,2,0,P|356:38|404:40,1,93.5000028533936,8|0,0:0|0:0,0:0:0:0:
390,230,61819,1,0,0:0:0:0:
390,229,61900,2,0,P|343:228|302:206,1,93.5000028533936
270,226,62143,1,8,0:0:0:0:
256,123,62305,1,2,0:0:0:0:
364,138,62467,5,2,0:0:0:0:
179,190,62630,1,0,0:0:0:0:
179,190,62711,1,0,0:0:0:0:
179,190,62792,2,0,L|76:177,1,93.5000028533936,8|0,0:0|0:0,0:0:0:0:
141,365,63116,1,0,0:0:0:0:
141,365,63197,2,0,P|129:319|124:273,1,93.5000028533936,8|0,0:0|0:0,0:0:0:0:
90,292,63440,1,8,0:0:0:0:
238,313,63603,1,2,0:0:0:0:
361,210,63765,5,2,0:0:0:0:
360,210,63846,2,0,P|345:254|338:300,1,93.5000028533936
361,328,64089,1,8,0:0:0:0:
272,192,64251,2,0,P|236:162|190:155,1,93.5000028533936
177,125,64494,2,0,P|215:112|269:21,1,140.25000428009,0|8,0:0|0:0,0:0:0:0:
221,22,64819,1,0,0:0:0:0:
176,36,64900,1,2,0:0:0:0:
130,23,64981,1,0,0:0:0:0:
87,41,65062,5,4,0:0:0:0:
87,41,65711,5,4,0:2:0:0:
64,269,65954,5,4,0:2:0:0:
87,41,66197,6,0,P|105:80|102:122,1,85,4|0,0:2|2:0,0:0:0:0:
171,233,66684,6,0,P|173:193|204:145,1,93.5000028533936,4|0,0:0|0:0,0:0:0:0:
276,220,67008,1,0,0:0:0:0:
276,220,67089,2,0,L|368:208,1,93.5000028533936
405,185,67332,1,8,0:0:0:0:
376,332,67494,1,4,0:2:0:0:
481,154,67657,6,0,P|453:118|357:118,1,140.25000428009,6|0,0:0|0:0,0:0:0:0:
336,90,67981,2,0,L|243:77,1,93.5000028533936,8|0,0:0|0:0,0:0:0:0:
181,240,68305,1,0,0:0:0:0:
190,195,68386,1,8,0:0:0:0:
168,155,68467,1,0,0:0:0:0:
96,206,68630,1,8,0:0:0:0:
276,232,68792,1,4,0:2:0:0:
132,313,68954,6,0,P|90:308|13:361,1,140.25000428009,6|0,0:0|0:0,0:0:0:0:
20,321,69278,2,0,P|15:276|6:228,1,93.5000028533936,8|0,0:0|0:0,0:0:0:0:
153,148,69603,1,4,0:2:0:0:
153,148,69684,2,0,P|173:179|236:191,1,93.5000028533936
255,222,69927,2,0,L|351:207,1,93.5000028533936,8|0,0:0|0:0,0:0:0:0:
467,186,70251,5,6,0:0:0:0:
467,186,70332,1,0,0:0:0:0:
467,186,70413,1,8,0:0:0:0:
304,127,70576,1,4,0:2:0:0:
335,306,70738,1,6,0:0:0:0:
409,79,70981,1,0,0:0:0:0:
445,97,71062,2,0,L|433:4,1,93.5000028533936,0|10,0:0|0:0,0:0:0:0:
376,180,71386,1,4,0:2:0:0:
482,241,71549,6,0,B|413:223|419:288|325:257,1,140.25000428009,4|0,0:0|0:0,0:0:0:0:
320,293,71873,1,8,0:0:0:0:
223,216,72035,2,0,P|242:173|278:143,1,93.5000028533936
247,120,72278,2,0,L|231:7,1,93.5000028533936
234,27,72522,1,8,0:0:0:0:
325,68,72684,1,2,0:0:0:0:
161,99,72846,6,0,P|102:62|35:73,1,140.25000428009,2|0,0:0|0:0,0:0:0:0:
60,103,73170,1,8,0:0:0:0:
36,235,73332,1,0,0:0:0:0:
36,235,73413,2,0,L|132:212,1,93.5000028533936
153,242,73657,1,0,0:0:0:0:
248,130,73819,1,8,0:0:0:0:
301,275,73981,1,2,0:0:0:0:
236,216,74143,5,2,0:0:0:0:
349,184,74305,1,0,0:0:0:0:
349,184,74386,1,0,0:0:0:0:
349,184,74467,1,8,0:0:0:0:
452,146,74630,2,0,P|450:104|460:51,1,93.5000028533936
428,31,74873,2,0,P|371:71|302:75,1,140.25000428009,8|8,0:0|0:0,0:0:0:0:
219,26,75278,1,2,0:0:0:0:
197,208,75440,6,0,P|196:155|222:112,1,93.5000028533936,4|0,0:0|0:0,0:0:0:0:
315,304,75765,2,0,P|306:258|273:225,1,93.5000028533936,4|0,0:0|0:0,0:0:0:0:
124,243,76089,5,4,0:2:0:0:
370,210,76332,5,4,0:2:0:0:
124,243,76576,5,4,0:2:0:0:
115,275,76657,1,0,0:0:0:0:
106,306,76738,2,0,L|90:155,1,140.25000428009,4|0,0:0|0:0,0:0:0:0:
58,141,77062,1,8,0:0:0:0:
218,45,77224,2,0,P|219:91|201:133,1,93.5000028533936
201,133,77467,1,0,0:0:0:0:
131,78,77630,1,0,0:0:0:0:
131,78,77711,1,8,0:0:0:0:
300,109,77873,1,4,0:2:0:0:
452,38,78035,6,0,P|410:58|364:57,1,93.5000028533936,6|0,0:0|0:0,0:0:0:0:
364,57,78278,1,0,0:0:0:0:
364,57,78359,1,8,0:0:0:0:
466,168,78522,1,0,0:0:0:0:
466,167,78603,2,0,P|419:169|377:149,1,93.5000028533936,0|8,0:0|0:0,0:0:0:0:
368,187,78846,2,0,L|260:224,1,93.5000028533936,0|8,0:0|0:0,0:0:0:0:
423,262,79170,1,4,0:2:0:0:
240,290,79332,6,0,P|199:235|215:169,1,140.25000428009,6|0,0:0|0:0,0:0:0:0:
171,154,79657,2,0,P|152:111|123:60,1,93.5000028533936,8|0,0:0|0:0,0:0:0:0:
99,34,79900,1,0,0:0:0:0:
143,48,79981,1,4,0:2:0:0:
189,44,80062,1,0,0:0:0:0:
227,17,80143,1,0,0:0:0:0:
388,40,80305,1,8,0:0:0:0:
262,103,80467,1,0,0:0:0:0:
410,133,80630,5,4,0:0:0:0:
400,178,80711,1,0,0:0:0:0:
416,221,80792,1,0,0:0:0:0:
405,266,80873,1,0,0:0:0:0:
429,305,80954,2,0,L|326:287,1,93.5000028533936,8|4,0:0|0:2,0:0:0:0:
184,317,81278,1,0,0:0:0:0:
184,317,81359,2,0,L|276:333,1,93.5000028533936,2|0,0:0|0:0,0:0:0:0:
336,288,81603,1,10,0:0:0:0:
313,152,81765,1,10,0:0:0:0:
487,171,81927,6,0,L|365:190,1,93.5000028533936,4|0,0:2|0:0,0:0:0:0:
129,226,82251,5,4,0:0:0:0:
65,169,82413,2,0,P|69:129|204:80,1,191.250007295609,2|0,0:0|0:0,0:0:0:0:
191,73,83224,2,0,L|185:153,1,63.7500024318696,2|0,0:0|0:0,0:0:0:0:
247,193,83549,6,0,B|295:188|295:188|360:216|360:216|410:210,2,170,4|4|4,0:2|0:2|0:2,0:0:0:0:
66,306,84522,1,4,0:0:0:0:
145,336,84846,1,2,2:0:0:0:
126,171,85170,1,4,0:0:0:0:
60,221,85494,1,2,2:0:0:0:
136,253,85657,1,0,2:0:0:0:
202,207,85819,5,0,0:0:0:0:
64,298,85981,1,2,0:0:0:0:
226,360,86143,2,0,L|311:350,1,85,0|2,0:0|0:0,0:0:0:0:
381,307,86467,5,4,0:2:0:0:
389,117,86711,5,4,0:2:0:0:
381,307,86954,5,4,0:2:0:0:
457,339,87116,5,4,0:0:0:0:
457,339,87603,1,0,2:0:0:0:
506,275,87765,2,0,L|497:199,1,63.7500024318696,2|0,2:0|2:0,2:0:0:0:
443,150,88089,5,4,0:0:0:0:
205,188,88413,1,4,0:0:0:0:
205,188,88900,1,0,2:0:0:0:
142,137,89062,2,0,L|156:27,1,95.6250036478044,2|0,2:0|2:0,2:0:0:0:
190,22,89386,5,4,0:0:0:0:
212,287,89711,1,4,0:0:0:0:
212,287,90197,1,2,2:0:0:0:
291,257,90359,2,0,L|362:278,1,63.7500024318696,4|0,0:0|0:0,0:0:0:0:
135,316,90684,2,0,L|73:297,1,63.7500024318696
42,157,91008,5,8,0:0:0:0:
78,135,91089,1,0,0:0:0:0:
119,139,91170,1,0,0:0:0:0:
152,164,91251,1,0,0:0:0:0:
160,204,91332,2,0,P|189:167|194:121,1,93.5000028533936,4|0,0:2|0:0,0:0:0:0:
240,113,91576,2,0,P|196:62|211:-3,1,140.25000428009,2|2,0:0|0:0,0:0:0:0:
349,53,91981,1,8,0:0:0:0:
304,184,92143,1,10,0:0:0:0:
304,184,92630,5,4,0:2:0:0:
353,251,92792,2,0,P|426:239|496:227,1,140.25000428009,4|0,0:0|0:0,0:0:0:0:
491,227,93116,1,0,0:0:0:0:
417,157,93278,1,8,0:0:0:0:
398,331,93440,1,2,0:0:0:0:
304,184,93603,6,0,P|258:176|211:168,1,93.5000028533936,2|0,0:0|0:0,0:0:0:0:
142,202,93846,1,0,0:0:0:0:
142,202,93927,2,0,P|115:158|138:82,1,93.5000028533936,8|0,0:0|0:0,0:0:0:0:
281,20,94251,1,0,0:0:0:0:
308,57,94332,2,0,P|307:103|282:141,1,93.5000028533936
282,141,94576,2,0,L|374:127,1,93.5000028533936,8|2,0:0|0:0,0:0:0:0:
384,0,94900,5,2,0:0:0:0:
221,76,95062,1,0,0:0:0:0:
221,76,95143,1,0,0:0:0:0:
221,76,95224,2,0,L|128:65,1,93.5000028533936,8|0,0:0|0:0,0:0:0:0:
57,141,95549,1,0,0:0:0:0:
57,141,95630,2,0,P|42:190|92:271,1,140.25000428009,8|8,0:0|0:0,0:0:0:0:
122,242,95954,1,0,0:0:0:0:
167,252,96035,1,2,0:0:0:0:
182,296,96116,1,0,0:0:0:0:
158,336,96197,5,4,0:0:0:0:
346,337,96359,1,4,0:2:0:0:
346,337,96684,1,0,0:0:0:0:
410,274,96846,5,4,0:2:0:0:
410,274,96927,2,0,L|417:163,1,93.5000028533936,0|4,0:0|0:2,0:0:0:0:
384,159,97170,1,0,0:0:0:0:
251,200,97332,1,4,0:2:0:0:
253,153,97413,1,0,0:0:0:0:
256,106,97494,5,4,0:0:0:0:
317,257,97657,2,0,P|231:282|167:221,1,187.000005706787,4|0,0:2|0:0,0:0:0:0:
152,62,98143,1,0,0:0:0:0:
75,120,98305,2,0,L|42:115,4,23.3750007133484,2|0|0|0|0,0:0|0:0|0:0|0:0|0:0,0:0:0:0:
235,103,98630,2,0,L|265:92,2,23.3750007133484,2|0|0,0:0|0:0|0:0,0:0:0:0:
159,143,98792,5,4,0:0:0:0:
105,282,98954,2,0,P|190:307|254:246,1,187.000005706787,4|0,0:2|0:0,0:0:0:0:
362,137,99440,1,0,0:0:0:0:
350,267,99603,2,0,L|344:232,4,23.3750007133484,2|0|0|0|0,0:0|0:0|0:0|0:0|0:0,0:0:0:0:
270,99,99927,2,0,L|267:122,2,23.3750007133484,2|0|0,0:0|0:0|0:0,0:0:0:0:
203,179,100089,5,0,0:0:0:0:
362,137,100251,1,4,0:2:0:0:
362,137,100332,2,0,P|420:172|487:158,1,140.25000428009,8|4,0:0|0:2,0:0:0:0:
435,85,100738,1,4,0:2:0:0:
336,223,100900,2,0,P|347:273|346:321,1,93.5000028533936,4|8,0:2|0:0,0:0:0:0:
443,261,101224,1,4,0:2:0:0:
247,285,101386,5,4,0:0:0:0:
203,269,101467,1,0,0:0:0:0:
158,284,101549,1,0,0:0:0:0:
115,263,101630,1,0,0:0:0:0:
75,288,101711,2,0,L|66:182,1,93.5000028533936,8|4,0:0|0:2,0:0:0:0:
191,115,102035,1,4,0:0:0:0:
83,76,102197,2,0,L|89:32,3,31.1666676177979,2|0|0|8,0:0|0:0|0:0|0:0,0:0:0:0:
165,202,102522,1,10,0:0:0:0:
284,105,102684,5,4,0:0:0:0:
