osu file format v14

[General]
AudioFilename: audio.mp3
AudioLeadIn: 0
PreviewTime:24846
Countdown: 0
SampleSet: Normal
StackLeniency: 0.2
Mode: 0
LetterboxInBreaks: 0
WidescreenStoryboard: 1

[Editor]
DistanceSpacing: 0.8
BeatDivisor: 8
GridSize: 32
TimelineZoom: 1.4

[Metadata]
Title:Evans
TitleUnicode:Evans
Artist:DJ YOSHITAKA
ArtistUnicode:DJ YOSHITAKA
Creator:Leader
Version:fanzhen's Extra
Source:jubeat
Tags:Acylica Acyl fanzhen0019 Muya Kloyd -kevincela- Nemis Sulfur toybot vikala Natteke desu Jounzan EvilElvis EvilElvisV2 BEMANI beatmania IIDX 17 SIRIUS REFLEC BEAT colette -All Seasons- HARD RENAISSANCE SOUND VOLTEX IV HEAVENLY HAVEN SDVX pop'n music Sunny Park CHUNITHM AIR PLUS SEGA Instrumental Electronic Video Game
BeatmapID:2256051
BeatmapSetID:1023491

[Difficulty]
HPDrainRate:6
CircleSize:4.6
OverallDifficulty:8
ApproachRate:9.4
SliderMultiplier:1.8
SliderTickRate:1

[Events]
//Background and Video events
0,0,"bg.jpg",0,0
//Break Periods
//Storyboard Layer 0 (Background)
//Storyboard Layer 1 (Fail)
//Storyboard Layer 2 (Pass)
//Storyboard Layer 3 (Foreground)
//Storyboard Layer 4 (Overlay)
//Storyboard Sound Samples

[TimingPoints]
1495,324.324324324324,4,1,1,60,1,0
3440,-66.6666666666667,4,1,1,60,0,0
4089,-100,4,1,1,60,0,0
5386,-100,4,1,1,40,0,0
6197,-100,4,1,1,50,0,0
6684,-100,4,1,1,60,0,0
7332,-100,4,1,1,50,0,0
8630,-66.6666666666667,4,1,1,50,0,0
11711,-66.6666666666667,4,1,1,60,0,0
12035,-50,4,1,1,30,0,0
12197,-100,4,1,1,60,0,0
15765,-66.6666666666667,4,1,1,60,0,0
17549,-100,4,1,1,60,0,0
18359,-66.6666666666667,4,1,1,60,0,0
18522,-100,4,1,1,60,0,0
19657,-66.6666666666667,4,1,1,60,0,0
24765,-66.6666666666667,4,2,1,60,0,0
24846,-100,4,2,1,50,0,0
35224,-100,4,2,1,60,0,0
41062,-100,4,1,1,30,0,0
41711,-100,4,1,1,35,0,0
42359,-100,4,1,1,40,0,0
42684,-100,4,1,1,45,0,0
43008,-100,4,1,1,50,0,0
43332,-100,4,1,1,55,0,0
43657,-100,4,1,1,60,0,0
45603,-100,4,1,1,70,0,0
45927,-100,4,1,1,50,0,0
46900,-100,4,1,1,60,0,0
48197,-66.6666666666667,4,1,1,60,0,0
58576,-66.6666666666667,4,1,1,50,0,0
59873,-100,4,1,1,50,0,0
60846,-66.6666666666667,4,1,1,50,0,0
61170,-66.6666666666667,4,1,1,70,0,1
66197,-200,4,1,1,70,0,1
66684,-66.6666666666667,4,1,1,70,0,1
70251,-100,4,1,1,50,0,0
71549,-200,4,1,1,50,0,1
71873,-66.6666666666667,4,1,1,70,0,1
81927,-133.333333333333,4,1,1,50,0,0
82251,-100,4,1,1,70,0,0
82413,-133.333333333333,4,2,1,60,0,0
83549,-133.333333333333,4,1,1,60,0,0
86467,-100,4,1,1,50,0,0
87116,-133.333333333333,4,1,1,60,0,0
91008,-66.6666666666667,4,1,1,60,0,0
92630,-66.6666666666667,4,1,1,60,0,1
102684,-100,4,1,1,50,0,0

[Colours]
Combo1 : 51,56,255
Combo2 : 41,235,235
Combo3 : 18,124,255
Combo4 : 160,252,250

[HitObjects]
256,192,522,12,0,1454,2:0:0:0:
124,192,1495,5,4,0:0:0:0:
132,112,1657,1,0,0:0:0:0:
52,104,1819,1,0,0:0:0:0:
40,184,1981,1,0,0:0:0:0:
288,344,2467,6,0,L|96:352,1,180,2|0,2:0|0:0,0:0:0:0:
480,332,2954,6,0,B|408:336|408:336|384:328|384:328|276:332,1,180,4|0,0:0|0:0,0:0:0:0:
496,256,3440,2,0,P|500:296|476:344,1,67.5000025749208,4|0,0:2|2:0,0:0:0:0:
160,112,3765,2,0,P|151:79|156:46,1,67.5000025749208,4|0,0:2|2:0,0:0:0:0:
500,32,4089,5,4,0:0:0:0:
428,28,4251,1,0,0:0:0:0:
424,100,4413,1,0,0:0:0:0:
496,104,4576,1,0,0:0:0:0:
48,192,5062,6,0,L|232:184,2,180,2|0|0,2:0|0:0|0:0,0:0:0:0:
12,264,5873,1,0,0:0:0:0:
32,344,6035,1,0,0:0:0:0:
260,120,6197,6,0,P|264:104|264:80,2,30
228,184,6359,1,0,0:0:0:0:
484,332,6522,6,0,P|488:348|488:372,2,30
420,312,6684,2,0,P|472:312|512:344,1,90,4|0,0:2|0:0,0:0:0:0:
252,352,7008,2,0,P|296:272|380:244,1,180,4|0,0:0|0:0,0:0:0:0:
32,88,7657,5,0,0:0:0:0:
112,80,7819,1,0,0:0:0:0:
104,4,7981,1,0,0:0:0:0:
24,8,8143,2,0,L|32:188,1,180,4|0,0:0|0:0,0:0:0:0:
132,352,8630,2,0,P|120:280|100:256,1,67.5000025749208,4|0,0:2|2:0,0:0:0:0:
392,44,8954,2,0,P|380:116|360:140,1,67.5000025749208,4|0,0:2|2:0,0:0:0:0:
496,360,9278,6,0,L|336:356,1,135.000005149842,4|0,0:0|2:0,0:0:0:0:
0,276,9927,6,0,L|160:272,1,135.000005149842,4|0,0:0|2:0,0:0:0:0:
512,80,10576,6,0,P|472:80|444:96,1,67.5000025749208,4|0,0:0|2:0,0:0:0:0:
404,216,10738,2,0,P|364:216|336:200,1,67.5000025749208,4|0,0:0|2:0,0:0:0:0:
384,144,10900,2,0,L|224:140,1,135.000005149842,0|0,0:0|2:0,0:0:0:0:
0,40,11224,6,0,L|160:44,1,135.000005149842,4|0,0:2|2:0,0:0:0:0:
148,188,11467,2,0,P|224:172|272:76,1,135.000005149842,4|0,0:2|2:0,0:0:0:0:
424,44,11711,2,0,L|491:46,1,67.5000025749208,4|0,0:2|2:0,0:0:0:0:
480,348,11873,5,0,0:0:0:0:
480,348,12035,1,0,3:0:0:0:
491,46,12197,6,0,B|392:28|420:104|308:76,1,180,4|0,0:0|0:0,0:0:0:0:
252,36,12684,1,0,0:0:0:0:
464,124,12846,2,0,P|464:172|440:212,1,90,8|0,0:0|0:0,0:0:0:0:
184,76,13170,6,0,L|84:68,1,90
0,156,13494,2,0,P|-4:200|20:252,1,90,8|0,0:0|0:0,0:0:0:0:
44,268,13738,1,0,0:0:0:0:
84,272,13819,1,0,0:0:0:0:
124,260,13900,1,8,0:0:0:0:
204,360,14062,1,0,0:0:0:0:
204,360,14143,2,0,P|204:304|196:260,1,90,8|0,0:0|0:0,0:0:0:0:
80,188,14467,5,0,0:0:0:0:
0,384,14630,1,0,0:0:0:0:
216,352,14792,2,0,P|216:296|208:252,1,90,8|0,0:0|0:0,0:0:0:0:
404,224,15116,2,0,P|328:160|240:196,1,180,0|8,0:0|0:0,0:0:0:0:
464,336,15603,1,0,0:0:0:0:
464,336,15684,1,0,0:0:0:0:
464,336,15765,6,0,P|432:348|388:344,1,67.5000025749208,4|0,0:0|2:0,0:0:0:0:
257,177,15927,2,0,P|290:177|322:189,1,67.5000025749208,8|0,0:0|2:0,0:0:0:0:
504,236,16089,2,0,B|396:220|432:292|296:276,1,202.500007724762,0|0,0:0|2:0,0:0:0:0:
304,272,16413,6,0,P|312:316|312:352,1,67.5000025749208,4|0,0:2|2:0,0:0:0:0:
52,216,16738,2,0,P|44:260|44:296,1,67.5000025749208,4|0,0:2|2:0,0:0:0:0:
504,80,17062,2,0,P|512:124|512:160,1,67.5000025749208,4|0,0:2|2:0,0:0:0:0:
252,24,17387,2,0,P|244:68|244:104,1,67.5000025749208,4|0,0:0|2:0,0:0:0:0:
172,120,17549,5,0,0:0:0:0:
172,120,17630,1,0,0:0:0:0:
172,120,17711,2,0,L|56:128,1,90
20,192,18035,5,8,0:0:0:0:
340,264,18197,1,0,0:0:0:0:
260,360,18359,2,0,P|268:316|268:280,1,67.5000025749208,4|0,0:0|2:0,0:0:0:0:
340,264,18521,5,0,0:0:0:0:
484,312,18683,2,0,L|394:318,1,90,8|0,0:0|0:0,0:0:0:0:
324,188,19008,2,0,P|328:160|336:140,2,45,0|8|0,0:0|0:0|0:0,0:0:0:0:
168,188,19332,2,0,P|217:212|269:210,1,90,8|0,0:0|0:0,0:0:0:0:
488,56,19657,6,0,L|400:60,1,67.5000025749208,4|0,0:0|2:0,0:0:0:0:
80,188,19981,1,8,0:0:0:0:
28,252,20143,1,0,0:0:0:0:
0,176,20305,6,0,L|88:180,1,67.5000025749208,4|0,0:0|2:0,0:0:0:0:
436,296,20630,1,8,0:0:0:0:
388,360,20792,1,0,0:0:0:0:
464,368,20954,6,0,P|464:328|468:288,1,67.5000025749208,4|0,0:0|2:0,0:0:0:0:
316,264,21116,2,0,P|316:224|312:184,1,67.5000025749208,4|0,0:2|2:0,0:0:0:0:
496,236,21278,1,0,0:0:0:0:
268,332,21440,1,4,0:2:0:0:
84,160,21603,1,4,0:0:0:0:
128,92,21765,6,0,P|135:76|140:48,2,45.0000017166138,4|0|0,0:2|0:0|0:0,0:0:0:0:
84,160,21927,1,0,0:0:0:0:
128,228,22089,2,0,P|137:242|160:260,2,45.0000017166138,4|0|0,0:2|0:0|0:0,0:0:0:0:
84,160,22251,1,6,0:0:0:0:
256,192,22305,12,0,24765,0:0:0:0:
384,112,24846,5,4,1:0:0:0:
392,35,25089,1,2,0:0:0:0:
467,17,25332,1,0,0:0:0:0:
504,84,25576,1,2,0:0:0:0:
453,138,25819,1,0,0:0:0:0:
40,164,25981,1,2,0:0:0:0:
40,164,26143,5,0,0:0:0:0:
72,240,26386,1,2,0:0:0:0:
192,220,26630,1,0,0:0:0:0:
72,240,26873,1,2,0:0:0:0:
40,164,27116,1,0,0:0:0:0:
332,364,27278,1,2,0:0:0:0:
332,364,27440,5,0,0:0:0:0:
252,352,27684,1,0,0:0:0:0:
404,332,27927,1,0,0:0:0:0:
332,364,28170,1,2,0:0:0:0:
252,352,28413,1,0,0:0:0:0:
60,44,28576,1,2,0:0:0:0:
60,44,28738,5,0,0:0:0:0:
140,36,28981,1,2,0:0:0:0:
216,68,29224,1,0,0:0:0:0:
296,84,29467,1,2,0:0:0:0:
376,68,29711,1,0,0:0:0:0:
376,68,29792,1,0,0:0:0:0:
376,68,29873,2,0,L|381:129,1,45,2|0,0:0|0:0,0:0:0:0:
496,328,30035,5,0,0:0:0:0:
416,344,30278,1,2,0:0:0:0:
496,328,30522,1,0,0:0:0:0:
416,344,30765,1,2,0:0:0:0:
496,328,31008,1,0,0:0:0:0:
28,196,31170,1,2,0:0:0:0:
28,196,31332,5,0,0:0:0:0:
108,212,31575,1,2,0:0:0:0:
28,196,31819,1,0,0:0:0:0:
108,212,32062,1,2,0:0:0:0:
28,196,32305,1,0,0:0:0:0:
492,60,32467,1,2,0:0:0:0:
492,60,32630,5,0,0:0:0:0:
484,137,32873,1,2,0:0:0:0:
409,155,33116,1,0,0:0:0:0:
372,88,33360,1,2,0:0:0:0:
423,34,33603,1,0,0:0:0:0:
168,324,33765,1,2,0:0:0:0:
168,324,33927,5,0,0:0:0:0:
160,247,34170,1,2,0:0:0:0:
85,229,34413,1,0,0:0:0:0:
48,296,34657,1,2,0:0:0:0:
104,360,34900,1,0,0:0:0:0:
104,360,34981,1,0,0:0:0:0:
104,360,35062,1,2,0:0:0:0:
392,376,35224,5,0,1:0:0:0:
476,288,35386,1,0,0:0:0:0:
476,288,35467,2,0,P|436:260|388:256,1,90
332,212,35711,2,0,L|308:312,1,90,2|0,0:0|0:0,0:0:0:0:
260,352,35954,2,0,P|280:368|324:364,1,45
484,184,36197,1,0,0:0:0:0:
484,184,36278,1,0,0:0:0:0:
484,184,36359,2,0,P|488:160|484:128,1,45,2|0,0:0|0:0,0:0:0:0:
404,12,36522,5,0,1:0:0:0:
252,56,36684,1,0,0:0:0:0:
252,56,36765,2,0,P|296:72|348:60,1,90
412,92,37008,1,2,0:0:0:0:
412,92,37089,2,0,P|408:116|412:148,1,45
352,216,37251,1,0,0:0:0:0:
332,180,37332,1,0,0:0:0:0:
300,156,37413,1,0,0:0:0:0:
260,148,37494,2,0,P|240:144|212:144,1,45,0|0,1:0|0:0,0:0:0:0:
168,24,37657,2,0,P|148:28|120:28,1,45,2|0,0:0|0:0,0:0:0:0:
36,20,37819,5,0,1:0:0:0:
160,188,37981,1,0,0:0:0:0:
160,188,38062,2,0,P|120:152|68:148,1,90
20,100,38305,2,0,P|16:148|-16:192,1,90,2|0,0:0|0:0,0:0:0:0:
140,268,38549,1,0,0:0:0:0:
140,268,38630,2,0,P|168:272|192:264,1,45
12,320,38792,1,0,1:0:0:0:
12,320,38873,1,0,0:0:0:0:
12,320,38954,2,0,P|36:312|72:308,1,45,2|0,0:0|0:0,0:0:0:0:
268,340,39116,5,0,1:0:0:0:
444,348,39278,1,0,0:0:0:0:
444,348,39359,2,0,P|400:344|348:364,1,90
172,340,39603,2,0,P|214:354|258:350,1,90,2|0,0:0|0:0,0:0:0:0:
440,256,39846,2,0,P|404:268|388:292,1,45
256,216,40008,1,0,0:0:0:0:
256,216,40089,2,0,P|256:188|264:164,1,45
368,24,40251,2,0,P|368:52|376:76,1,45,2|0,1:2|0:0,0:0:0:0:
512,132,40413,6,0,P|476:160|420:156,1,90,0|0,1:0|0:0,0:0:0:0:
356,212,40657,2,0,P|348:156|320:120,1,90
252,92,40900,1,2,0:0:0:0:
44,164,41062,1,0,0:0:0:0:
120,188,41143,2,0,P|172:184|208:148,1,90
252,92,41386,1,0,0:0:0:0:
24,20,41549,1,2,0:2:0:0:
24,20,41630,1,0,0:0:0:0:
24,20,41711,6,0,P|40:64|104:96,1,90
44,164,41954,2,0,P|28:208|32:260,1,90
60,316,42197,1,2,0:2:0:0:
272,284,42359,1,0,0:0:0:0:
192,268,42440,2,0,P|168:316|120:340,1,90
60,316,42684,1,0,0:0:0:0:
256,192,42846,1,2,0:2:0:0:
256,192,42927,1,0,0:0:0:0:
256,192,43008,5,0,0:0:0:0:
336,200,43170,1,0,0:0:0:0:
416,208,43332,1,0,0:0:0:0:
496,216,43494,1,0,0:0:0:0:
440,32,43657,5,0,0:0:0:0:
360,40,43819,1,0,0:0:0:0:
280,48,43981,1,0,0:0:0:0:
200,56,44143,1,0,0:0:0:0:
8,192,44305,5,2,0:0:0:0:
120,64,44467,2,0,P|124:48|124:32,2,30
136,140,44630,5,0,0:0:0:0:
264,252,44792,2,0,P|280:256|296:256,2,30,2|0|0,0:0|0:0|0:0,0:0:0:0:
208,296,44954,5,0,0:0:0:0:
340,124,45116,2,0,P|344:108|344:92,2,30
352,192,45279,5,0,0:0:0:0:
480,368,45441,2,0,P|496:372|512:372,2,30,2|0|0,0:0|0:0|0:0,0:0:0:0:
412,348,45603,5,4,0:0:0:0:
172,328,45927,1,8,0:0:0:0:
100,336,46251,1,8,0:0:0:0:
28,344,46576,1,8,0:0:0:0:
28,340,46738,5,8,0:0:0:0:
100,348,46819,1,8,0:0:0:0:
172,356,46900,1,0,0:0:0:0:
336,188,47224,1,8,0:0:0:0:
408,196,47548,1,8,0:0:0:0:
480,204,47873,1,8,0:0:0:0:
480,200,48035,5,0,0:0:0:0:
408,208,48116,1,0,0:0:0:0:
336,216,48197,2,0,P|320:268|316:368,1,135.000005149842,4|0,0:0|2:0,0:0:0:0:
176,40,48522,2,0,P|192:92|196:192,1,135.000005149842,12|0,0:0|2:0,0:0:0:0:
124,180,48846,1,8,0:0:0:0:
52,188,49171,1,8,0:0:0:0:
52,184,49333,5,8,0:0:0:0:
124,192,49414,1,8,0:0:0:0:
196,200,49495,1,0,0:0:0:0:
348,64,49819,1,8,0:0:0:0:
420,72,50143,1,8,0:0:0:0:
492,80,50468,1,8,0:0:0:0:
492,76,50630,5,0,0:0:0:0:
420,84,50711,1,0,0:0:0:0:
348,92,50792,1,4,0:0:0:0:
48,28,51116,5,8,0:0:0:0:
20,24,51278,1,2,2:0:0:0:
60,172,51440,1,0,0:0:0:0:
120,228,51765,5,8,0:0:0:0:
172,220,51927,1,4,0:2:0:0:
152,296,52008,1,0,0:0:0:0:
132,368,52089,1,4,0:0:0:0:
296,40,52413,5,8,0:0:0:0:
208,24,52576,1,2,2:0:0:0:
244,208,52738,1,0,0:0:0:0:
364,184,53062,5,8,0:0:0:0:
472,164,53224,1,4,0:2:0:0:
449,249,53305,1,0,0:0:0:0:
426,330,53386,1,4,0:0:0:0:
344,316,53711,1,2,0:0:0:0:
426,330,53873,5,0,0:0:0:0:
268,344,54035,37,4,0:0:0:0:
188,332,54359,1,2,0:0:0:0:
108,320,54522,1,0,0:0:0:0:
112,340,54603,1,0,0:0:0:0:
108,320,54684,1,4,0:0:0:0:
188,332,54846,5,0,0:0:0:0:
94,238,55009,37,2,0:0:0:0:
122,162,55333,1,4,0:0:0:0:
110,82,55657,1,2,0:0:0:0:
172,32,55981,5,4,0:0:0:0:
254,46,56143,1,0,0:0:0:0:
330,18,56305,1,4,0:2:0:0:
410,30,56467,1,0,0:0:0:0:
490,42,56630,1,4,0:0:0:0:
504,124,56792,1,0,0:0:0:0:
476,200,56954,1,4,0:2:0:0:
488,280,57116,1,0,0:0:0:0:
408,288,57278,5,4,0:0:0:0:
404,240,57359,1,0,0:0:0:0:
400,192,57440,1,0,0:0:0:0:
396,144,57522,1,0,0:0:0:0:
348,148,57603,1,0,0:0:0:0:
300,152,57684,1,0,0:0:0:0:
252,156,57765,1,0,0:0:0:0:
256,204,57846,1,0,0:0:0:0:
260,252,57927,1,0,0:0:0:0:
264,300,58008,1,0,0:0:0:0:
312,296,58089,1,2,0:0:0:0:
360,292,58170,1,0,0:0:0:0:
356,244,58251,1,0,0:0:0:0:
352,196,58332,1,0,0:0:0:0:
304,200,58413,1,2,0:0:0:0:
308,248,58494,1,0,0:0:0:0:
312,251,58576,6,0,B|220:211|132:259|204:303|88:371|4:295,1,337.500012874604,4|0,0:0|2:0,0:0:0:0:
10,300,59062,1,0,0:0:0:0:
88,224,59224,1,0,0:0:0:0:
212,336,59386,1,0,0:0:0:0:
344,128,59549,1,0,0:0:0:0:
480,372,59711,1,0,0:0:0:0:
508,256,59873,5,0,0:0:0:0:
480,232,59954,1,0,0:0:0:0:
448,248,60035,1,0,0:0:0:0:
456,284,60116,1,0,0:0:0:0:
492,288,60197,1,0,0:0:0:0:
324,204,60359,1,0,0:0:0:0:
324,204,60440,2,0,P|316:255|320:308,1,90
260,144,60684,1,8,0:0:0:0:
148,352,60846,6,0,P|36:324|0:220,1,202.500007724762,4|0,0:2|2:0,0:0:0:0:
32,168,61170,5,4,0:0:0:0:
216,72,61332,1,0,0:0:0:0:
216,72,61413,2,0,P|152:124|84:120,1,135.000005149842
32,88,61657,2,0,P|24:56|0:24,1,67.5000025749208
296,36,61819,1,0,0:0:0:0:
296,36,61900,2,0,P|300:76|280:128,1,67.5000025749208
232,160,62062,1,0,0:0:0:0:
232,160,62143,1,8,0:0:0:0:
284,148,62224,1,0,0:0:0:0:
336,160,62305,1,2,0:0:0:0:
380,192,62386,1,0,0:0:0:0:
396,244,62467,6,0,B|416:184|360:176|388:104,1,135.000005149842,2|0,0:0|0:0,0:0:0:0:
440,56,62711,1,0,0:0:0:0:
440,56,62792,1,0,0:0:0:0:
488,324,62954,1,0,0:0:0:0:
444,356,63035,1,0,0:0:0:0:
392,364,63116,1,0,0:0:0:0:
340,360,63197,2,0,P|288:316|276:252,1,135.000005149842,8|0,0:0|0:0,0:0:0:0:
292,184,63440,2,0,P|284:224|256:248,1,67.5000025749208,8|0,0:0|0:0,0:0:0:0:
24,300,63603,1,2,0:0:0:0:
24,300,63765,6,0,B|96:288|84:332|160:320,1,135.000005149842,2|0,0:0|0:0,0:0:0:0:
224,352,64008,2,0,P|180:300|180:236,1,135.000005149842
216,168,64251,1,0,0:0:0:0:
0,28,64413,6,0,P|8:56|20:112,1,67.5000025749208,0|0,0:0|2:0,0:0:0:0:
28,208,64576,2,0,P|56:200|112:188,1,67.5000025749208,0|0,0:0|2:0,0:0:0:0:
256,92,64738,5,8,0:0:0:0:
252,40,64819,1,0,0:0:0:0:
204,12,64900,1,2,0:0:0:0:
152,20,64981,1,0,0:0:0:0:
116,60,65062,2,0,P|116:92|124:132,1,67.5000025749208,4|0,0:0|2:0,0:0:0:0:
420,256,65224,1,0,0:0:0:0:
360,344,65386,1,0,0:0:0:0:
328,240,65549,1,0,0:0:0:0:
328,240,65630,1,0,0:0:0:0:
328,240,65711,6,0,P|420:248|484:248,1,135.000005149842,4|0,0:2|0:0,0:0:0:0:
116,212,65954,2,0,P|208:204|272:204,1,135.000005149842,4|0,0:2|0:0,0:0:0:0:
52,260,66197,1,4,0:2:0:0:
52,260,66359,6,0,P|84:288|96:328,1,67.5
12,332,66684,6,0,P|28:256|20:192,1,135.000005149842,4|0,0:0|0:0,0:0:0:0:
0,128,66927,2,0,P|40:128|72:144,1,67.5000025749208
236,36,67089,2,0,P|196:84|120:108,1,135.000005149842
216,168,67332,2,0,P|208:132|208:92,1,67.5000025749208,8|0,0:0|0:0,0:0:0:0:
444,28,67494,1,4,0:2:0:0:
444,28,67657,5,6,0:0:0:0:
284,108,67819,1,0,0:0:0:0:
284,108,67900,2,0,P|328:148|408:144,1,135.000005149842
488,172,68143,2,0,P|472:128|472:100,1,67.5000025749208
424,232,68305,1,0,0:0:0:0:
424,232,68386,2,0,B|420:296|468:284|456:368,1,135.000005149842,8|0,0:0|0:0,0:0:0:0:
416,324,68630,1,8,0:0:0:0:
364,312,68711,1,0,0:0:0:0:
312,320,68792,2,0,P|292:328|260:364,1,67.5000025749208,4|0,0:2|0:0,0:0:0:0:
256,220,68954,5,6,0:0:0:0:
120,344,69116,1,0,0:0:0:0:
188,372,69197,2,0,P|128:376|44:384,1,135.000005149842
28,192,69440,2,0,P|60:200|104:204,1,67.5000025749208
176,216,69603,5,4,0:2:0:0:
176,216,69684,2,0,P|176:144|200:64,1,135.000005149842
132,16,69927,1,8,0:0:0:0:
80,20,70008,1,0,0:0:0:0:
36,52,70089,2,0,P|13:76|1:117,1,67.5000025749208
288,164,70251,5,6,0:0:0:0:
284,120,70332,1,0,0:0:0:0:
280,76,70413,1,8,0:0:0:0:
368,196,70576,1,4,0:2:0:0:
512,0,70738,2,0,B|508:48|508:48|488:80|488:80|484:144,1,135,6|0,0:0|0:0,0:0:0:0:
484,140,71062,5,0,0:0:0:0:
124,184,71224,1,10,0:0:0:0:
248,196,71386,1,4,0:2:0:0:
376,208,71549,6,0,P|400:224|424:268,1,67.5,4|0,0:0|0:0,0:0:0:0:
392,324,71873,6,0,P|456:264|524:264,1,135.000005149842
316,380,72197,1,0,0:0:0:0:
316,380,72278,2,0,P|300:332|308:284,1,67.5000025749208
144,184,72522,2,0,P|128:232|136:280,1,67.5000025749208,8|0,0:0|0:0,0:0:0:0:
0,288,72684,2,0,L|76:296,1,67.5000025749208,2|0,0:0|0:0,0:0:0:0:
140,324,72846,6,0,P|204:296|236:232,1,135.000005149842,2|0,0:0|0:0,0:0:0:0:
240,168,73089,1,0,0:0:0:0:
240,168,73170,1,0,0:0:0:0:
8,24,73332,1,0,0:0:0:0:
0,76,73413,1,0,0:0:0:0:
24,124,73494,1,0,0:0:0:0:
68,156,73576,2,0,P|101:98|162:73,1,135.000005149842
184,4,73819,2,0,P|168:48|172:76,1,67.5000025749208,8|0,0:0|0:0,0:0:0:0:
320,188,73981,2,0,P|319:154|305:124,1,67.5000025749208,2|0,0:0|0:0,0:0:0:0:
248,76,74143,5,2,0:0:0:0:
456,24,74305,1,0,0:0:0:0:
456,24,74386,2,0,B|380:12|408:64|320:48,1,135.000005149842
244,88,74630,2,0,P|260:44|256:16,1,67.5000025749208
256,240,74792,1,0,0:0:0:0:
256,240,74873,2,0,P|316:272|388:244,1,135.000005149842
428,196,75116,2,0,P|420:164|420:128,1,67.5000025749208,8|0,0:0|0:0,0:0:0:0:
512,304,75278,2,0,P|511:337|503:370,1,67.5000025749208,2|0,0:0|0:0,0:0:0:0:
296,368,75440,6,0,L|464:360,1,135.000005149842,4|0,0:0|0:0,0:0:0:0:
76,332,75765,2,0,L|244:340,1,135.000005149842
432,356,76089,6,0,P|372:360|284:376,1,135.000005149842,4|0,0:2|0:0,0:0:0:0:
209,348,76332,2,0,P|149:344|61:328,1,135.000005149842,4|0,0:2|0:0,0:0:0:0:
12,272,76576,1,4,0:2:0:0:
104,24,76738,5,4,0:0:0:0:
44,192,76900,1,0,0:0:0:0:
0,136,76981,2,0,P|52:140|140:128,1,135.000005149842
216,152,77224,2,0,P|228:180|232:224,2,67.5000025749208
192,72,77467,2,0,P|244:68|332:80,1,135.000005149842
312,236,77711,2,0,P|300:264|264:296,1,67.5000025749208,8|0,0:0|0:0,0:0:0:0:
4,332,77873,1,4,0:2:0:0:
4,332,78035,5,6,0:0:0:0:
80,232,78197,1,0,0:0:0:0:
80,232,78278,2,0,P|108:280|200:308,1,135.000005149842
248,364,78522,2,0,P|248:336|268:292,1,67.5000025749208
416,228,78684,1,0,0:0:0:0:
416,228,78765,2,0,P|472:272|496:344,1,135.000005149842,8|0,0:0|0:0,0:0:0:0:
336,336,79008,6,0,P|388:312|400:284,1,67.5000025749208,8|0,0:0|0:0,0:0:0:0:
352,112,79170,2,0,P|375:88|408:81,1,67.5000025749208,4|0,0:2|0:0,0:0:0:0:
488,112,79332,5,6,0:0:0:0:
288,52,79494,1,0,0:0:0:0:
288,52,79576,2,0,P|312:104|300:192,1,135.000005149842
244,224,79819,1,0,0:0:0:0:
80,112,79981,1,4,0:2:0:0:
80,112,80062,2,0,P|72:148|84:184,1,67.5000025749208
204,72,80224,1,0,0:0:0:0:
204,72,80305,2,0,P|216:36|212:0,1,67.5000025749208,8|0,0:0|0:0,0:0:0:0:
172,180,80467,1,0,0:0:0:0:
4,280,80630,5,4,0:0:0:0:
56,276,80711,1,0,0:0:0:0:
108,272,80792,1,0,0:0:0:0:
160,268,80873,1,0,0:0:0:0:
212,264,80954,1,8,0:0:0:0:
24,200,81116,2,0,P|100:220|156:328,1,202.500007724762,4|2,0:2|0:0,0:0:0:0:
152,336,81440,1,0,0:0:0:0:
324,192,81603,1,10,0:0:0:0:
472,368,81765,1,10,0:0:0:0:
400,332,81927,5,4,0:2:0:0:
400,332,82251,1,4,0:0:0:0:
400,332,82413,2,0,B|372:236|472:256|436:128,1,202.500007724762,2|0,0:0|0:0,0:0:0:0:
72,124,83224,5,2,0:0:0:0:
28,328,83549,5,4,0:2:0:0:
0,136,83711,37,0,0:0:0:0:
100,344,83873,5,4,0:2:0:0:
24,64,84197,37,4,0:2:0:0:
172,356,84522,6,0,L|336:352,1,135.000005149842,4|0,0:0|0:0,0:0:0:0:
492,280,85170,2,0,L|328:276,1,135.000005149842,4|0,0:0|0:0,0:0:0:0:
308,216,85657,1,0,0:0:0:0:
500,28,85819,5,0,0:0:0:0:
424,36,86143,1,0,0:0:0:0:
348,44,86467,1,4,0:2:0:0:
392,112,86630,5,0,0:0:0:0:
424,36,86711,37,0,0:0:0:0:
468,104,86792,5,0,0:0:0:0:
500,28,86954,37,4,0:2:0:0:
436,180,87116,6,0,B|456:264|392:232|416:328,1,135.000005149842,4|0,0:0|0:0,0:0:0:0:
464,368,87603,1,0,0:0:0:0:
488,292,87765,1,2,2:0:0:0:
16,164,88089,1,4,0:0:0:0:
16,164,88413,5,4,0:0:0:0:
96,172,88738,1,0,0:0:0:0:
160,120,89062,1,0,0:0:0:0:
80,112,89386,1,4,0:0:0:0:
88,340,89711,5,4,0:0:0:0:
152,292,89792,5,0,0:0:0:0:
160,288,89873,1,0,0:0:0:0:
168,296,89954,1,0,0:0:0:0:
176,292,90035,1,0,0:0:0:0:
184,300,90116,1,0,0:0:0:0:
192,296,90197,1,0,0:0:0:0:
200,304,90278,1,0,0:0:0:0:
256,352,90359,37,4,0:0:0:0:
312,304,90440,5,0,0:0:0:0:
320,296,90521,1,0,0:0:0:0:
328,300,90602,1,0,0:0:0:0:
336,292,90683,1,0,0:0:0:0:
344,296,90764,1,0,0:0:0:0:
352,288,90845,1,0,0:0:0:0:
360,292,90926,1,0,0:0:0:0:
424,340,91008,6,0,P|428:360|428:376,28,33.7500012874604,8|0|0|0|0|0|0|0|4|0|0|0|0|0|2|0|0|0|0|0|2|0|0|0|8|0|0|0|10,0:0|3:0|3:0|3:0|0:0|3:0|3:0|3:0|0:2|3:0|3:0|3:0|0:0|3:0|0:0|3:0|3:0|3:0|0:0|3:0|0:0|3:0|0:0|3:0|0:0|3:0|3:0|3:0|0:0,3:0:0:0:
392,24,92305,1,0,0:0:0:0:
424,340,92630,5,4,0:2:0:0:
488,160,92792,2,0,P|480:236|484:312,1,135.000005149842,4|0,0:0|0:0,0:0:0:0:
352,368,93035,2,0,P|296:356|208:348,1,135.000005149842
252,216,93278,2,0,P|260:248|260:292,1,67.5000025749208,8|0,0:0|0:0,0:0:0:0:
148,368,93440,2,0,P|118:354|83:326,1,67.5000025749208,2|0,0:0|0:0,0:0:0:0:
76,204,93603,5,2,0:0:0:0:
16,348,93765,1,0,0:0:0:0:
40,272,93846,2,0,P|48:192|32:120,1,135.000005149842
152,32,94089,1,0,0:0:0:0:
196,64,94170,1,0,0:0:0:0:
248,76,94251,1,0,0:0:0:0:
300,76,94332,2,0,P|308:44|304:4,1,67.5000025749208
12,68,94576,6,0,P|60:68|92:84,1,67.5000025749208,8|0,0:0|0:0,0:0:0:0:
152,212,94738,2,0,P|200:212|232:196,1,67.5000025749208,2|0,0:0|0:0,0:0:0:0:
368,116,94900,5,2,0:0:0:0:
488,0,95062,1,0,0:0:0:0:
488,0,95143,2,0,P|420:0|368:48,1,135.000005149842
292,152,95386,2,0,P|296:188|308:228,1,67.5000025749208
480,248,95549,5,0,0:0:0:0:
200,304,95711,1,0,0:0:0:0:
480,352,95873,1,8,0:0:0:0:
428,336,95954,1,0,0:0:0:0:
376,320,96035,1,2,0:0:0:0:
324,304,96116,1,0,0:0:0:0:
272,288,96197,2,0,P|272:324|280:364,1,67.5000025749208,4|0,0:0|0:0,0:0:0:0:
32,184,96359,2,0,P|20:264|24:340,1,135.000005149842,4|0,0:2|0:0,0:0:0:0:
21,317,96603,1,0,0:0:0:0:
21,317,96684,1,0,0:0:0:0:
300,152,96846,5,4,0:2:0:0:
136,72,97008,1,0,0:0:0:0:
166,1,97089,1,0,0:0:0:0:
211,64,97170,1,0,0:0:0:0:
8,108,97332,1,4,0:2:0:0:
180,140,97494,5,4,0:0:0:0:
180,140,97576,1,0,0:0:0:0:
180,140,97657,2,0,P|180:176|164:272,1,67.5000025749208,4|0,0:2|2:0,0:0:0:0:
76,248,97819,2,0,B|188:220|148:308|284:284,1,202.500007724762
260,296,98143,5,0,0:0:0:0:
512,320,98305,2,0,P|512:352|504:372,2,45.0000017166138
440,284,98467,1,0,0:0:0:0:
480,64,98630,2,0,P|480:32|472:12,2,45.0000017166138,2|0|0,0:0|0:0|0:0,0:0:0:0:
408,44,98792,5,4,0:0:0:0:
408,44,98874,1,0,0:0:0:0:
408,44,98955,2,0,P|408:80|424:176,1,67.5000025749208,4|0,0:2|2:0,0:0:0:0:
512,152,99117,2,0,B|400:124|440:212|304:188,1,202.500007724762
328,200,99441,5,0,0:0:0:0:
280,360,99603,1,0,0:0:0:0:
184,309,99765,1,0,0:0:0:0:
102,252,99927,6,0,P|95:224|99:199,2,45.0000017166138,2|0|0,0:0|0:0|0:0,0:0:0:0:
117,323,100089,1,0,0:0:0:0:
151,64,100251,6,0,P|175:49|200:45,2,45.0000017166138
88,100,100413,1,0,0:0:0:0:
344,53,100576,6,0,P|366:71|378:93,2,45.0000017166138,4|0|0,0:2|0:0|0:0,0:0:0:0:
290,4,100738,1,0,0:0:0:0:
415,233,100900,6,0,P|405:259|387:278,2,45.0000017166138
445,167,101062,1,8,0:0:0:0:
265,356,101224,5,4,0:2:0:0:
28,232,101386,5,4,0:0:0:0:
80,216,101467,1,0,0:0:0:0:
132,228,101549,1,0,0:0:0:0:
184,244,101630,1,0,0:0:0:0:
236,240,101711,1,8,0:0:0:0:
280,208,101792,1,0,0:0:0:0:
300,156,101873,1,4,0:2:0:0:
292,104,101954,1,0,0:0:0:0:
260,60,102035,1,4,0:0:0:0:
132,44,102197,6,0,P|124:20|120:-4,2,45.0000017166138,2|0|0,0:0|0:0|0:0,0:0:0:0:
184,104,102359,1,8,0:0:0:0:
440,288,102522,6,0,P|448:268|452:249,2,33.7500012874604,10|0|0,0:0|0:0|0:0,0:0:0:0:
388,348,102684,1,4,0:0:0:0:
