osu file format v14

[General]
AudioFilename: audio.mp3
AudioLeadIn: 0
PreviewTime:24846
Countdown: 0
SampleSet: Normal
StackLeniency: 0.7
Mode: 0
LetterboxInBreaks: 0
WidescreenStoryboard: 1

[Editor]
DistanceSpacing: 0.8
BeatDivisor: 4
GridSize: 32
TimelineZoom: 1.6

[Metadata]
Title:Evans
TitleUnicode:Evans
Artist:DJ YOSHITAKA
ArtistUnicode:DJ YOSHITAKA
Creator:Leader
Version:Normal
Source:jubeat
Tags:Acylica Acyl fanzhen0019 Muya Kloyd -kevincela- Nemis Sulfur toybot vikala Natteke desu Jounzan EvilElvis EvilElvisV2 BEMANI beatmania IIDX 17 SIRIUS REFLEC BEAT colette -All Seasons- HARD RENAISSANCE SOUND VOLTEX IV HEAVENLY HAVEN SDVX pop'n music Sunny Park CHUNITHM AIR PLUS SEGA Instrumental Electronic Video Game
BeatmapID:2144619
BeatmapSetID:1023491

[Difficulty]
HPDrainRate:4
CircleSize:3
OverallDifficulty:4
ApproachRate:6.5
SliderMultiplier:1.2
SliderTickRate:1

[Events]
//Background and Video events
0,0,"bg.jpg",0,0
//Break Periods
2,25046,34024
//Storyboard Layer 0 (Background)
//Storyboard Layer 1 (Fail)
//Storyboard Layer 2 (Pass)
//Storyboard Layer 3 (Foreground)
//Storyboard Layer 4 (Overlay)
//Storyboard Sound Samples

[TimingPoints]
1495,324.324324324324,4,1,1,60,1,0
35224,-100,4,2,1,50,0,0
41711,-100,4,1,1,50,0,0
61170,-100,4,1,1,70,0,1
71386,-100,4,1,1,50,0,0
71549,-100,4,1,1,70,0,1
81927,-100,4,1,1,70,0,0
92630,-100,4,1,1,70,0,1
102684,-100,4,1,1,60,0,0

[Colours]
Combo1 : 51,56,255
Combo2 : 41,235,235
Combo3 : 18,124,255
Combo4 : 160,252,250

[HitObjects]
55,280,1495,6,0,P|111:274|162:322,1,120,4|0,0:0|0:0,0:0:0:0:
190,347,1981,2,0,L|312:348,1,120
347,317,2467,1,2,2:0:0:0:
437,350,2792,1,0,0:0:0:0:
447,303,2954,5,4,0:0:0:0:
382,232,3278,1,0,0:0:0:0:
408,191,3440,2,0,P|421:132|400:71,1,120,4|4,0:2|0:2,0:0:0:0:
335,8,4089,5,4,0:0:0:0:
262,70,4413,2,0,L|134:70,1,120
62,124,5062,1,2,2:0:0:0:
146,168,5386,1,0,0:0:0:0:
79,233,5711,1,0,0:0:0:0:
93,278,5873,1,0,0:0:0:0:
167,337,6197,2,0,L|240:344,1,60
274,348,6522,1,0,0:0:0:0:
321,351,6684,6,0,P|340:291|326:235,1,120,4|4,0:2|0:0,0:0:0:0:
248,182,7332,1,0,0:0:0:0:
187,256,7657,1,0,0:0:0:0:
112,195,7981,1,0,0:0:0:0:
129,150,8143,5,4,0:0:0:0:
206,28,8630,1,4,0:2:0:0:
256,109,8954,1,4,0:2:0:0:
304,26,9278,5,4,0:0:0:0:
407,187,9927,1,4,0:0:0:0:
344,368,10576,2,0,L|280:376,1,60,4|4,0:0|0:0,0:0:0:0:
245,347,10900,2,0,L|185:339,1,60,0|8,0:0|0:0,0:0:0:0:
149,371,11224,2,0,B|126:311|126:311|149:241,1,120,4|0,0:2|0:0,0:0:0:0:
162,213,11711,1,4,0:2:0:0:
255,322,12197,6,0,L|382:335,1,120,4|0,0:0|0:0,0:0:0:0:
421,250,12846,2,0,L|294:237,1,120,8|0,0:0|0:0,0:0:0:0:
240,163,13494,2,0,P|237:132|245:92,1,60,8|0,0:0|0:0,0:0:0:0:
276,70,13819,2,0,L|342:64,1,60
383,61,14143,1,8,0:0:0:0:
449,125,14467,6,0,P|463:193|442:260,1,120,0|8,0:0|0:0,0:0:0:0:
386,312,15116,2,0,B|346:317|346:317|311:347|311:347|260:354,1,120,0|8,0:0|0:0,0:0:0:0:
191,307,15765,2,0,L|132:300,2,60,4|8|0,0:0|0:0|0:0,0:0:0:0:
270,253,16413,2,0,P|283:197|263:134,1,120,4|4,0:2|0:2,0:0:0:0:
213,57,17062,5,4,0:2:0:0:
143,123,17386,2,0,L|18:103,2,120,4|0|8,0:0|0:0|0:0,0:0:0:0:
205,196,18359,2,0,L|281:188,2,60,4|0|8,0:0|0:0|0:0,0:0:0:0:
141,267,19008,2,0,L|155:337,1,60
166,371,19332,1,8,0:0:0:0:
250,325,19657,6,0,P|302:319|373:347,1,120,4|8,0:0|0:0,0:0:0:0:
456,369,20305,2,0,L|467:228,1,120,4|8,0:0|0:0,0:0:0:0:
463,153,20954,2,0,P|424:165|395:186,1,60,4|4,0:0|0:2,0:0:0:0:
368,202,21278,1,0,0:0:0:0:
275,229,21603,1,4,0:0:0:0:
245,137,21927,1,0,0:0:0:0:
337,112,22251,5,6,0:0:0:0:
256,192,22413,12,4,24846,1:0:0:0:
41,247,35224,6,0,P|101:243|143:288,1,120,0|0,1:0|0:0,0:0:0:0:
204,355,35873,1,0,0:0:0:0:
291,316,36197,2,0,L|361:315,1,60,0|2,0:0|0:0,0:0:0:0:
385,281,36522,2,0,P|402:229|383:167,1,120,0|0,1:0|0:0,0:0:0:0:
341,146,37008,2,0,L|205:145,1,120,2|2,0:0|0:0,0:0:0:0:
184,114,37494,1,0,1:0:0:0:
142,200,37819,6,0,L|160:330,1,120,0|0,1:0|0:0,0:0:0:0:
173,364,38305,2,0,B|228:349|229:388|298:373,1,120,2|2,0:0|0:0,0:0:0:0:
324,340,38792,2,0,L|332:265,1,60,0|2,1:0|0:0,0:0:0:0:
334,232,39116,1,0,1:0:0:0:
415,282,39440,1,0,0:0:0:0:
480,211,39765,2,0,P|494:164|469:95,1,120,2|0,0:0|0:0,0:0:0:0:
439,63,40251,1,2,1:2:0:0:
400,92,40413,6,0,L|270:93,1,120,0|0,1:0|0:0,0:0:0:0:
244,60,40900,2,0,P|201:47|147:102,1,120,2|2,0:0|0:2,0:0:0:0:
151,140,41386,1,0,0:0:0:0:
223,202,41711,6,0,B|262:207|262:207|298:238|298:238|338:242,1,120
377,230,42197,2,0,P|403:287|383:348,1,120,2|2,0:2|0:2,0:0:0:0:
349,368,42684,1,8,0:0:0:0:
254,353,43008,6,0,P|200:335|135:379,1,120,0|8,0:0|0:0,0:0:0:0:
102,381,43494,1,0,0:0:0:0:
33,312,43819,1,0,0:0:0:0:
49,266,43981,2,0,P|52:235|41:185,1,60,8|0,0:0|0:0,0:0:0:0:
31,159,44305,2,0,L|158:159,1,120,0|8,0:0|0:0,0:0:0:0:
192,133,44792,2,0,P|247:121|297:186,1,120,2|2,0:0|0:0,0:0:0:0:
311,203,45278,1,0,0:0:0:0:
273,291,45603,5,4,0:0:0:0:
336,362,45927,1,8,0:0:0:0:
383,278,46251,1,8,0:0:0:0:
398,183,46576,2,0,P|412:128|389:62,1,120,8|0,0:0|0:0,0:0:0:0:
309,22,47224,5,8,0:0:0:0:
232,83,47549,1,8,0:0:0:0:
161,148,47873,2,0,P|99:159|38:135,1,120,8|4,0:0|0:0,0:0:0:0:
111,70,48522,5,12,0:0:0:0:
179,1,48846,1,8,0:0:0:0:
232,83,49170,2,0,P|251:140|239:200,1,120,8|0,0:0|0:0,0:0:0:0:
161,148,49819,5,8,0:0:0:0:
70,180,50143,1,8,0:0:0:0:
145,243,50467,2,0,L|161:374,1,120,8|4,0:0|0:0,0:0:0:0:
239,308,51116,5,8,0:0:0:0:
423,362,51765,2,0,L|427:294,1,60,8|4,0:0|0:2,0:0:0:0:
418,149,52413,1,8,0:0:0:0:
252,245,53062,2,0,P|218:246|177:234,1,60,8|4,0:0|0:2,0:0:0:0:
161,203,53386,6,0,L|148:73,1,120,4|2,0:0|0:0,0:0:0:0:
230,32,54035,2,0,L|243:162,1,120,4|2,0:0|0:0,0:0:0:0:
331,187,54684,2,0,L|318:57,1,120,4|2,0:0|0:0,0:0:0:0:
400,16,55333,2,0,L|413:146,1,120,4|2,0:0|0:0,0:0:0:0:
419,182,55819,1,0,0:0:0:0:
425,229,55981,5,4,0:0:0:0:
256,192,56143,12,4,58576,0:0:0:0:
256,192,58738,12,0,59873,0:0:0:0:
264,324,61170,6,0,L|387:336,1,120,4|8,0:0|0:0,0:0:0:0:
449,269,61819,2,0,P|459:218|434:128,1,120,0|8,0:0|0:0,0:0:0:0:
420,111,62305,1,2,0:0:0:0:
378,87,62467,2,0,L|245:75,1,120,2|8,0:0|0:0,0:0:0:0:
217,51,62954,2,0,P|152:35|102:86,1,120
80,100,63440,1,8,0:0:0:0:
148,168,63765,6,0,P|170:225|151:281,1,120,2|8,0:0|0:0,0:0:0:0:
128,320,64251,1,0,0:0:0:0:
210,369,64576,1,0,0:0:0:0:
257,371,64738,2,0,L|322:371,1,60,8|2,0:0|0:0,0:0:0:0:
352,338,65062,6,0,L|363:215,1,120,4|0,0:0|0:0,0:0:0:0:
292,152,65711,2,0,L|284:57,2,90,4|4|4,0:2|0:2|0:2,0:0:0:0:
266,192,66359,5,0,0:0:0:0:
182,137,66684,2,0,P|167:193|195:264,1,120,4|0,0:0|0:0,0:0:0:0:
250,326,67332,2,0,P|280:334|312:352,1,60,8|4,0:0|0:2,0:0:0:0:
349,367,67657,2,0,L|468:359,1,120,6|8,0:0|0:0,0:0:0:0:
496,320,68143,2,0,P|504:260|483:197,1,120
464,161,68630,1,8,0:0:0:0:
388,220,68954,6,0,L|255:228,1,120,6|8,0:0|0:0,0:0:0:0:
222,213,69440,2,0,P|202:150|222:79,1,120
237,57,69927,1,8,0:0:0:0:
314,113,70251,2,0,L|385:103,2,60,6|8|4,0:0|0:0|0:2,0:0:0:0:
285,151,70738,1,6,0:0:0:0:
353,218,71062,1,0,0:0:0:0:
351,265,71224,2,0,P|350:307|339:346,1,60,10|4,0:0|0:2,0:0:0:0:
307,352,71549,6,0,L|176:366,1,120,4|8,0:0|0:0,0:0:0:0:
121,295,72197,2,0,P|105:231|122:164,1,120,0|8,0:0|0:0,0:0:0:0:
137,136,72684,1,2,0:0:0:0:
172,104,72846,2,0,L|310:94,1,120,2|8,0:0|0:0,0:0:0:0:
329,66,73332,2,0,P|381:60|402:125,1,120
400,162,73819,1,8,0:0:0:0:
328,225,74143,6,0,B|288:232|288:232|256:269|256:269|211:277,1,120,2|8,0:0|0:0,0:0:0:0:
179,260,74630,2,0,P|155:208|172:136,1,120
191,107,75116,2,0,L|264:102,1,60,8|2,0:0|0:0,0:0:0:0:
286,134,75440,6,0,L|414:148,1,120,4|4,0:0|0:0,0:0:0:0:
418,242,76089,2,0,P|458:237|512:205,2,90,4|4|4,0:2|0:2|0:2,0:0:0:0:
394,284,76738,6,0,L|262:300,1,120,4|8,0:0|0:0,0:0:0:0:
231,278,77224,2,0,P|189:271|128:326,1,120
111,360,77711,1,8,0:0:0:0:
59,279,78035,2,0,L|47:134,1,120,6|8,0:0|0:0,0:0:0:0:
40,111,78522,1,0,0:0:0:0:
117,54,78846,1,0,0:0:0:0:
153,85,79008,2,0,P|184:92|226:97,1,60,8|4,0:0|0:2,0:0:0:0:
253,72,79332,6,0,L|240:214,1,120,6|8,0:0|0:0,0:0:0:0:
262,235,79819,2,0,B|323:223|322:268|391:255,1,120
422,241,80305,2,0,L|412:307,1,60,8|0,0:0|0:0,0:0:0:0:
390,343,80630,2,0,L|258:358,1,120,4|8,0:0|0:0,0:0:0:0:
233,268,81278,2,0,L|113:254,1,120,0|10,0:0|0:0,0:0:0:0:
81,218,81765,1,10,0:0:0:0:
63,173,81927,5,4,0:2:0:0:
102,85,82251,1,4,0:0:0:0:
254,329,83224,1,2,2:0:0:0:
349,341,83549,1,4,0:2:0:0:
444,351,83873,1,4,0:2:0:0:
408,266,84197,1,4,0:2:0:0:
312,255,84522,5,4,0:0:0:0:
125,300,85170,1,4,0:0:0:0:
265,168,85819,1,0,0:0:0:0:
312,255,86143,1,0,0:0:0:0:
356,340,86467,6,0,L|261:353,2,90,4|4|4,0:2|0:2|0:2,0:2:0:0:
402,328,87116,6,0,P|423:285|383:97,1,240,4|2,2:0|2:0,2:0:0:0:
329,29,88089,1,4,0:0:0:0:
273,113,88413,2,0,P|252:156|292:344,1,240,4|2,0:0|2:0,0:0:0:0:
371,379,89386,1,4,0:0:0:0:
453,329,89711,1,4,0:0:0:0:
256,192,89873,12,8,91008,0:0:0:0:
51,50,92305,6,0,L|59:121,1,60
65,157,92630,6,0,B|108:165|108:165|142:201|142:201|185:211,1,120,4|0,0:2|0:0,0:0:0:0:
257,237,93278,2,0,P|281:267|292:298,1,60,8|2,0:0|0:0,0:0:0:0:
320,323,93603,2,0,L|458:336,1,120,2|8,0:0|0:0,0:0:0:0:
477,304,94089,2,0,P|497:238|477:179,1,120
458,149,94576,1,8,0:0:0:0:
396,222,94900,6,0,L|274:233,1,120,2|8,0:0|0:0,0:0:0:0:
231,215,95386,2,0,P|211:157|225:90,1,120
252,64,95873,2,0,L|334:56,1,60,8|2,0:0|0:0,0:0:0:0:
350,30,96197,5,4,0:0:0:0:
421,94,96522,2,0,P|443:157|420:230,1,120,0|4,0:0|0:2,0:0:0:0:
408,249,97008,1,0,0:0:0:0:
383,289,97170,2,0,L|308:297,1,60,0|4,0:0|0:2,0:0:0:0:
281,271,97494,2,0,P|240:263|183:323,1,120,4|0,0:0|0:0,0:0:0:0:
163,354,97981,1,0,0:0:0:0:
96,284,98305,1,2,0:0:0:0:
80,238,98467,2,0,P|73:202|80:177,1,60,0|2,0:0|0:0,0:0:0:0:
102,137,98792,6,0,L|238:138,1,120,4|0,0:0|0:0,0:0:0:0:
261,110,99278,2,0,P|315:112|350:175,1,120,0|2,0:0|0:0,0:0:0:0:
351,259,99927,1,2,0:0:0:0:
337,305,100089,2,0,B|293:311|293:311|255:338|255:338|219:341,1,120
179,329,100576,2,0,P|157:268|176:212,1,120,4|4,0:2|0:2,0:0:0:0:
202,179,101062,5,8,0:0:0:0:
254,259,101386,1,4,0:0:0:0:
307,178,101711,1,8,0:0:0:0:
256,96,102035,2,0,L|257:23,2,60,4|2|8,0:0|0:0|0:0,0:0:0:0:
254,192,102684,5,4,0:0:0:0:
