osu file format v14

[General]
AudioFilename: audio.mp3
AudioLeadIn: 0
PreviewTime:24846
Countdown: 0
SampleSet: Normal
StackLeniency: 0.7
Mode: 0
LetterboxInBreaks: 0
WidescreenStoryboard: 1

[Editor]
DistanceSpacing: 1.8
BeatDivisor: 6
GridSize: 32
TimelineZoom: 4.599998

[Metadata]
Title:Evans
TitleUnicode:Evans
Artist:DJ YOSHITAKA
ArtistUnicode:DJ YOSHITAKA
Creator:Leader
Version:Muya's Extra
Source:jubeat
Tags:Acylica Acyl fanzhen0019 Muya Kloyd -kevincela- Nemis Sulfur toybot vikala Natteke desu Jounzan EvilElvis EvilElvisV2 BEMANI beatmania IIDX 17 SIRIUS REFLEC BEAT colette -All Seasons- HARD RENAISSANCE SOUND VOLTEX IV HEAVENLY HAVEN SDVX pop'n music Sunny Park CHUNITHM AIR PLUS SEGA Instrumental Electronic Video Game
BeatmapID:2251634
BeatmapSetID:1023491

[Difficulty]
HPDrainRate:7
CircleSize:4
OverallDifficulty:9
ApproachRate:9.6
SliderMultiplier:2
SliderTickRate:1

[Events]
//Background and Video events
0,0,"bg.jpg",0,0
//Break Periods
//Storyboard Layer 0 (Background)
//Storyboard Layer 1 (Fail)
//Storyboard Layer 2 (Pass)
//Storyboard Layer 3 (Foreground)
//Storyboard Layer 4 (Overlay)
//Storyboard Sound Samples

[TimingPoints]
1495,324.324324324324,4,1,1,60,1,0
5386,-100,4,1,1,40,0,0
6197,-100,4,1,1,50,0,0
6684,-100,4,1,1,60,0,0
7332,-100,4,1,1,50,0,0
8630,-100,4,1,1,60,0,0
11711,-100,4,1,1,60,0,0
11873,-200,4,1,1,60,0,0
12116,-100,4,1,1,5,0,0
12197,-100,4,1,1,60,0,0
23549,-200,4,2,1,10,0,0
24765,-200,4,2,1,60,0,0
24846,-125,4,2,1,50,0,0
35224,-125,4,2,1,60,0,0
40413,-100,4,1,1,30,0,0
41711,-100,4,1,1,35,0,0
42359,-100,4,1,1,40,0,0
42684,-100,4,1,1,45,0,0
43008,-100,4,1,1,50,0,0
43332,-100,4,1,1,55,0,0
43657,-100,4,1,1,60,0,0
45603,-100,4,1,1,70,0,0
45927,-100,4,1,1,50,0,0
46900,-100,4,1,1,60,0,0
48197,-100,4,1,1,70,0,0
48684,-100,4,1,1,60,0,0
50630,-66.6666666666667,4,1,1,60,0,0
51035,-100,4,1,1,60,0,0
51927,-66.6666666666667,4,1,1,60,0,0
52332,-100,4,1,1,60,0,0
53224,-66.6666666666667,4,1,1,60,0,0
53711,-100,4,1,1,60,0,0
54035,-66.6666666666667,4,1,1,60,0,0
54359,-100,4,1,1,60,0,0
54684,-66.6666666666667,4,1,1,60,0,0
55008,-100,4,1,1,60,0,0
55332,-66.6666666666667,4,1,1,60,0,0
55657,-100,4,1,1,60,0,0
58089,-66.6666666666667,4,1,1,60,0,0
58576,-50,4,1,1,50,0,0
59224,-100,4,1,1,50,0,0
59873,-100,4,1,1,60,0,0
61008,-100,4,1,1,50,0,0
61170,-100,4,1,1,70,0,1
65711,-50,4,1,1,70,0,1
66197,-100,4,1,1,70,0,1
66684,-100,4,1,1,70,0,1
70251,-66.6666666666667,4,1,1,70,0,0
71549,-100,4,1,1,70,0,1
75440,-66.6666666666667,4,1,1,70,0,1
76738,-100,4,1,1,70,0,1
80630,-66.6666666666667,4,1,1,70,0,1
81927,-125,4,1,1,50,0,0
82251,-125,4,1,1,70,0,0
82413,-125,4,2,1,60,0,0
83711,-125,4,1,1,50,0,0
83873,-125,4,1,1,60,0,0
84684,-125,4,1,1,50,0,0
85008,-125,4,1,1,60,0,0
85981,-125,4,1,1,50,0,0
86143,-125,4,1,1,60,0,0
86305,-125,4,1,1,50,0,0
86953,-125,4,1,1,60,0,0
87278,-125,4,1,1,50,0,0
87765,-125,4,1,1,60,0,0
91008,-100,4,1,1,60,0,0
92305,-200,4,1,1,60,0,0
92630,-100,4,1,1,60,0,0
92873,-100,4,1,1,50,0,0
92954,-100,4,1,1,60,0,0
93927,-100,4,1,1,50,0,0
94089,-100,4,1,1,60,0,0
94170,-100,4,1,1,50,0,0
94251,-100,4,1,1,60,0,0
94494,-100,4,1,1,50,0,0
94576,-100,4,1,1,60,0,0
95224,-100,4,1,1,50,0,0
95305,-100,4,1,1,60,0,0
95711,-100,4,1,1,50,0,0
95873,-100,4,1,1,60,0,0
96522,-100,4,1,1,50,0,0
96603,-100,4,1,1,60,0,0
97008,-100,4,1,1,50,0,0
97170,-100,4,1,1,60,0,0
97494,-66.6666666666667,4,1,1,60,0,0
98345,-66.6666666666667,4,1,1,50,0,0
98467,-66.6666666666667,4,1,1,60,0,0
98670,-66.6666666666667,4,1,1,50,0,0
98792,-66.6666666666667,4,1,1,60,0,0
99967,-66.6666666666667,4,1,1,50,0,0
100089,-66.6666666666667,4,1,1,60,0,0
100291,-66.6666666666667,4,1,1,50,0,0
100413,-66.6666666666667,4,1,1,60,0,0
100616,-66.6666666666667,4,1,1,50,0,0
100738,-66.6666666666667,4,1,1,60,0,0
100940,-66.6666666666667,4,1,1,50,0,0
101062,-66.6666666666667,4,1,1,60,0,0
101305,-66.6666666666667,4,1,1,50,0,0
101386,-66.6666666666667,4,1,1,60,0,0
102318,-66.6666666666667,4,1,1,50,0,0
102359,-66.6666666666667,4,1,1,60,0,0
102684,-100,4,1,1,50,0,0

[Colours]
Combo1 : 51,56,255
Combo2 : 41,235,235
Combo3 : 18,124,255
Combo4 : 160,252,250

[HitObjects]
96,0,1495,5,4,0:2:0:0:
80,144,1657,1,0,0:0:0:0:
80,144,1819,1,0,0:0:0:0:
224,20,1981,1,0,0:0:0:0:
20,68,2143,1,0,0:0:0:0:
20,68,2467,1,0,1:0:0:0:
20,68,2792,1,0,0:0:0:0:
168,224,2954,6,0,P|172:272|160:336,1,100,4|0,0:2|0:0,0:0:0:0:
164,323,3278,1,0,0:0:0:0:
104,140,3440,2,0,P|72:200|84:268,1,100,4|0,0:2|0:0,0:0:0:0:
240,384,3765,2,0,P|272:324|260:256,1,100,4|0,0:2|0:0,0:0:0:0:
336,64,4089,5,4,0:2:0:0:
412,236,4251,1,0,0:0:0:0:
412,236,4413,1,0,0:0:0:0:
304,180,4576,1,0,0:0:0:0:
472,128,4738,1,0,0:0:0:0:
472,128,5062,1,0,0:0:0:0:
368,368,5386,5,0,0:0:0:0:
208,176,5711,1,0,0:0:0:0:
224,256,5873,1,0,0:0:0:0:
240,336,6035,1,0,0:0:0:0:
408,204,6197,2,0,L|444:199,2,25
400,208,6359,1,0,0:0:0:0:
104,148,6522,2,0,L|68:143,2,25
112,152,6684,6,0,P|152:128|184:76,1,100,4|0,0:2|0:0,0:0:0:0:
400,0,7008,2,0,P|384:40|392:112,1,100,4|0,0:2|0:0,0:0:0:0:
284,332,7332,2,0,P|308:224|272:144,1,200
64,24,7981,5,0,0:0:0:0:
12,304,8143,2,0,P|100:280|216:268,1,200,4|0,0:2|0:0,0:0:0:0:
428,104,8630,2,0,P|424:168|424:220,1,100,4|0,0:2|0:0,0:0:0:0:
352,384,8954,2,0,P|344:308|336:280,1,100,4|0,0:2|0:0,0:0:0:0:
256,32,9278,5,4,0:2:0:0:
256,352,9927,1,4,0:2:0:0:
256,192,10576,5,4,0:2:0:0:
256,192,10738,1,4,0:2:0:0:
256,192,10900,1,0,0:0:0:0:
256,32,11224,5,4,0:2:0:0:
80,352,11467,1,4,0:2:0:0:
448,352,11711,1,4,0:2:0:0:
512,160,11873,6,0,P|472:160|432:148,1,75
376,100,12197,6,0,P|352:144|360:228,1,100,4|0,0:2|0:0,0:0:0:0:
256,360,12522,2,0,P|264:316|252:248,1,100
208,176,12846,2,0,L|96:172,1,100,8|0,0:0|0:0,0:0:0:0:
0,44,13170,6,0,P|76:64|180:-28,1,200,0|8,0:0|0:0,0:0:0:0:
256,56,13657,1,0,0:0:0:0:
436,7,13819,1,0,0:0:0:0:
436,7,13900,1,8,0:0:0:0:
436,7,13981,2,0,P|443:56|442:106,2,100,0|8|0,0:0|0:0|0:0,0:0:0:0:
288,152,14467,5,0,0:0:0:0:
220,224,14630,2,0,P|168:228|108:196,2,100,0|8|0,0:0|0:0|0:0,0:0:0:0:
408,384,15116,6,0,P|400:336|404:240,1,100
372,188,15440,2,0,P|428:192|488:152,1,100,8|0,0:0|0:0,0:0:0:0:
320,56,15765,5,4,0:2:0:0:
180,232,15927,2,0,P|96:240|4:156,1,200,4|8,0:2|0:0,0:0:0:0:
256,328,16413,6,0,P|316:324|376:348,1,100,4|0,0:2|0:0,0:0:0:0:
123,111,16738,2,0,P|173:113|218:92,1,100,4|0,0:2|0:0,0:0:0:0:
500,148,17062,6,0,P|448:124|364:180,1,150,4|0,0:2|0:0,0:0:0:0:
292,144,17386,2,0,P|304:184|308:244,1,100,4|0,0:2|0:0,0:0:0:0:
48,240,17711,6,0,P|115:174|202:210,1,200,0|8,0:0|0:0,0:0:0:0:
236,304,18197,1,0,0:0:0:0:
464,296,18359,6,0,P|400:320|308:236,1,200,4|8,0:2|0:0,0:0:0:0:
332,60,18846,1,0,0:0:0:0:
352,56,18927,1,0,0:0:0:0:
372,56,19008,1,0,0:0:0:0:
392,60,19089,1,8,0:0:0:0:
412,68,19170,2,0,L|512:56,2,100,0|8|0,0:0|0:0|0:0,0:0:0:0:
256,164,19657,6,0,P|208:249|232:344,1,200,4|8,0:2|0:0,0:0:0:0:
232,344,20143,1,0,0:0:0:0:
16,240,20305,2,0,P|67:243|110:220,1,100,4|0,0:2|0:0,0:0:0:0:
200,0,20630,2,0,P|212:48|196:104,1,100,8|0,0:0|0:0,0:0:0:0:
80,360,20954,5,4,0:2:0:0:
92,120,21116,1,4,0:2:0:0:
16,240,21278,5,8,0:0:0:0:
256,380,21440,1,0,0:0:0:0:
464,192,21603,1,4,0:0:0:0:
460,172,21684,1,8,0:0:0:0:
456,152,21765,6,0,L|448:112,2,25,4|0|0,0:2|0:0|0:0,0:0:0:0:
448,108,21927,1,4,0:2:0:0:
359,0,22089,2,0,L|354:40,2,25,4|0|0,0:2|0:0|0:0,0:0:0:0:
354,44,22251,1,6,0:2:0:0:
440,260,23549,6,0,B|468:268|500:252|500:252|484:284|452:300|420:284|404:236|360:212|296:212|240:236|216:284,1,375
132,376,24846,6,0,P|152:320|140:260,1,120,4|2,1:2|0:0,0:0:0:0:
0,116,25251,1,0,0:0:0:0:
16,124,25332,2,0,P|80:128|128:96,1,120,0|2,0:0|0:0,0:0:0:0:
256,76,25738,1,0,0:0:0:0:
244,88,25819,2,0,L|240:136,3,40,0|0|2|0,0:0|0:0|0:0|0:0,0:0:0:0:
232,120,26143,6,0,P|224:60|232:-20,2,120,0|2|0,0:0|0:0|0:0,0:0:0:0:
260,260,26873,1,2,0:0:0:0:
504,192,27116,5,0,0:0:0:0:
504,192,27197,1,0,0:0:0:0:
504,192,27278,2,0,L|448:188,1,40,2|0,0:0|0:0,0:0:0:0:
404,140,27440,2,0,P|344:140|296:172,1,120
56,204,27927,2,0,P|128:216|160:272,1,120,2|2,0:0|0:0,0:0:0:0:
264,384,28413,1,0,0:0:0:0:
264,384,28494,1,0,0:0:0:0:
264,384,28576,2,0,L|260:336,1,40,2|0,0:0|0:0,0:0:0:0:
236,256,28738,6,0,P|296:272|376:240,2,120,0|2|0,0:0|0:0|0:0,0:0:0:0:
156,136,29467,1,2,0:0:0:0:
396,32,29711,1,0,0:0:0:0:
396,32,29792,1,0,0:0:0:0:
396,32,29873,2,0,L|392:108,1,40,2|0,0:0|0:0,0:0:0:0:
344,136,30035,6,0,L|352:264,1,120,0|2,0:0|0:0,0:0:0:0:
448,372,30522,1,0,0:0:0:0:
448,372,30765,1,2,0:0:0:0:
232,192,31008,2,0,P|192:192|144:212,1,80,0|2,0:0|0:0,0:0:0:0:
0,320,31332,6,0,L|132:332,2,120,0|2|0,0:0|0:0|0:0,0:0:0:0:
0,320,32062,1,2,0:0:0:0:
116,112,32305,1,0,0:0:0:0:
0,28,32467,1,2,0:0:0:0:
88,200,32630,6,0,P|132:204|196:156,1,120,0|2,0:0|0:0,0:0:0:0:
256,32,33116,1,0,0:0:0:0:
256,32,33359,1,2,0:0:0:0:
512,192,33603,1,0,0:0:0:0:
432,312,33765,1,2,0:0:0:0:
312,232,33927,6,0,L|304:112,2,120,0|2|0,0:0|0:0|0:0,0:0:0:0:
312,232,34657,1,2,0:0:0:0:
288,352,34900,5,0,0:0:0:0:
256,32,35062,1,2,0:0:0:0:
0,128,35224,5,4,1:0:0:0:
68,172,35386,2,0,P|76:216|72:264,1,80,2|0,0:0|0:0,0:0:0:0:
168,376,35711,2,0,P|168:336|172:296,1,80,2|0,0:0|0:0,0:0:0:0:
240,188,36035,2,0,L|320:184,1,80,2|0,0:0|0:0,0:0:0:0:
319,185,36359,1,2,0:0:0:0:
472,88,36522,5,0,0:0:0:0:
408,36,36684,2,0,P|392:72|396:116,1,80,2|0,0:0|0:0,0:0:0:0:
240,188,37008,2,0,P|224:144|228:108,1,80,2|0,0:0|0:0,0:0:0:0:
440,184,37332,2,0,L|436:264,1,80,2|0,0:0|0:0,0:0:0:0:
436,263,37657,1,2,0:0:0:0:
328,372,37819,5,0,0:0:0:0:
256,332,37981,2,0,P|212:328|172:344,1,80,2|0,0:0|0:0,0:0:0:0:
40,384,38305,2,0,L|44:296,1,80,2|0,0:0|0:0,0:0:0:0:
100,176,38630,2,0,L|96:88,1,80,2|0,0:0|0:0,0:0:0:0:
96,96,38954,1,2,0:0:0:0:
280,0,39116,5,0,0:0:0:0:
204,28,39278,2,0,P|192:72|196:124,1,80,2|0,0:0|0:0,0:0:0:0:
20,224,39603,2,0,P|12:184|16:144,1,80,2|0,0:0|0:0,0:0:0:0:
272,160,39927,2,0,P|280:108|276:64,1,80,2|0,0:0|0:0,0:0:0:0:
278,80,40251,1,2,0:0:0:0:
128,288,40413,5,0,1:0:0:0:
128,288,40494,1,0,0:0:0:0:
128,288,40576,1,0,0:0:0:0:
240,336,40738,1,0,0:0:0:0:
240,336,40819,1,0,0:0:0:0:
240,336,40900,1,0,0:0:0:0:
320,256,41062,1,0,0:0:0:0:
320,256,41143,1,0,0:0:0:0:
320,256,41225,1,0,0:0:0:0:
432,304,41387,1,0,0:0:0:0:
432,304,41468,1,0,0:0:0:0:
432,304,41549,1,2,0:2:0:0:
512,120,41711,5,0,0:0:0:0:
400,208,41873,1,0,0:0:0:0:
280,152,42035,1,0,0:0:0:0:
280,152,42116,1,0,0:0:0:0:
280,152,42197,1,2,0:2:0:0:
496,208,42359,5,0,0:0:0:0:
392,48,42522,1,0,0:0:0:0:
312,256,42684,1,0,0:0:0:0:
312,256,42765,1,0,0:0:0:0:
312,256,42846,1,2,0:2:0:0:
104,312,43008,5,0,0:0:0:0:
101,296,43089,1,0,0:0:0:0:
99,280,43170,1,0,0:0:0:0:
99,264,43251,1,0,0:0:0:0:
101,248,43332,1,0,0:0:0:0:
106,228,43413,1,0,0:0:0:0:
116,211,43494,1,0,0:0:0:0:
130,197,43576,1,0,0:0:0:0:
147,186,43657,1,0,0:0:0:0:
170,180,43738,1,0,0:0:0:0:
192,171,43819,1,0,0:0:0:0:
212,158,43900,1,0,0:0:0:0:
228,140,43981,1,0,0:0:0:0:
236,113,44062,1,0,0:0:0:0:
236,85,44143,1,0,0:0:0:0:
228,58,44224,1,0,0:0:0:0:
210,36,44305,5,2,0:0:0:0:
182,20,44386,1,0,0:0:0:0:
150,16,44467,1,0,0:0:0:0:
118,24,44549,1,2,0:0:0:0:
94,46,44630,1,0,0:0:0:0:
80,79,44711,1,0,0:0:0:0:
78,114,44792,1,2,0:0:0:0:
90,147,44873,1,0,0:0:0:0:
113,174,44954,1,0,0:0:0:0:
148,191,45035,1,2,0:0:0:0:
187,194,45116,1,0,0:0:0:0:
225,183,45197,1,0,0:0:0:0:
257,160,45278,1,2,0:0:0:0:
302,144,45359,1,0,0:0:0:0:
349,144,45440,1,0,0:0:0:0:
394,161,45522,1,0,0:0:0:0:
430,192,45603,1,4,0:2:0:0:
320,384,45927,5,8,0:0:0:0:
160,352,46251,1,8,0:0:0:0:
0,320,46576,1,8,0:0:0:0:
336,176,46738,5,8,0:0:0:0:
336,176,46819,1,8,0:0:0:0:
336,176,46900,1,0,0:0:0:0:
448,304,47224,1,8,0:0:0:0:
256,336,47548,1,8,0:0:0:0:
64,368,47873,1,8,0:0:0:0:
32,96,48035,5,0,0:0:0:0:
32,96,48116,1,0,0:0:0:0:
32,96,48197,1,4,0:2:0:0:
208,0,48522,1,4,0:2:0:0:
176,160,48846,1,8,0:0:0:0:
144,320,49170,1,8,0:0:0:0:
336,384,49332,5,8,0:0:0:0:
336,384,49413,1,8,0:0:0:0:
336,384,49494,1,0,0:0:0:0:
480,224,49819,1,8,0:0:0:0:
256,192,50143,1,8,0:0:0:0:
29,159,50467,1,8,0:0:0:0:
29,159,50549,1,0,0:0:0:0:
29,159,50630,2,0,L|25:99,2,37.5000014305115
27,122,50792,6,0,P|91:114|151:170,1,150.000005722046,4|0,0:2|0:0,0:0:0:0:
240,324,51116,1,8,0:0:0:0:
308,252,51278,2,0,P|308:204|300:148,1,100,2|0,2:0|0:0,0:0:0:0:
200,0,51603,1,0,0:0:0:0:
490,55,51765,5,8,0:0:0:0:
490,55,51846,1,0,0:0:0:0:
490,55,51927,2,0,L|486:111,2,37.5000014305115,4|0|0,0:2|0:0|0:0,0:0:0:0:
488,93,52089,6,0,P|423:111|355:63,1,150.000005722046,4|0,0:2|0:0,0:0:0:0:
88,136,52413,1,8,0:0:0:0:
184,108,52576,2,0,P|236:120|268:156,1,100,2|8,2:0|0:0,0:0:0:0:
512,312,52900,1,0,0:0:0:0:
348,384,53062,1,8,0:0:0:0:
348,384,53143,1,0,0:0:0:0:
348,384,53224,2,0,L|344:320,3,37.5000014305115,4|0|0|0,0:2|0:0|0:0|0:0,0:0:0:0:
346,347,53386,6,0,P|274:363|210:323,1,150.000005722046,4|0,0:2|0:0,0:0:0:0:
84,224,53711,2,0,L|80:120,1,100,10|0,0:0|0:0,0:0:0:0:
256,0,54035,6,0,P|288:92|212:164,1,150.000005722046,4|0,0:2|0:0,0:0:0:0:
0,184,54359,2,0,P|-4:240|8:288,1,100,10|0,0:0|0:0,0:0:0:0:
88,376,54603,5,0,0:0:0:0:
88,376,54684,2,0,P|144:324|216:328,1,150.000005722046,4|0,0:2|0:0,0:0:0:0:
384,380,55008,2,0,P|376:332|380:272,1,100,10|0,0:0|0:0,0:0:0:0:
492,88,55332,6,0,P|428:144|340:92,1,150.000005722046,4|0,0:2|0:0,0:0:0:0:
104,40,55657,2,0,P|156:0|212:8,1,100,10|0,0:0|0:0,0:0:0:0:
288,64,55900,5,0,0:0:0:0:
288,64,55981,1,4,0:0:0:0:
272,192,56143,1,0,0:0:0:0:
256,320,56305,1,4,0:2:0:0:
144,128,56467,1,0,0:0:0:0:
464,336,56630,1,4,0:0:0:0:
432,176,56792,1,0,0:0:0:0:
400,16,56954,1,4,0:2:0:0:
128,256,57116,1,0,0:0:0:0:
0,64,57278,5,12,0:0:0:0:
28,104,57359,1,0,0:0:0:0:
76,120,57440,1,0,0:0:0:0:
124,108,57522,1,0,0:0:0:0:
160,72,57603,1,8,0:0:0:0:
188,32,57684,1,0,0:0:0:0:
236,16,57765,1,0,0:0:0:0:
284,28,57847,1,0,0:0:0:0:
320,64,57928,1,8,0:0:0:0:
324,112,58008,1,0,0:0:0:0:
300,156,58089,6,0,L|296:196,2,37.5000014305115
276,208,58251,1,8,0:0:0:0:
278,228,58332,1,0,0:0:0:0:
280,248,58413,2,0,L|284:296,2,37.5000014305115
284,300,58576,6,0,B|312:328|348:332|396:328|412:300|390:252|361:215|316:201|242:193|198:208|183:238|212:296|224:360|148:380|56:360|12:312|40:220,1,600,4|0,0:2|0:0,0:0:0:0:
0,96,59224,5,0,0:0:0:0:
276,132,59386,1,0,0:0:0:0:
128,272,59549,1,0,0:0:0:0:
128,272,59630,1,0,0:0:0:0:
128,272,59711,1,0,0:0:0:0:
128,272,59792,1,0,0:0:0:0:
128,272,59873,5,4,0:0:0:0:
156,300,59954,1,0,0:0:0:0:
184,328,60035,2,0,L|280:324,1,50
300,264,60197,2,0,L|372:276,1,50
460,316,60359,1,0,0:0:0:0:
448,332,60440,2,0,P|432:276|440:236,1,100
492,160,60684,2,0,L|484:56,1,100,8|4,0:0|0:2,0:0:0:0:
336,0,61008,1,0,0:0:0:0:
44,60,61170,6,0,P|24:108|32:172,1,100,4|0,0:2|0:0,0:0:0:0:
4,244,61413,2,0,P|60:248|108:232,1,100,8|0,0:0|0:0,0:0:0:0:
120,224,61657,1,0,0:0:0:0:
408,208,61819,1,0,0:0:0:0:
420,224,61900,2,0,P|364:212|308:220,1,100,8|0,0:0|0:0,0:0:0:0:
236,188,62143,6,0,P|232:232|236:276,1,50,8|0,0:0|0:0,0:0:0:0:
352,377,62305,2,0,P|360:344|364:293,1,50,2|0,0:0|0:0,0:0:0:0:
512,136,62467,6,0,P|460:136|416:112,1,100,2|0,0:0|0:0,0:0:0:0:
348,56,62711,1,0,0:0:0:0:
332,68,62792,2,0,P|316:120|320:168,1,100,8|0,0:0|0:0,0:0:0:0:
380,336,63035,1,0,0:0:0:0:
360,328,63116,1,0,0:0:0:0:
340,320,63197,2,0,P|288:316|241:333,1,100,8|0,0:0|0:0,0:0:0:0:
136,384,63440,6,0,P|128:352|128:312,1,50,8|0,0:0|0:0,0:0:0:0:
240,172,63603,2,0,P|240:208|232:240,1,50,2|0,0:0|0:0,0:0:0:0:
0,236,63765,6,0,P|56:240|96:220,1,100,2|0,0:0|0:0,0:0:0:0:
152,152,64008,2,0,L|156:100,1,50,0|8,0:0|0:0,0:0:0:0:
292,16,64170,1,0,0:0:0:0:
308,28,64251,6,0,P|324:76|316:124,1,100
264,208,64576,1,0,0:0:0:0:
512,308,64738,1,8,0:0:0:0:
468,284,64819,1,0,0:0:0:0:
420,284,64900,1,8,0:0:0:0:
376,308,64981,1,0,0:0:0:0:
352,352,65062,5,4,0:2:0:0:
144,384,65224,2,0,P|174:289|172:188,1,200,10|0,0:0|0:0,0:0:0:0:
80,0,65711,6,0,P|20:64|48:164,1,200,4|0,0:2|0:0,0:0:0:0:
0,320,65954,2,0,P|96:284|212:324,1,200,4|0,0:2|0:0,0:0:0:0:
268,348,66197,5,4,0:2:0:0:
280,332,66278,1,0,0:0:0:0:
292,316,66359,2,0,P|296:260|284:212,1,100,2|0,0:0|0:0,0:0:0:0:
296,96,66603,1,0,0:0:0:0:
288,116,66684,2,0,P|248:144|196:148,1,100,12|0,0:0|0:0,0:0:0:0:
8,52,67008,1,0,0:0:0:0:
16,32,67089,2,0,P|56:4|108:0,1,100,8|0,0:0|0:0,0:0:0:0:
220,16,67332,6,0,P|220:48|216:76,1,50,10|0,0:0|0:0,0:0:0:0:
104,180,67494,2,0,P|108:216|112:232,1,50,4|0,0:2|0:0,0:0:0:0:
220,328,67657,6,0,P|284:336|336:308,1,100,6|0,0:0|0:0,0:0:0:0:
440,372,67900,6,0,P|448:336|444:300,1,50,8|0,0:0|0:0,0:0:0:0:
332,188,68062,2,0,P|368:196|388:212,1,50
492,216,68224,5,0,0:0:0:0:
492,216,68305,1,0,0:0:0:0:
492,216,68386,2,0,P|512:172|508:120,1,100,8|0,0:0|0:0,0:0:0:0:
460,44,68630,2,0,P|404:48|344:36,1,100,8|4,0:0|0:2,0:0:0:0:
96,112,68954,6,0,P|160:136|204:120,1,100,6|0,0:0|0:0,0:0:0:0:
260,84,69197,1,0,0:0:0:0:
260,84,69278,6,0,P|264:56|264:28,1,50,8|0,0:0|0:0,0:0:0:0:
32,160,69440,2,0,P|20:136|16:104,1,50,8|0,0:0|0:0,0:0:0:0:
172,212,69603,1,4,0:2:0:0:
180,228,69684,1,0,0:0:0:0:
184,248,69765,6,0,P|184:280|172:312,1,50
16,384,69927,2,0,P|8:360|8:328,1,50,10|0,0:0|0:0,0:0:0:0:
264,264,70089,2,0,P|266:239|262:214,1,50,10|0,0:0|0:0,0:0:0:0:
96,112,70251,5,6,0:0:0:0:
96,112,70332,1,0,0:0:0:0:
96,112,70413,1,8,0:0:0:0:
148,376,70576,2,0,P|188:380|228:364,1,75.0000028610231,4|0,0:2|0:0,0:0:0:0:
412,316,70738,2,0,P|324:344|260:244,1,225.000008583069,6|0,0:0|0:0,0:0:0:0:
184,132,71062,6,0,P|184:92|196:56,1,75.0000028610231,4|0,0:0|0:0,0:0:0:0:
44,256,71224,2,0,P|52:296|52:340,1,75.0000028610231,14|0,0:0|0:0,0:0:0:0:
344,264,71386,2,0,P|356:228|356:184,1,75.0000028610231,4|0,0:2|0:0,0:0:0:0:
504,0,71549,6,0,P|512:36|504:100,1,100,4|0,0:0|0:0,0:0:0:0:
416,124,71792,2,0,P|368:104|312:112,1,100,8|0,0:0|0:0,0:0:0:0:
304,120,72035,1,0,0:0:0:0:
136,268,72197,1,0,0:0:0:0:
136,268,72278,2,0,P|124:208|140:132,1,100,8|0,0:0|0:0,0:0:0:0:
196,44,72522,6,0,P|204:80|204:112,1,50,8|0,0:0|0:0,0:0:0:0:
28,188,72684,2,0,P|24:216|24:248,1,50,2|0,0:0|0:0,0:0:0:0:
176,348,72846,6,0,P|224:320|272:324,1,100,2|0,0:0|0:0,0:0:0:0:
376,368,73089,1,0,0:0:0:0:
360,356,73170,2,0,P|348:308|356:240,1,100,8|0,0:0|0:0,0:0:0:0:
456,132,73413,1,0,0:0:0:0:
444,148,73494,1,0,0:0:0:0:
428,160,73576,2,0,P|376:176|332:164,1,100,8|0,0:0|0:0,0:0:0:0:
180,20,73819,6,0,P|172:52|172:80,1,50,8|0,0:0|0:0,0:0:0:0:
263,206,73981,2,0,P|263:231|260:256,1,50,2|0,0:0|0:0,0:0:0:0:
16,232,74143,6,0,P|48:204|104:200,1,100,2|0,0:0|0:0,0:0:0:0:
180,168,74386,2,0,P|184:196|184:220,1,50,0|8,0:0|0:0,0:0:0:0:
257,369,74548,1,0,0:0:0:0:
245,350,74629,2,0,P|240:302|260:253,1,100
274,241,74873,1,0,0:0:0:0:
291,229,74954,1,0,0:0:0:0:
440,128,75116,1,0,0:0:0:0:
320,312,75278,1,0,0:0:0:0:
148,32,75440,6,0,P|120:104|159:159,1,150.000005722046,4|0,0:2|0:0,0:0:0:0:
291,229,75765,2,0,L|440:212,1,150.000005722046,4|0,0:2|0:0,0:0:0:0:
240,336,76089,6,0,P|156:376|68:312,1,150.000005722046,4|0,0:2|0:0,0:0:0:0:
40,248,76332,2,0,P|124:244|164:296,1,150.000005722046,4|0,0:2|0:0,0:0:0:0:
328,376,76576,2,0,P|368:372|400:352,1,75.0000028610231,4|0,0:2|0:0,0:0:0:0:
468,240,76738,6,0,P|420:216|356:228,1,100,4|0,0:2|0:0,0:0:0:0:
292,256,76981,1,0,0:0:0:0:
272,248,77062,2,0,P|244:204|240:152,1,100,8|0,0:0|0:0,0:0:0:0:
340,8,77386,1,0,0:0:0:0:
356,20,77467,2,0,P|364:64|340:116,1,100,8|0,0:0|0:0,0:0:0:0:
160,112,77710,6,0,P|152:132|148:160,1,50,10|0,0:0|0:0,0:0:0:0:
84,264,77873,2,0,P|81:233|72:200,1,50,4|0,0:2|0:0,0:0:0:0:
0,72,78035,6,0,P|52:68|96:40,1,100,4|0,0:2|0:0,0:0:0:0:
224,0,78278,2,0,P|224:28|232:68,1,50,0|8,0:0|0:0,0:0:0:0:
342,113,78440,2,0,P|340:152|330:181,1,50
189,338,78602,5,0,0:0:0:0:
189,338,78683,1,0,0:0:0:0:
189,338,78764,2,0,P|173:290|181:242,1,100,8|0,0:0|0:0,0:0:0:0:
237,170,79008,2,0,L|337:162,1,100,10|4,0:0|0:2,0:0:0:0:
508,360,79332,6,0,P|440:360|408:332,1,100,4|0,0:2|0:0,0:0:0:0:
332,368,79576,1,0,0:0:0:0:
332,368,79656,2,0,P|324:332|328:296,1,50,8|0,0:0|0:0,0:0:0:0:
476,260,79819,2,0,P|483:236|484:211,1,50,8|0,0:0|0:0,0:0:0:0:
392,88,79981,5,4,0:2:0:0:
348,116,80062,1,0,0:0:0:0:
336,164,80143,2,0,P|348:200|384:228,1,50
412,16,80305,2,0,P|372:16|336:36,1,50,10|0,0:0|0:0,0:0:0:0:
240,128,80467,2,0,P|208:124|184:108,1,50,8|0,0:0|0:0,0:0:0:0:
76,40,80630,5,6,0:0:0:0:
32,80,80711,1,0,0:0:0:0:
20,140,80792,1,0,0:0:0:0:
48,192,80873,1,2,0:0:0:0:
100,220,80954,2,0,P|140:216|192:188,1,75.0000028610231,8|0,0:0|0:0,0:0:0:0:
272,52,81116,2,0,P|308:48|360:72,1,75.0000028610231,6|0,0:1|0:0,0:0:0:0:
496,160,81278,5,0,0:0:0:0:
428,220,81359,2,0,P|416:256|420:304,1,75.0000028610231,2|0,0:0|0:0,0:0:0:0:
240,368,81522,1,0,0:0:0:0:
168,312,81603,2,0,P|128:308|68:308,1,75.0000028610231,10|0,0:0|0:0,0:0:0:0:
276,152,81765,2,0,P|316:148|376:148,1,75.0000028610231,10|0,0:0|0:0,0:0:0:0:
512,272,81927,5,4,0:2:0:0:
344,352,82251,1,4,0:0:0:0:
328,272,82413,1,2,0:0:0:0:
56,188,83224,6,0,P|116:200|212:160,1,160,2|4,0:0|0:2,0:0:0:0:
120,84,83711,1,0,0:0:0:0:
120,84,83873,1,4,0:2:0:0:
120,84,84197,1,4,0:2:0:0:
308,280,84522,5,4,0:0:0:0:
384,308,84684,1,0,0:0:0:0:
444,256,84846,2,0,L|440:176,1,80
292,12,85170,6,0,P|248:64|276:152,1,160,4|0,0:0|0:0,0:0:0:0:
328,88,85657,1,0,0:0:0:0:
216,280,85819,5,4,0:0:0:0:
140,256,85981,2,0,P|132:212|136:164,1,80,0|4,0:0|0:0,0:0:0:0:
8,52,86305,1,0,0:0:0:0:
60,112,86467,2,0,P|108:92|184:92,2,120,4|4|4,0:2|0:2|0:2,0:0:0:0:
134,177,87116,6,0,P|134:221|121:269,1,80,4|0,0:0|0:0,0:0:0:0:
80,384,87440,1,0,0:0:0:0:
148,340,87603,1,0,0:0:0:0:
224,368,87765,2,0,P|304:376|380:344,1,160,2|4,2:0|0:0,0:0:0:0:
332,64,88413,6,0,P|252:56|176:88,2,160,4|0|0,0:0|0:0|0:0,0:0:0:0:
336,68,89386,1,4,0:0:0:0:
496,176,89711,5,4,0:0:0:0:
248,152,90197,1,2,2:0:0:0:
248,152,90359,1,4,0:0:0:0:
320,184,90522,1,0,0:0:0:0:
256,232,90684,1,0,0:0:0:0:
184,200,90846,1,0,0:0:0:0:
64,32,91008,5,8,0:0:0:0:
104,124,91170,1,0,0:0:0:0:
28,192,91332,1,4,0:2:0:0:
0,332,91495,1,0,0:0:0:0:
16,344,91576,2,0,P|68:344|116:304,1,100,2|0,0:0|0:0,0:0:0:0:
176,260,91819,1,2,0:0:0:0:
176,260,91900,1,0,0:0:0:0:
176,260,91981,2,0,L|284:252,1,100,8|10,0:0|0:0,0:0:0:0:
488,188,92305,6,0,P|500:236|500:272,1,75
496,280,92630,5,4,0:2:0:0:
396,184,92792,2,0,P|371:188|349:199,1,50,4|0,0:0|0:0,0:0:0:0:
275,252,92954,1,0,0:0:0:0:
256,248,93035,2,0,P|240:200|252:148,1,100
188,88,93278,1,8,0:0:0:0:
144,112,93359,1,0,0:0:0:0:
96,112,93440,1,2,0:0:0:0:
52,88,93522,1,0,0:0:0:0:
32,44,93603,6,0,P|16:88|20:144,1,100,2|0,0:0|0:0,0:0:0:0:
76,212,93846,1,0,0:0:0:0:
92,200,93927,2,0,P|140:184|188:192,1,100,8|0,0:0|0:0,0:0:0:0:
296,292,94170,1,8,0:0:0:0:
264,316,94251,1,0,0:0:0:0:
224,324,94332,2,0,P|172:308|148:268,1,100,8|0,0:0|0:0,0:0:0:0:
188,112,94576,6,0,P|220:116|248:136,1,50,8|0,0:0|0:0,0:0:0:0:
336,224,94738,2,0,P|368:220|400:208,1,50,10|0,0:0|0:0,0:0:0:0:
512,48,94900,6,0,P|440:40|404:72,1,100,2|0,0:0|0:0,0:0:0:0:
332,72,95143,2,0,P|337:105|336:140,1,50,0|8,0:0|0:0,0:0:0:0:
260,284,95305,1,0,0:0:0:0:
248,268,95386,2,0,P|240:212|264:152,1,100
468,112,95711,1,0,0:0:0:0:
344,336,95873,1,8,0:0:0:0:
304,368,95954,1,0,0:0:0:0:
256,376,96035,1,2,0:0:0:0:
208,364,96116,1,0,0:0:0:0:
176,324,96197,5,4,0:0:0:0:
480,220,96359,1,4,0:2:0:0:
340,120,96522,5,0,0:0:0:0:
340,120,96603,1,0,0:0:0:0:
340,120,96684,1,4,0:0:0:0:
268,292,96846,1,4,0:2:0:0:
268,292,96927,1,0,0:0:0:0:
268,292,97008,1,4,0:0:0:0:
12,176,97170,5,4,0:2:0:0:
188,132,97332,1,4,0:2:0:0:
144,384,97494,5,4,0:0:0:0:
128,64,97657,2,0,B|176:16|272:32|240:96|272:128|320:144|384:128|400:96|408:72,1,300.000011444092,4|0,0:2|0:0,0:0:0:0:
496,256,98143,1,0,0:0:0:0:
496,256,98224,1,0,0:0:0:0:
496,256,98305,2,0,L|492:304,3,37.5000014305115
456,320,98467,1,0,0:0:0:0:
456,320,98549,1,0,0:0:0:0:
456,320,98630,2,0,L|460:376,3,37.5000014305115,2|0|0|0,0:0|0:0|0:0|0:0,0:0:0:0:
432,384,98792,5,4,0:0:0:0:
504,48,98954,2,0,B|464:12|404:-8|340:20|296:64|296:156,1,300.000011444092,4|0,0:2|0:0,0:0:0:0:
184,384,99440,2,0,B|232:356|240:284|196:236,1,150.000005722046,4|0,0:2|0:0,0:0:0:0:
0,120,99765,1,4,0:2:0:0:
152,40,99927,6,0,L|156:-24,2,37.5000014305115
152,40,100089,1,4,0:2:0:0:
376,136,100251,2,0,L|372:72,2,37.5000014305115
376,136,100413,1,4,0:2:0:0:
88,232,100576,2,0,L|92:168,2,37.5000014305115
88,232,100738,1,4,0:2:0:0:
440,328,100900,2,0,L|436:264,2,37.5000014305115
440,328,101062,1,4,0:2:0:0:
264,160,101224,2,0,P|256:200|256:240,1,75.0000028610231,4|0,0:2|0:0,0:0:0:0:
128,352,101386,5,4,0:2:0:0:
76,320,101467,1,0,0:0:0:0:
56,264,101549,1,0,0:0:0:0:
68,204,101630,1,0,0:0:0:0:
112,164,101711,1,4,0:2:0:0:
172,152,101792,1,0,0:0:0:0:
224,184,101873,1,0,0:2:0:0:
248,240,101954,1,0,0:0:0:0:
304,264,102035,1,4,0:2:0:0:
364,256,102116,1,2,0:0:0:0:
400,208,102197,6,0,L|407:148,3,50.0000019073487,0|0|0|14,0:0|0:0|0:0|0:0,0:0:0:0:
404,132,102440,1,0,0:0:0:0:
392,104,102522,2,0,L|384:56,2,37.5000014305115,10|0|0,0:0|0:0|0:0,0:0:0:0:
393,52,102684,1,4,0:0:0:0:
