osu file format v14

[General]
AudioFilename: audio.mp3
AudioLeadIn: 0
PreviewTime: 98495
Countdown: 0
SampleSet: Soft
StackLeniency: 0.5
Mode: 0
LetterboxInBreaks: 1
WidescreenStoryboard: 1

[Editor]
Bookmarks: 78305,99062
DistanceSpacing: 0.1
BeatDivisor: 4
GridSize: 16
TimelineZoom: 4.799998

[Metadata]
Title:Elisha
TitleUnicode:Elisha
Artist:DJ YOSHITAKA
ArtistUnicode:DJ YOSHITAKA
Creator:herestotheroc
Version:xytoper's Insane
Source:beatmania IIDX 17 SIRIUS
Tags:konami bemani beatmania sirius trance core electronic instrumental nooj xytoper kyrian monsieursebas
BeatmapID:3949094
BeatmapSetID:1907729

[Difficulty]
HPDrainRate:4
CircleSize:5
OverallDifficulty:8
ApproachRate:8.5
SliderMultiplier:1.8
SliderTickRate:0.5

[Events]
//Background and Video events
0,0,"bg.jpg",0,0
//Break Periods
2,21425,29631
//Storyboard Layer 0 (Background)
//Storyboard Layer 1 (Fail)
//Storyboard Layer 2 (Pass)
//Storyboard Layer 3 (Foreground)
//Storyboard Layer 4 (Overlay)
//Storyboard Sound Samples

[TimingPoints]
468,324.324324324324,4,2,0,75,1,0
468,-100,4,2,0,75,0,0
1116,-111.111111111111,4,2,0,75,0,0
10846,-99.9999999999999,4,2,0,75,0,0
30305,-370.37037037037,4,2,0,75,0,0
39386,-588.235294117647,4,2,0,75,0,0
41332,-1000,4,2,0,75,0,0
41981,-142.857142857143,4,2,0,75,0,0
67927,-166.666666666667,4,2,0,75,0,0
68576,-142.857142857143,4,2,0,75,0,0
69873,-125,4,2,0,75,0,0
70522,-111.111111111111,4,2,0,75,0,0
70846,-166.666666666666,4,2,0,75,0,0
78305,-111.111111111111,4,2,0,75,0,0
99062,-125,4,2,0,75,0,0
101008,-111.111111111111,4,2,0,75,0,0

[Colours]
Combo1 : 255,191,255
Combo2 : 211,255,168
Combo3 : 226,241,254

[HitObjects]
171,127,467,6,0,B|123:139|123:139|73:273,1,180,4|0,3:0|0:0,0:0:0:0:
171,127,955,1,0,0:0:0:0:
101,192,1117,2,0,B|142:212|154:254|154:254|152:295|109:332,1,161.999995056153,4|4,3:0|3:0,3:0:0:0:
172,228,1604,2,0,L|251:212,1,80.9999975280763,2|4,3:0|3:0,3:0:0:0:
355,281,1928,5,2,3:0:0:0:
251,211,2089,2,0,B|309:222|309:222|323:194|362:185,1,121.499996292114,4|0,3:0|0:0,3:0:0:0:
357,186,2414,2,0,B|370:224|370:224|350:272,1,80.9999975280763,4|0,0:0|0:0,0:0:0:0:
464,384,2739,2,0,B|447:345|447:345|460:308,1,80.9999975280763,4|0,0:0|0:0,0:0:0:0:
442,209,3063,6,0,P|425:113|366:67,1,161.999995056153,4|4,3:0|3:0,0:0:0:0:
442,209,3550,1,0,0:0:0:0:
503,111,3712,2,0,B|423:97|423:97|375:107|366:148,1,161.999995056153,4|4,3:0|3:0,0:0:0:0:
379,72,4198,1,2,0:0:0:0:
315,196,4360,5,4,3:0:0:0:
343,264,4523,1,2,0:0:0:0:
331,211,4685,6,0,L|324:247,2,20.2499993820191,8|2|2,3:0|3:0|3:0,3:0:0:0:
295,241,4847,2,0,L|288:277,2,20.2499993820191,2|2|2,3:0|3:0|3:0,0:0:0:0:
240,191,5009,6,2,L|160:206,1,80.9999975280763,0|0,0:0|0:0,3:0:0:0:
3,267,5333,2,0,B|59:295|59:295|129:264,1,121.499996292114,4|0,0:0|0:0,0:0:0:0:
112,271,5658,6,0,L|146:93,1,161.999995056153,4|4,3:0|3:0,0:0:0:0:
112,271,6144,1,0,0:0:0:0:
114,149,6306,2,0,B|92:70|92:70|134:-6,1,161.999995056153,4|4,3:0|3:0,0:0:0:0:
142,111,6793,2,0,L|62:126,1,80.9999975280763,2|4,0:0|3:0,0:0:0:0:
188,51,7117,5,0,0:0:0:0:
235,107,7279,2,0,B|274:125|309:91|309:91|316:138|363:155,1,161.999995056153,4|0,3:0|3:0,0:0:0:0:
355,152,7684,1,0,3:0:0:0:
361,159,7766,2,0,L|407:148,1,40.4999987640381,0|0,3:0|3:0,0:0:0:0:
502,81,7928,2,0,B|464:93|464:93|407:69,1,80.9999975280763,4|4,3:0|3:0,0:0:0:0:
310,91,8252,5,4,3:0:0:0:
361,159,8414,2,0,L|398:322,1,161.999995056153,2|0,0:1|0:0,0:0:0:0:
347,176,8901,2,0,B|368:260|368:260|405:263|423:306,1,161.999995056153,4|4,3:0|3:0,0:0:0:0:
333,368,9387,1,4,3:0:0:0:
422,305,9550,6,0,B|392:335|392:335|340:329,1,80.9999975280763,4|2,3:0|0:0,0:0:0:0:
236,215,9874,2,0,P|161:187|87:214,1,161.999995056153,2|0,0:0|3:0,0:0:0:0:
82,226,10279,1,0,3:0:0:0:
77,236,10360,2,0,L|87:281,1,40.4999987640381,2|0,0:0|0:0,0:0:0:0:
17,303,10523,1,4,3:0:0:0:
21,330,10604,1,0,0:0:0:0:
25,357,10685,1,8,3:0:0:0:
161,274,10847,6,0,P|165:229|144:185,1,90,4|2,3:0|0:0,0:0:0:0:
158,48,11171,2,0,B|103:27|103:27|70:87|-1:70,1,180,4|4,3:0|3:0,0:0:0:0:
158,48,11658,2,0,B|121:74|121:74|78:59,1,90,2|4,0:0|3:0,0:0:0:0:
250,0,11982,6,0,P|236:87|272:168,1,180,2|0,0:0|0:0,0:0:0:0:
318,41,12468,2,0,L|408:51,1,90,4|2,3:0|0:0,0:0:0:0:
318,109,12793,2,0,B|367:114|367:114|364:154,1,90,4|0,0:0|0:0,0:0:0:0:
482,193,13117,2,0,B|433:188|433:188|435:147,1,90,4|0,0:0|0:0,0:0:0:0:
369,227,13441,5,4,3:0:0:0:
324,284,13604,2,0,L|141:250,1,180,2|0,0:0|0:0,0:0:0:0:
267,214,14090,2,0,B|299:299|299:299|256:377,1,180,4|4,3:0|3:0,0:0:0:0:
197,335,14577,1,2,0:0:0:0:
57,384,14739,6,0,B|35:344|35:344|51:302,1,90,4|4,3:0|3:0,0:0:0:0:
173,175,15063,2,0,P|84:176|13:229,1,180,4|0,0:0|1:0,0:0:0:0:
88,206,15550,2,0,L|100:250,1,45,0|0,1:0|0:0,0:0:0:0:
173,175,15712,2,0,B|123:156|122:108|122:108|90:146|13:123,1,180,4|4,0:0|3:0,0:0:0:0:
144,45,16198,5,2,0:0:0:0:
198,93,16360,2,0,P|195:144|172:175,1,90,4|0,3:0|0:0,0:0:0:0:
31,45,16685,2,0,L|236:-3,1,180,4|4,3:0|3:0,0:0:0:0:
341,92,17171,1,4,3:0:0:0:
277,54,17333,6,0,P|267:97|280:140,1,90,4|0,3:0|0:0,0:0:0:0:
487,198,17658,2,0,B|432:233|432:233|302:199,1,180,4|4,3:0|3:0,0:0:0:0:
487,198,18144,1,4,3:0:0:0:
385,256,18306,1,4,3:0:0:0:
300,175,18468,1,4,3:0:0:0:
326,299,18631,6,0,P|310:341|319:388,1,90,4|0,0:0|3:0,0:0:0:0:
201,345,18955,2,0,L|147:356,1,45,4|0,3:0|0:0,0:0:0:0:
109,262,19117,2,0,P|152:254|194:270,1,90,4|2,3:0|0:0,0:0:0:0:
282,96,19441,2,0,P|245:120|224:160,1,90,4|0,3:0|0:0,0:0:0:0:
263,279,19766,1,4,3:0:0:0:
300,175,19928,6,0,L|414:197,1,90,4|0,3:0|3:0,0:0:0:0:
396,188,20171,1,0,3:0:0:0:
403,183,20252,2,0,B|422:139|422:139|405:85,1,90,4|0,3:0|3:0,0:0:0:0:
224,160,20577,2,0,L|231:193,2,22.5,4|0|0,3:0|3:0|3:0,3:0:0:0:
151,126,20739,2,0,L|146:103,2,22.5,0|0|0,3:0|3:0|3:0,0:0:0:0:
224,160,20901,2,0,B|168:198|168:198|89:189,1,135,4|0,3:0|0:0,0:0:0:0:
53,136,21225,5,4,0:0:0:0:
362,220,30306,6,0,B|343:310|497:348|497:348|418:306|396:148|454:94|455:94|455:94|453:251|353:337|214:232|214:232|278:225|298:175,1,972.000023730469,0|4,0:0|0:0,0:0:0:0:
220,29,39387,6,0,B|198:91|231:118|240:102|267:133|256:184,1,168.300001027222,4|0,0:0|0:0,0:0:0:0:
256,182,41333,6,0,L|251:208,1,27
291,279,41982,6,0,L|352:263,1,62.9999980773926,2|2,0:0|3:0,0:0:0:0:
398,327,42306,1,2,3:0:0:0:
415,169,42631,2,0,P|438:217|435:268,2,94.499997116089,2|2|2,3:0|3:0|3:0,0:0:0:0:
372,309,43441,5,2,3:0:0:0:
415,169,43604,2,0,L|431:243,1,62.9999980773926,2|2,3:0|0:0,0:0:0:0:
346,210,43928,2,0,P|317:223|286:223,1,62.9999980773926,2|0,3:0|0:0,0:0:0:0:
269,215,44171,2,0,L|255:153,1,62.9999980773926,2|0,3:0|0:0,0:0:0:0:
291,93,44414,1,2,3:0:0:0:
171,12,44739,5,2,3:0:0:0:
171,12,44901,2,0,P|172:56|151:87,1,62.9999980773926,2|0,3:0|0:0,0:0:0:0:
31,114,45225,2,0,B|74:137|74:137|118:126,2,94.499997116089,2|2|2,3:0|3:0|3:0,0:0:0:0:
4,255,46036,5,2,3:0:0:0:
87,217,46198,2,0,L|73:279,1,62.9999980773926,2|0,3:0|0:0,0:0:0:0:
142,354,46523,2,0,P|143:322|160:292,1,62.9999980773926,2|0,3:0|0:0,0:0:0:0:
185,278,46766,1,2,3:0:0:0:
185,278,46847,1,0,3:0:0:0:
256,329,47009,2,0,L|318:315,1,62.9999980773926,2|0,3:0|0:0,0:0:0:0:
403,384,47333,5,2,3:0:0:0:
403,384,47496,1,2,3:0:0:0:
402,251,47820,2,0,L|340:237,1,62.9999980773926,2|0,3:0|0:0,0:0:0:0:
326,231,48063,2,0,B|316:200|316:200|328:168,1,62.9999980773926,2|0,3:0|0:0,0:0:0:0:
390,136,48306,2,0,L|402:61,1,62.9999980773926,2|2,3:0|0:0,0:0:0:0:
274,115,48631,5,2,3:0:0:0:
203,127,48793,2,0,L|194:190,1,62.9999980773926,2|2,3:0|0:0,0:0:0:0:
341,234,49117,2,0,B|297:218|297:218|252:234,2,94.499997116089,2|2|2,3:0|3:0|3:0,0:0:0:0:
234,326,49928,5,2,3:0:0:0:
279,384,50090,2,0,L|362:372,1,62.9999980773926,2|2,3:0|0:0,0:0:0:0:
457,302,50414,2,0,L|394:311,1,62.9999980773926,2|0,3:0|0:0,0:0:0:0:
342,269,50658,1,2,3:0:0:0:
342,269,50739,1,2,3:0:0:0:
406,203,50901,6,0,P|416:171|407:142,1,62.9999980773926,2|2,0:0|0:0,0:0:0:0:
286,114,51225,1,2,3:0:0:0:
335,59,51387,2,0,L|416:75,1,62.9999980773926,2|4,3:3|3:0,0:0:0:0:
326,180,51712,2,0,B|295:195|295:195|220:172,2,94.499997116089,2|2|4,3:0|1:3|3:0,0:0:0:0:
453,264,52523,5,2,3:0:0:0:
453,264,52685,2,0,L|372:280,1,62.9999980773926,2|2,3:0|0:0,0:0:0:0:
327,343,53009,2,0,B|294:350|294:350|254:332,1,62.9999980773926,2|0,3:0|0:0,0:0:0:0:
253,325,53252,2,0,L|269:244,1,62.9999980773926,2|0,0:0|0:0,0:0:0:0:
252,249,53496,1,2,0:0:0:0:
169,165,53820,5,2,3:0:0:0:
169,165,53982,2,0,L|107:177,1,62.9999980773926,2|2,3:0|0:0,0:0:0:0:
10,104,54306,2,0,B|48:86|48:86|98:100,2,94.499997116089,2|2|2,3:0|3:0|3:0,0:0:0:0:
107,177,54955,6,0,P|92:204|90:236,1,62.9999980773926,2|2,0:0|3:0,0:0:0:0:
44,291,55279,1,2,3:0:0:0:
156,378,55604,2,0,L|168:316,1,62.9999980773926,2|0,3:0|0:0,0:0:0:0:
175,288,55847,2,0,P|202:302|234:304,1,62.9999980773926,2|0,3:0|0:0,0:0:0:0:
258,289,56090,1,2,3:0:0:0:
299,222,56252,6,0,L|286:160,1,62.9999980773926,2|2,0:0|3:0,0:0:0:0:
333,102,56577,1,2,3:0:0:0:
425,191,56901,2,0,B|460:209|460:209|512:193,2,94.499997116089,2|2|2,3:0|3:0|3:0,0:0:0:0:
329,283,57712,5,2,3:0:0:0:
258,289,57874,2,0,L|245:350,1,62.9999980773926,2|0,3:0|0:0,0:0:0:0:
160,363,58198,2,0,P|175:318|167:272,1,94.499997116089,2|2,3:0|3:0,0:0:0:0:
167,272,58523,1,2,0:0:0:0:
224,219,58685,1,2,3:0:0:0:
104,165,59009,5,2,3:0:0:0:
104,165,59171,2,0,P|93:212|106:244,1,62.9999980773926,2|0,3:0|0:0,0:0:0:0:
203,151,59496,2,0,P|167:120|149:77,2,94.499997116089,2|2|2,3:0|3:0|3:0,0:0:0:0:
282,48,60143,2,0,L|267:109,1,62.9999980773926,2|2,0:0|3:0,0:0:0:0:
289,178,60467,1,2,3:0:0:0:
165,154,60793,6,0,P|135:164|103:164,1,62.9999980773926,2|0,3:0|0:0,0:0:0:0:
83,145,61036,2,0,L|69:77,1,62.9999980773926,2|0,3:0|0:0,0:0:0:0:
6,43,61279,1,2,3:0:0:0:
70,0,61441,5,2,0:0:0:0:
149,80,61604,1,2,3:0:0:0:
149,80,61766,2,0,P|156:44|149:8,1,62.9999980773926,2|2,3:0|0:0,0:0:0:0:
135,167,62090,6,0,B|164:159|195:174|195:174|200:139|223:117,1,125.999996154785,2|0,3:0|0:0,0:0:0:0:
268,208,62577,1,2,3:0:0:0:
285,79,62739,2,0,P|299:127|288:154,1,62.9999980773926,4|2,0:0|3:0,0:0:0:0:
336,247,63063,1,2,3:0:0:0:
428,147,63387,2,0,B|444:177|444:177|528:196,2,94.499997116089,2|2|2,3:0|3:0|3:0,0:0:0:0:
397,293,64198,5,2,3:0:0:0:
397,293,64360,2,0,L|318:278,1,62.9999980773926,2|0,3:0|0:0,0:0:0:0:
287,381,64685,2,0,P|264:340|262:293,2,94.499997116089,2|2|2,3:0|3:0|3:0,0:0:0:0:
321,241,65496,5,2,3:0:0:0:
321,241,65658,2,0,L|336:162,1,62.9999980773926,2|0,3:0|0:0,0:0:0:0:
252,39,65982,2,0,P|253:82|240:103,1,62.9999980773926,2|0,3:0|0:0,0:0:0:0:
264,113,66225,2,0,L|340:97,1,62.9999980773926,2|0,3:0|0:0,0:0:0:0:
344,78,66468,1,2,3:0:0:0:
497,192,66793,5,2,3:0:0:0:
497,192,66955,2,0,L|426:208,1,62.9999980773926,2|0,3:0|0:0,0:0:0:0:
362,279,67279,2,0,B|374:315|374:315|345:385,2,94.499997116089,2|2|2,3:0|3:0|3:0,0:0:0:0:
209,311,67928,6,0,L|106:329,2,80.9999975280763,0|0|0,3:0|3:0|3:0,0:0:0:0:
313,224,68577,2,0,L|406:207,2,94.499997116089,0|0|0,3:0|3:0|3:0,0:0:0:0:
197,156,69225,2,0,P|183:104|191:75,1,62.9999980773926,0|0,3:0|3:0,0:0:0:0:
312,42,69550,2,0,P|311:73|299:102,1,62.9999980773926,0|0,3:0|3:0,3:0:0:0:
191,227,69874,2,0,P|156:220|129:196,1,72,0|0,3:0|3:0,0:0:0:0:
264,73,70198,2,0,P|280:104|277:140,1,72,4|4,3:0|3:0,0:0:0:0:
274,221,70523,5,8,3:0:0:0:
262,249,70604,1,8,3:0:0:0:
260,279,70685,1,8,3:0:0:0:
267,308,70766,1,8,3:0:0:0:
282,334,70847,2,0,L|318:344,3,26.9999991760254,8|8|8|8,3:0|3:0|3:0|3:0,0:0:0:0:
334,274,71171,5,8,3:0:0:0:
362,262,71252,1,8,3:0:0:0:
392,260,71333,1,8,3:0:0:0:
421,267,71414,1,8,3:0:0:0:
447,282,71495,2,0,L|457:318,3,26.9999991760254,8|8|8|8,3:0|3:0|3:0|3:0,0:0:0:0:
477,213,71820,5,8,3:0:0:0:
489,185,71901,1,8,3:0:0:0:
491,155,71982,1,8,3:0:0:0:
484,126,72063,1,8,3:0:0:0:
469,100,72144,2,0,L|414:83,1,53.9999983520508,8|8,3:0|3:0,0:0:0:0:
348,140,72468,1,8,3:0:0:0:
250,87,72631,5,8,3:0:0:0:
262,115,72712,1,8,3:0:0:0:
264,145,72793,1,8,3:0:0:0:
257,174,72874,1,8,3:0:0:0:
242,200,72955,2,0,L|206:210,1,26.9999991760254,8|8,3:0|3:0,0:0:0:0:
152,168,73117,5,4,1:2:0:0:
256,192,73198,12,0,77658,1:0:0:0:
317,165,78306,6,0,B|343:110|343:110|320:43,1,121.499996292114,4|0,0:0|0:0,0:0:0:0:
323,52,78631,1,4,3:0:0:0:
260,110,78793,2,0,L|220:101,1,40.4999987640381,2|0,3:0|0:0,0:0:0:0:
317,165,78955,2,0,L|396:182,1,80.9999975280763,0|0,1:0|0:0,0:0:0:0:
242,184,79279,2,0,L|163:167,1,80.9999975280763,0|0,3:0|0:0,0:0:0:0:
43,210,79604,5,0,1:0:0:0:
116,231,79766,1,0,0:0:0:0:
63,282,79928,1,0,1:0:0:0:
124,384,80090,2,0,L|141:305,1,80.9999975280763,2|4,3:0|3:0,0:0:0:0:
177,192,80496,1,0,3:0:0:0:
177,192,80577,1,0,3:0:0:0:
213,316,80739,1,2,3:0:0:0:
250,221,80901,6,0,P|253:171|232:130,1,80.9999975280763,0|2,1:0|3:0,0:0:0:0:
312,34,81224,2,0,P|309:84|330:125,1,80.9999975280763,0|0,1:0|0:0,0:0:0:0:
437,110,81549,6,0,P|450:54|418:0,1,121.499996292114,0|0,3:0|0:0,0:0:0:0:
419,1,81873,2,0,B|497:21,1,80.9999975280763,0|0,1:0|0:0,0:0:0:0:
460,178,82197,1,0,1:0:0:0:
437,110,82359,1,0,0:0:0:0:
506,124,82522,1,0,1:0:0:0:
402,225,82684,6,0,L|432:327,1,80.9999975280763,2|0,3:3|1:0,0:0:0:0:
359,355,83008,2,0,L|333:278,1,80.9999975280763,2|0,3:0|0:0,0:0:0:0:
276,223,83332,1,2,3:0:0:0:
199,245,83495,5,4,0:0:0:0:
156,182,83657,2,0,B|170:121|170:121|134:74,1,121.499996292114,2|0,0:0|0:0,0:0:0:0:
134,74,83981,1,2,1:0:0:0:
0,194,84143,6,0,L|87:176,1,80.9999975280763,0|0,1:0|0:0,0:0:0:0:
79,177,84386,1,0,3:0:0:0:
79,177,84467,2,0,B|57:144|57:144|64:103,1,80.9999975280763,0|2,3:0|0:3,0:0:0:0:
216,63,84792,6,0,L|375:96,1,161.999995056153,0|0,1:0|1:0,0:0:0:0:
446,47,85278,1,2,3:0:0:0:
495,114,85440,1,4,3:0:0:0:
426,167,85603,1,0,3:0:0:0:
426,167,85684,1,0,3:0:0:0:
426,167,85765,1,0,3:0:0:0:
475,246,85927,6,0,L|462:326,1,80.9999975280763,4|0,0:0|0:0,0:0:0:0:
304,377,86251,2,0,L|323:284,1,80.9999975280763,4|0,0:0|0:0,0:0:0:0:
499,266,86576,5,2,0:0:0:0:
499,266,86738,2,0,P|466:300|430:306,1,80.9999975280763,0|0,1:0|0:0,0:0:0:0:
434,306,86981,1,0,1:0:0:0:
434,306,87062,1,0,1:0:0:0:
255,263,87386,6,0,P|288:229|324:223,1,80.9999975280763,4|0,3:0|0:0,0:0:0:0:
351,289,87711,1,0,1:0:0:0:
217,327,87873,6,0,P|188:298|184:244,1,80.9999975280763,2|0,3:0|1:0,0:0:0:0:
356,158,88197,2,0,P|385:187|389:241,1,80.9999975280763,0|0,1:0|1:0,0:0:0:0:
255,261,88522,5,0,1:0:0:0:
276,149,88684,1,0,1:0:0:0:
383,92,88846,2,0,L|490:71,1,80.9999975280763,4|4,3:0|3:0,3:0:0:0:
352,25,89170,5,2,3:0:0:0:
239,81,89332,2,0,L|129:56,1,80.9999975280763,0|0,3:0|3:0,0:0:0:0:
160,63,89576,1,0,3:0:0:0:
160,63,89657,1,0,3:0:0:0:
112,9,89819,1,0,3:0:0:0:
84,73,89981,2,0,P|58:109|62:160,1,80.9999975280763,0|2,1:0|3:0,0:0:0:0:
171,272,90305,1,0,3:0:0:0:
171,272,90467,2,0,P|197:236|193:185,1,80.9999975280763,0|0,3:0|1:0,0:0:0:0:
127,174,90792,1,0,3:0:0:0:
127,174,90873,1,0,3:0:0:0:
127,174,90954,1,0,3:0:0:0:
23,279,91116,5,2,0:1:0:0:
80,331,91278,1,4,0:0:0:0:
93,256,91440,1,2,3:0:0:0:
193,344,91603,6,0,L|280:362,1,80.9999975280763,4|2,3:0|0:1,0:0:0:0:
356,266,91927,2,0,L|269:248,1,80.9999975280763,0|0,1:0|0:0,0:0:0:0:
276,249,92170,1,0,3:0:0:0:
276,249,92251,2,0,L|240:104,1,121.499996292114,0|0,1:0|0:0,0:0:0:0:
246,131,92576,6,0,L|159:113,1,80.9999975280763,0|0,1:0|0:0,0:0:0:0:
135,1,92900,5,0,1:0:0:0:
91,68,93062,1,2,3:0:0:0:
167,115,93224,1,4,3:0:0:0:
116,174,93386,2,0,L|130:253,1,80.9999975280763,2|0,3:0|0:0,0:0:0:0:
14,378,93711,2,0,L|0:299,1,80.9999975280763,2|0,3:0|1:0,0:0:0:0:
130,253,94035,5,2,3:0:0:0:
83,309,94197,1,0,1:0:0:0:
55,243,94359,1,2,3:0:0:0:
199,207,94522,6,0,L|279:228,1,80.9999975280763,0|0,1:0|0:0,0:0:0:0:
277,227,94765,1,0,3:0:0:0:
277,227,94846,1,0,3:0:0:0:
420,31,95170,6,0,L|343:4,1,80.9999975280763,0|0,1:0|0:0,0:0:0:0:
258,51,95495,1,0,1:0:0:0:
258,51,95657,2,0,L|277:132,1,80.9999975280763,2|0,3:0|1:0,0:0:0:0:
370,192,95981,2,0,L|351:111,1,80.9999975280763,0|0,3:0|1:0,0:0:0:0:
214,177,96305,2,0,L|233:258,1,80.9999975280763,2|0,0:1|1:0,0:0:0:0:
335,362,96630,6,0,L|296:204,1,161.999995056153,0|2,1:0|3:0,0:0:0:0:
214,177,97116,1,0,1:0:0:0:
157,235,97278,1,0,1:0:0:0:
85,202,97440,1,0,1:0:0:0:
33,259,97603,1,0,1:0:0:0:
72,127,97765,6,0,B|61:42|61:42|141:29,1,161.999995056153,0|0,3:0|3:0,0:0:0:0:
314,162,98413,6,0,B|325:247|325:247|245:260,1,161.999995056153,0|4,3:0|3:0,0:0:0:0:
67,121,99062,6,0,P|118:107|142:93,1,72,4|4,3:0|0:0,0:0:0:0:
27,218,99386,2,0,P|60:201|97:194,1,72,4|0,3:0|1:0,0:0:0:0:
134,98,99711,2,0,P|167:81|204:74,1,72,0|0,1:0|0:0,0:0:0:0:
208,79,99954,1,2,3:0:0:0:
208,79,100035,2,0,P|191:45|184:8,1,72,0|0,1:0|0:0,0:0:0:0:
286,167,100359,6,0,P|302:200|309:237,1,72,0|0,1:0|0:0,0:0:0:0:
315,241,100603,1,2,3:0:0:0:
315,241,100684,2,0,P|348:257|385:264,1,72,0|0,1:0|0:0,0:0:0:0:
316,325,101008,2,0,P|258:305|198:309,1,121.499996292114,0|0,1:0|0:0,0:0:0:0:
199,309,101332,2,0,P|207:269|225:233,1,80.9999975280763,0|0,1:0|0:0,0:0:0:0:
234,88,101657,6,0,P|250:124|259:164,1,80.9999975280763,0|0,1:0|0:0,0:0:0:0:
221,228,101900,1,2,3:0:0:0:
223,233,101981,2,0,P|205:269|199:309,1,80.9999975280763,0|0,1:0|0:0,0:0:0:0:
384,208,102305,2,0,P|347:225|308:233,1,80.9999975280763,0|0,1:0|0:0,0:0:0:0:
307,233,102549,1,2,3:0:0:0:
307,233,102630,1,0,1:0:0:0:
259,164,102792,1,0,0:0:0:0:
114,183,102954,6,0,P|151:200|190:208,1,80.9999975280763,0|0,1:0|0:0,0:0:0:0:
196,214,103197,1,2,0:0:0:0:
196,214,103278,2,0,P|213:177|221:138,1,80.9999975280763,0|0,1:0|0:0,0:0:0:0:
227,143,103522,1,2,3:0:0:0:
227,143,103603,2,0,P|190:126|151:118,1,80.9999975280763,0|0,1:0|0:0,0:0:0:0:
150,117,103846,1,2,3:0:0:0:
150,117,103927,1,0,1:0:0:0:
251,64,104089,1,2,0:0:0:0:
342,203,104251,6,0,B|377:227|377:227|470:211,2,121.499996292114,4|0|2,0:0|1:0|1:0,0:0:0:0:
307,280,104900,2,0,P|249:308|232:330,1,80.9999975280763,0|0,1:0|0:0,0:0:0:0:
200,384,105143,1,2,0:0:0:0:
200,384,105224,1,8,3:0:0:0:
239,320,105386,1,8,3:0:0:0:
342,203,105549,6,0,B|377:227|377:227|470:211,2,121.499996292114,4|0|2,0:0|1:0|3:0,0:0:0:0:
307,280,106198,2,0,P|249:308|232:330,1,80.9999975280763,4|4,3:0|3:0,0:0:0:0:
200,384,106441,1,2,0:0:0:0:
200,384,106522,1,0,1:0:0:0:
238,319,106684,1,0,1:0:0:0:
141,262,106846,5,0,1:0:0:0:
190,153,107008,1,2,0:0:0:0:
79,99,107170,2,0,L|27:116,1,40.4999987640381,0|0,1:0|0:0,0:0:0:0:
114,167,107332,2,0,L|52:229,1,80.9999975280763,4|0,0:0|0:0,0:0:0:0:
190,153,107657,2,0,L|178:195,1,40.4999987640381,4|0,0:0|0:0,0:0:0:0:
259,40,107981,6,0,L|260:-26,2,40.4999987640381,4|0|4,0:0|0:0|0:0,0:0:0:0:
184,85,108305,2,0,B|259:48|259:48|340:94,1,161.999995056153,0|8,1:0|3:0,0:0:0:0:
423,49,108792,2,0,L|456:56,6,20.2499993820191,0|2|2|2|2|2|2,1:0|3:0|3:0|3:0|3:0|3:0|3:0,3:0:0:0:
369,4,109116,5,2,0:0:0:0:
257,66,109278,1,2,0:0:0:0:
136,6,109440,1,4,0:0:0:0:
256,192,109522,12,0,114630,0:0:0:0:
