osu file format v14

[General]
AudioFilename: audio.mp3
AudioLeadIn: 0
PreviewTime: 98495
Countdown: 0
SampleSet: Soft
StackLeniency: 0.6
Mode: 0
LetterboxInBreaks: 1
WidescreenStoryboard: 1

[Editor]
Bookmarks: 3714,14093,24471,45228,65985,71174,81552,102309,112687
DistanceSpacing: 1
BeatDivisor: 4
GridSize: 16
TimelineZoom: 2.799999

[Metadata]
Title:Elisha
TitleUnicode:Elisha
Artist:DJ YOSHITAKA
ArtistUnicode:DJ YOSHITAKA
Creator:herestotheroc
Version:nooj's Normal
Source:beatmania IIDX 17 SIRIUS
Tags:konami bemani beatmania sirius trance core electronic instrumental nooj xytoper kyrian monsieursebas
BeatmapID:3936891
BeatmapSetID:1907729

[Difficulty]
HPDrainRate:3
CircleSize:3
OverallDifficulty:4
ApproachRate:6
SliderMultiplier:0.999999999999999
SliderTickRate:0.5

[Events]
//Background and Video events
0,0,"bg.jpg",0,0
//Break Periods
2,21425,35743
2,73317,77256
//Storyboard Layer 0 (Background)
//Storyboard Layer 1 (Fail)
//Storyboard Layer 2 (Pass)
//Storyboard Layer 3 (Foreground)
//Storyboard Layer 4 (Overlay)
//Storyboard Sound Samples

[TimingPoints]
468,324.324324324324,4,2,0,50,1,0
45228,-100,4,2,0,30,0,0
71174,-100,4,2,0,70,0,0
123066,-100,4,2,0,40,0,0

[Colours]
Combo1 : 255,191,255
Combo2 : 211,255,168
Combo3 : 226,241,254

[HitObjects]
26,297,468,5,4,3:0:0:0:
26,297,631,2,0,L|14:187,1,99.9999999999999,2|0,3:0|0:0,3:0:0:0:
51,162,1117,1,4,3:0:0:0:
13,16,1604,2,0,L|125:29,1,99.9999999999999,2|2,3:0|3:0,3:0:0:0:
161,34,2090,1,4,3:0:0:0:
219,114,2414,2,0,B|262:142|262:142|317:117,1,99.9999999999999,4|4,0:0|0:0,0:0:0:0:
380,54,3063,5,4,3:0:0:0:
380,54,3224,2,0,L|491:67,1,99.9999999999999,2|0,0:0|0:0,0:0:0:0:
507,107,3712,1,4,3:0:0:0:
416,226,4197,2,0,L|406:275,1,50,2|4,0:0|3:0,0:0:0:0:
443,317,4523,1,2,0:0:0:0:
443,317,4685,2,0,B|375:350|375:350|364:373,1,99.9999999999999,8|0,3:0|0:0,3:0:0:0:
275,327,5333,5,4,0:0:0:0:
188,277,5658,1,4,3:0:0:0:
188,277,5820,2,0,L|207:169,1,99.9999999999999,2|0,0:0|0:0,0:0:0:0:
179,135,6306,1,4,3:0:0:0:
46,206,6793,2,0,L|67:324,1,99.9999999999999,2|0,0:0|0:0,0:0:0:0:
75,352,7279,1,4,3:0:0:0:
173,368,7604,2,0,B|189:375|189:375|249:354|249:354|255:333|255:333,1,99.9999999999999,0|4,3:0|3:0,0:0:0:0:
320,250,8252,5,4,3:0:0:0:
320,250,8414,2,0,L|434:273,1,99.9999999999999,2|0,0:1|0:0,0:0:0:0:
452,239,8901,1,4,3:0:0:0:
494,128,9225,1,4,3:0:0:0:
494,128,9387,1,4,3:0:0:0:
494,128,9550,2,0,L|382:151,1,99.9999999999999,4|2,3:0|0:0,0:0:0:0:
296,159,10198,2,0,L|274:113,1,50,0|2,3:0|0:0,0:0:0:0:
228,88,10523,2,0,L|239:30,1,50,4|8,3:0|3:0,0:0:0:0:
209,1,10847,6,0,P|154:3|118:51,1,99.9999999999999,4|4,3:0|3:0,0:0:0:0:
136,132,11496,2,0,P|124:192|156:227,1,99.9999999999999,4|4,3:0|3:0,0:0:0:0:
198,232,11982,1,0,0:0:0:0:
198,232,12144,6,0,P|235:264|246:317,1,99.9999999999999,4|4,3:0|3:0,0:0:0:0:
161,364,12792,1,4,0:0:0:0:
62,350,13116,1,4,0:0:0:0:
24,252,13441,6,0,P|-4:226|3:163,1,99.9999999999999,4|4,3:0|3:0,0:0:0:0:
41,77,14090,2,0,P|76:52|140:73,1,99.9999999999999,4|4,3:0|3:0,0:0:0:0:
205,130,14739,6,0,P|226:160|250:166,1,50,4|4,3:0|3:0,0:0:0:0:
286,157,15063,1,0,0:0:0:0:
339,66,15387,2,0,L|401:48,1,50,4|4,0:0|0:0,0:0:0:0:
435,40,15712,1,0,0:0:0:0:
499,116,16036,6,0,P|490:163|441:196,1,99.9999999999999,4|4,3:0|3:0,0:0:0:0:
371,254,16685,2,0,P|316:247|282:199,1,99.9999999999999,4|4,3:0|3:0,0:0:0:0:
275,172,17171,1,0,0:0:0:0:
275,172,17333,6,0,P|228:184|199:235,1,99.9999999999999,4|4,3:0|3:0,0:0:0:0:
113,275,17982,2,0,P|123:329|174:359,1,99.9999999999999,4|4,3:0|3:0,0:0:0:0:
207,340,18468,5,4,3:0:0:0:
207,340,18631,1,4,0:0:0:0:
306,372,18955,1,4,3:0:0:0:
306,372,19117,2,0,L|406:347,1,99.9999999999999,4|4,3:0|3:0,0:0:0:0:
462,268,19766,5,4,3:0:0:0:
462,268,19928,1,4,3:0:0:0:
416,178,20252,1,4,3:0:0:0:
466,91,20577,2,0,B|476:85|476:85|494:37,2,50,4|0|4,3:0|3:0|3:0,3:0:0:0:
409,8,21225,5,0,0:0:0:0:
256,192,36793,12,0,41333,0:0:0:0:
111,384,41982,6,0,P|132:332|127:232,1,150,2|0,0:0|0:0,0:0:0:0:
90,207,42631,2,0,L|3:188,2,74.9999999999999,2|2|2,3:0|3:0|3:0,0:0:0:0:
154,130,43441,1,2,3:0:0:0:
154,130,43604,1,2,3:0:0:0:
84,58,43928,2,0,L|-3:77,2,74.9999999999999,2|2|2,3:0|3:0|3:0,0:0:0:0:
161,0,44739,5,2,3:0:0:0:
161,0,44900,1,2,3:0:0:0:
235,66,45224,2,0,L|253:142,2,74.9999999999999,2|2|2,3:0|3:0|3:0,0:0:0:0:
317,7,46035,1,2,3:0:0:0:
317,7,46197,1,2,3:0:0:0:
409,45,46522,2,0,L|489:21,2,74.9999999999999,2|2|2,3:0|3:0|3:0,0:0:0:0:
365,134,47332,5,2,3:0:0:0:
369,138,47495,1,2,3:0:0:0:
416,225,47819,2,0,L|507:250,2,74.9999999999999,2|2|2,3:0|3:0|3:0,0:0:0:0:
337,286,48630,1,2,3:0:0:0:
337,286,48792,1,2,3:0:0:0:
240,310,49116,2,0,L|229:384,2,74.9999999999999,2|2|2,3:0|3:0|3:0,0:0:0:0:
206,272,49765,5,2,3:0:0:0:
206,272,49927,2,0,B|129:287|141:322|67:342,1,150,2|2,3:0|3:0,0:0:0:0:
6,274,50738,1,2,3:0:0:0:
6,274,50900,1,2,3:0:0:0:
55,187,51225,5,2,3:0:0:0:
55,187,51387,2,0,P|33:127|57:37,1,150,2|2,3:3|1:3,0:0:0:0:
147,16,52198,1,4,3:0:0:0:
219,93,52523,5,2,3:0:0:0:
219,93,52685,1,2,3:0:0:0:
292,160,53009,2,0,L|379:176,2,74.9999999999999,2|2|2,3:0|3:0|3:0,0:0:0:0:
222,232,53820,1,2,3:0:0:0:
222,232,53982,1,2,3:0:0:0:
226,331,54306,2,0,L|147:348,2,74.9999999999999,2|2|2,3:0|3:0|3:0,0:0:0:0:
313,278,55117,5,2,3:0:0:0:
313,278,55279,1,2,3:0:0:0:
407,310,55604,2,0,L|423:392,2,74.9999999999999,2|2|2,3:0|3:0|3:0,0:0:0:0:
461,227,56414,1,2,3:0:0:0:
461,227,56577,1,2,3:0:0:0:
411,139,56901,2,0,L|497:117,2,74.9999999999999,2|2|2,3:0|3:0|3:0,0:0:0:0:
336,81,57712,5,2,3:0:0:0:
336,81,57874,1,2,3:0:0:0:
254,138,58198,2,0,L|269:216,2,74.9999999999999,2|2|2,3:0|3:0|3:0,0:0:0:0:
176,84,59009,1,2,3:0:0:0:
176,84,59171,1,2,3:0:0:0:
76,97,59496,2,0,L|89:13,2,74.9999999999999,2|2|2,3:0|3:0|3:0,0:0:0:0:
31,118,60144,6,0,L|45:183,1,50,2|2,0:0|3:0,0:0:0:0:
57,214,60468,1,2,3:0:0:0:
147,257,60793,2,0,L|137:344,2,74.9999999999999,2|2|2,3:0|3:0|3:0,0:0:0:0:
184,223,61441,6,0,L|246:212,1,50,2|2,0:0|3:0,0:0:0:0:
282,204,61766,1,2,3:0:0:0:
330,116,62090,2,0,L|316:40,2,74.9999999999999,2|2|2,3:0|3:0|3:0,0:0:0:0:
377,131,62739,6,0,B|411:217|429:175|463:253,1,150,4|0,0:0|0:0,0:0:0:0:
438,295,63387,2,0,L|424:372,2,74.9999999999999,2|2|2,3:0|3:0|3:0,0:0:0:0:
348,263,64198,1,2,3:0:0:0:
348,263,64360,1,2,3:0:0:0:
256,303,64685,2,0,L|274:385,2,74.9999999999999,2|2|2,3:0|3:0|3:0,0:0:0:0:
176,251,65496,5,2,3:0:0:0:
176,251,65658,1,2,3:0:0:0:
113,173,65982,2,0,L|31:187,2,74.9999999999999,2|2|2,3:0|3:0|3:0,0:0:0:0:
164,88,66793,1,2,3:0:0:0:
164,88,66955,1,2,3:0:0:0:
263,78,67279,6,0,L|278:3,2,74.9999999999999,2|2|2,3:0|3:0|3:0,0:0:0:0:
293,117,67928,2,0,L|377:93,2,74.9999999999999,0|0|0,3:0|3:0|3:0,0:0:0:0:
282,166,68577,2,0,L|353:214,2,74.9999999999999,0|0|0,3:0|3:0|3:0,0:0:0:0:
236,187,69225,1,0,3:0:0:0:
256,192,69874,12,4,73117,1:2:0:0:
37,366,78306,6,0,P|24:318|28:258,1,99.9999999999999,4|4,0:0|3:0,0:0:0:0:
68,241,78793,1,2,3:0:0:0:
68,241,78955,2,0,L|140:256,1,50,0|0,1:0|0:0,0:0:0:0:
165,262,79279,5,0,3:0:0:0:
261,287,79604,1,0,1:0:0:0:
341,227,79928,1,0,1:0:0:0:
341,227,80090,2,0,P|353:186|350:159,1,50,2|4,3:0|3:0,0:0:0:0:
320,141,80414,1,2,3:0:0:0:
413,103,80739,2,0,P|443:75|435:9,1,99.9999999999999,2|2,3:0|3:0,0:0:0:0:
346,23,81387,5,2,0:0:0:0:
298,40,81550,1,0,3:0:0:0:
202,67,81874,1,0,1:0:0:0:
108,100,82198,1,0,1:0:0:0:
68,194,82523,5,0,1:0:0:0:
68,194,82685,2,0,L|86:243,1,50,2|0,3:3|1:0,0:0:0:0:
48,274,83009,2,0,P|52:324|39:380,1,99.9999999999999,2|2,3:0|3:0,0:0:0:0:
91,378,83496,1,4,0:0:0:0:
175,324,83820,6,0,L|237:339,1,50,0|2,1:0|1:0,0:0:0:0:
246,379,84144,1,0,1:0:0:0:
345,380,84468,1,0,1:0:0:0:
374,284,84793,2,0,L|381:214,1,50,0|2,1:0|0:3,0:0:0:0:
418,202,85117,1,0,1:0:0:0:
418,202,85279,2,0,P|469:180|536:181,1,99.9999999999999,2|0,3:0|3:0,0:0:0:0:
505,77,85927,1,2,3:0:0:0:
418,26,86251,6,0,L|364:31,1,50,4|0,0:0|0:0,0:0:0:0:
326,57,86577,1,4,0:0:0:0:
326,57,86738,1,0,1:0:0:0:
235,98,87063,2,0,L|220:159,1,50,0|0,1:0|0:0,0:0:0:0:
201,191,87387,1,4,3:0:0:0:
274,258,87712,1,0,1:0:0:0:
375,225,88036,1,0,1:0:0:0:
375,225,88198,2,0,L|386:283,1,50,0|0,1:0|1:0,0:0:0:0:
369,324,88523,5,0,1:0:0:0:
369,324,88685,2,0,P|324:331|267:367,1,99.9999999999999,0|4,1:0|3:0,0:0:0:0:
231,355,89171,1,2,3:0:0:0:
231,355,89333,2,0,P|215:316|218:287,1,50,0|0,3:0|3:0,0:0:0:0:
223,259,89658,5,0,3:0:0:0:
129,224,89982,1,0,3:0:0:0:
40,191,90306,1,0,3:0:0:0:
40,191,90468,2,0,P|38:153|49:123,1,50,0|0,3:0|1:0,0:0:0:0:
68,89,90793,1,0,3:0:0:0:
164,64,91117,2,0,L|275:35,1,99.9999999999999,2|2,0:1|3:0,0:0:0:0:
358,61,91766,5,2,0:1:0:0:
387,101,91927,1,0,1:0:0:0:
362,197,92251,1,0,1:0:0:0:
331,292,92577,1,0,1:0:0:0:
395,375,92900,5,0,1:0:0:0:
395,375,93062,2,0,L|444:362,1,50,2|4,3:0|3:0,0:0:0:0:
490,380,93386,2,0,P|499:332|492:282,1,99.9999999999999,2|0,3:0|3:0,0:0:0:0:
449,256,93873,1,0,1:0:0:0:
361,207,94197,6,0,L|351:158,1,50,2|2,0:0|3:0,0:0:0:0:
305,138,94523,1,0,1:0:0:0:
213,179,94847,1,0,3:0:0:0:
184,281,95170,2,0,L|174:330,1,50,0|0,1:0|0:0,0:0:0:0:
136,359,95496,1,0,1:0:0:0:
136,359,95658,2,0,P|85:337|18:338,1,99.9999999999999,2|0,3:0|3:0,0:0:0:0:
4,241,96306,1,2,0:1:0:0:
86,184,96631,5,0,1:0:0:0:
86,184,96793,2,0,L|105:115,1,50,4|2,3:0|3:0,0:0:0:0:
55,111,97117,2,0,L|48:46,1,50,0|0,1:0|1:0,0:0:0:0:
85,26,97441,1,0,1:0:0:0:
177,65,97766,5,0,3:0:0:0:
269,103,98090,1,0,3:0:0:0:
366,143,98414,1,0,3:0:0:0:
366,143,98577,1,4,3:0:0:0:
456,96,98901,5,4,3:0:0:0:
456,96,99063,2,0,P|488:152|490:253,1,150,4|0,3:0|1:0,0:0:0:0:
457,270,99712,2,0,L|357:249,1,99.9999999999999,0|0,1:0|1:0,0:0:0:0:
322,282,100198,1,2,0:0:0:0:
322,282,100360,1,0,1:0:0:0:
237,228,100685,6,0,P|231:203|234:179,1,50,0|0,1:0|0:0,0:0:0:0:
271,146,101009,2,0,L|256:36,1,99.9999999999999,0|0,1:0|1:0,0:0:0:0:
208,35,101496,1,2,0:0:0:0:
208,35,101658,2,0,L|92:14,1,99.9999999999999,0|0,1:0|1:0,0:0:0:0:
35,84,102306,2,0,P|19:129|24:191,1,99.9999999999999,0|0,1:0|1:0,0:0:0:0:
59,213,102793,5,2,0:0:0:0:
59,213,102955,1,0,1:0:0:0:
141,173,103279,1,0,1:0:0:0:
224,226,103604,1,0,1:0:0:0:
315,174,103928,2,0,L|370:185,1,50,0|0,1:0|0:0,0:0:0:0:
391,225,104252,6,0,L|378:306,2,74.9999999999999,4|0|2,0:0|1:0|1:0,0:0:0:0:
481,177,105063,1,2,0:0:0:0:
481,177,105225,1,8,3:0:0:0:
424,93,105550,2,0,L|407:11,2,74.9999999999999,4|0|2,0:0|1:0|3:0,0:0:0:0:
374,101,106198,2,0,P|333:135|265:143,1,99.9999999999999,4|0,3:0|1:0,0:0:0:0:
257,113,106685,5,0,1:0:0:0:
257,113,106847,2,0,L|190:96,1,50,0|2,1:0|0:0,0:0:0:0:
166,64,107171,1,0,1:0:0:0:
117,89,107333,1,4,0:0:0:0:
74,190,107658,1,4,0:0:0:0:
160,257,107982,1,4,0:0:0:0:
195,298,108144,2,0,L|186:362,1,50,4|0,0:0|1:0,0:0:0:0:
134,359,108468,6,0,P|79:357|45:308,1,99.9999999999999,0|0,1:0|1:0,0:0:0:0:
70,282,108955,1,2,3:0:0:0:
70,282,109117,2,0,L|60:217,1,50,2|2,0:0|0:0,0:0:0:0:
55,178,109441,1,4,0:0:0:0:
