osu file format v14

[General]
AudioFilename: audio.mp3
AudioLeadIn: 0
PreviewTime: 98495
Countdown: 0
SampleSet: Soft
StackLeniency: 0.6
Mode: 0
LetterboxInBreaks: 1
WidescreenStoryboard: 1

[Editor]
Bookmarks: 24471,45228,65985,71174,81552,102309,112687
DistanceSpacing: 0.9
BeatDivisor: 4
GridSize: 16
TimelineZoom: 2.799999

[Metadata]
Title:Elisha
TitleUnicode:Elisha
Artist:DJ YOSHITAKA
ArtistUnicode:DJ YOSHITAKA
Creator:herestotheroc
Version:Another
Source:beatmania IIDX 17 SIRIUS
Tags:konami bemani beatmania sirius trance core electronic instrumental nooj xytoper kyrian monsieursebas
BeatmapID:3933937
BeatmapSetID:1907729

[Difficulty]
HPDrainRate:6
CircleSize:4
OverallDifficulty:8
ApproachRate:8.5
SliderMultiplier:1.8
SliderTickRate:0.5

[Events]
//Background and Video events
0,0,"bg.jpg",0,0
//Break Periods
2,21424,30928
//Storyboard Layer 0 (Background)
//Storyboard Layer 1 (Fail)
//Storyboard Layer 2 (Pass)
//Storyboard Layer 3 (Foreground)
//Storyboard Layer 4 (Overlay)
//Storyboard Sound Samples

[TimingPoints]
468,324.324324324324,4,2,0,75,1,0
2413,-125,4,2,0,75,0,0
3224,-100,4,2,0,75,0,0
4684,-83.3333333333333,4,2,0,75,0,0
5008,-100,4,2,0,75,0,0
5332,-71.4285714285714,4,2,0,75,0,0
5657,-100,4,2,0,75,0,0
12792,-125,4,2,0,75,0,0
13440,-100,4,2,0,75,0,0
20576,-71.4285714285714,4,2,0,75,0,0
20900,-100,4,2,0,75,0,0
31603,-280.347631062518,4,2,0,75,0,0
41981,-111.111111111111,4,2,0,75,0,0
67927,-111.111111111111,4,2,0,75,0,0
78305,-90.9090909090909,4,2,0,75,0,0
102954,-83.3333333333333,4,2,0,75,0,0
104251,-90.9090909090909,4,2,0,75,0,0
119819,-111.111111111111,4,2,0,75,0,0

[Colours]
Combo1 : 255,191,255
Combo2 : 211,255,168
Combo3 : 226,241,254

[HitObjects]
128,7,468,5,4,3:0:0:0:
73,68,630,2,0,P|83:115|89:167,1,90,2|4,3:0|3:0,3:0:0:0:
71,243,1116,6,0,P|159:224|248:211,1,180,4|4,3:0|3:0,3:0:0:0:
224,297,1603,2,0,P|232:347|243:388,1,90,2|4,3:0|3:0,3:0:0:0:
335,242,1927,1,2,3:0:0:0:
335,242,2089,2,0,P|349:287|365:330,1,90,4|0,3:0|3:0,3:0:0:0:
252,213,2413,6,0,P|260:162|282:99,1,108,4|0,0:0|0:0,0:0:0:0:
194,94,2738,2,0,P|161:52|163:0,1,108,4|0,0:0|0:0,0:0:0:0:
164,0,3062,5,4,3:0:0:0:
280,20,3224,2,0,P|323:14|367:4,1,90,2|4,0:0|3:0,0:0:0:0:
458,51,3711,6,0,P|476:104|513:237,1,180,4|4,3:0|3:0,0:0:0:0:
466,315,4197,2,0,P|425:326|380:341,1,90,2|4,0:0|3:0,0:0:0:0:
414,239,4522,1,2,0:0:0:0:
414,239,4684,2,0,P|391:243|371:252,6,26.9999991760254,8|2|2|2|2|2|2,3:0|3:0|3:0|3:0|3:0|3:0|3:0,3:0:0:0:
332,173,5008,6,2,P|374:158|417:146,1,90,0|0,0:0|0:0,3:0:0:0:
379,341,5332,6,0,B|354:339|337:326|337:326|309:334|309:334|287:315|249:310,1,125.999996154785,4|0,0:0|0:0,0:0:0:0:
417,145,5657,5,4,3:0:0:0:
389,61,5819,2,0,P|346:77|296:91,1,90,2|4,0:0|3:0,0:0:0:0:
191,60,6305,6,0,P|221:144|243:231,1,180,4|4,3:0|3:0,0:0:0:0:
142,201,6792,2,0,P|97:208|53:220,1,90,2|4,0:0|3:0,0:0:0:0:
175,321,7116,1,0,0:0:0:0:
175,321,7278,2,0,P|130:328|86:340,1,90,4|2,3:0|0:0,0:0:0:0:
294,361,7603,5,0,3:0:0:0:
294,361,7684,1,0,3:0:0:0:
294,361,7765,1,0,3:0:0:0:
294,361,7846,1,0,3:0:0:0:
294,361,7927,2,0,P|313:354|336:346,1,45,4|0,3:0|0:0,0:0:0:0:
220,245,8089,2,0,P|242:238|268:232,1,45,4|0,3:0|0:0,0:0:0:0:
79,175,8251,5,4,3:0:0:0:
158,164,8413,2,0,P|167:119|181:77,1,90,2|4,0:1|3:0,0:0:0:0:
282,53,8900,6,0,P|265:134|232:239,1,180,4|4,3:0|3:0,0:0:0:0:
347,204,9386,2,0,P|353:160|367:117,2,90,4|4|2,3:0|3:0|0:0,0:0:0:0:
411,329,9873,1,2,0:0:0:0:
428,248,10035,1,0,3:0:0:0:
330,358,10197,1,0,3:0:0:0:
330,358,10278,1,0,3:0:0:0:
330,358,10359,2,0,P|289:340|246:328,2,90,2|4|8,0:0|3:0|3:0,0:0:0:0:
330,358,10765,5,8,3:0:0:0:
330,358,10846,2,0,L|320:312,1,45,4|0,3:0|0:0,0:0:0:0:
171,337,11008,1,2,0:0:0:0:
171,337,11170,2,0,P|164:292|157:247,1,90,4|0,3:0|0:0,0:0:0:0:
66,259,11495,2,0,P|59:211|48:158,1,90,4|0,3:0|0:0,0:0:0:0:
144,41,11819,5,4,3:0:0:0:
203,98,11981,2,0,P|212:142|223:185,1,90,2|4,0:0|3:0,0:0:0:0:
131,148,12467,5,4,3:0:0:0:
289,111,12792,6,0,P|330:95|406:79,1,108,4|0,0:0|0:0,0:0:0:0:
361,0,13116,2,0,P|311:17|250:32,1,108,4|0,0:0|0:0,0:0:0:0:
179,0,13440,5,4,3:0:0:0:
179,0,13603,2,0,P|136:11|91:21,1,90,2|4,0:0|3:0,0:0:0:0:
467,97,14089,6,0,P|488:184|512:270,1,180,4|4,3:0|3:0,0:0:0:0:
482,384,14576,1,2,0:0:0:0:
400,329,14738,2,0,P|377:332|355:338,1,45,4|0,3:0|0:0,0:0:0:0:
112,329,14900,2,0,P|134:332|156:338,1,45,4|0,3:0|0:0,0:0:0:0:
321,167,15062,5,4,0:0:0:0:
321,167,15386,2,0,P|311:186|301:207,1,45,0|0,1:0|0:0,0:0:0:0:
189,167,15549,2,0,P|200:186|210:207,1,45,0|0,1:0|0:0,0:0:0:0:
256,384,15711,1,4,0:0:0:0:
256,384,15873,1,0,3:0:0:0:
256,384,15954,1,0,3:0:0:0:
256,384,16035,1,4,3:0:0:0:
247,298,16197,2,0,P|249:252|256:208,1,90,2|4,0:0|3:0,0:0:0:0:
106,0,16684,6,0,P|102:68|84:189,1,180,4|4,3:0|3:0,0:0:0:0:
12,258,17170,1,4,3:0:0:0:
12,258,17332,2,0,P|74:272|194:297,2,180,4|4|4,3:0|3:0|3:0,0:0:0:0:
35,362,18143,5,4,3:0:0:0:
93,179,18305,1,4,3:0:0:0:
35,362,18467,2,0,P|94:374|129:388,1,90,4|4,3:0|0:0,0:0:0:0:
215,217,18792,5,0,3:0:0:0:
215,217,18873,1,0,3:0:0:0:
215,217,18954,2,0,P|162:204|116:184,1,90,4|4,3:0|3:0,0:0:0:0:
316,79,19278,1,2,0:0:0:0:
316,79,19440,2,0,P|273:69|231:53,1,90,4|0,3:0|0:0,0:0:0:0:
64,55,19765,5,4,3:0:0:0:
143,0,19927,2,0,P|148:57|145:111,1,90,4|0,3:0|3:0,0:0:0:0:
147,89,20170,1,0,3:0:0:0:
147,89,20251,1,4,3:0:0:0:
301,166,20413,1,0,3:0:0:0:
301,166,20495,1,0,3:0:0:0:
301,166,20576,2,0,P|324:166|347:165,6,31.4999990386963,4|0|0|0|0|0|0,3:0|3:0|3:0|3:0|3:0|3:0|3:0,3:0:0:0:
316,184,20900,2,0,P|315:228|317:273,1,90,4|0,3:0|0:0,0:0:0:0:
163,384,21224,1,4,0:0:0:0:
117,168,31603,6,0,B|120:115|69:53|-56:66|-82:256|128:361|256:192|256:192|330:92|460:66|537:152|599:274|453:346|390:283|394:209,1,1027.29601953142,4|4,0:0|0:0,0:0:0:0:
394,220,39386,5,4,0:0:0:0:
221,228,40684,1,4,0:0:0:0:
54,243,41981,6,0,P|47:282|37:321,1,80.9999975280763,2|2,0:0|3:0,0:0:0:0:
97,384,42305,1,2,3:0:0:0:
133,200,42630,6,0,P|189:214|261:222,2,121.499996292114,2|2|2,3:0|3:0|3:0,0:0:0:0:
7,81,43440,6,0,P|45:82|92:91,1,80.9999975280763,2|2,3:0|3:0,0:0:0:0:
145,22,43765,1,2,0:0:0:0:
145,22,43927,2,0,P|181:29|235:30,1,80.9999975280763,2|0,3:0|0:0,0:0:0:0:
225,31,44170,1,2,3:0:0:0:
225,31,44251,1,2,3:0:0:0:
271,149,44413,2,0,P|312:158|351:161,1,80.9999975280763,2|2,3:0|0:0,0:0:0:0:
416,290,44738,1,2,3:0:0:0:
416,290,44900,1,2,3:0:0:0:
334,288,45224,5,2,3:0:0:0:
449,373,45467,1,2,3:0:0:0:
470,222,45711,1,2,3:0:0:0:
334,288,45954,1,2,0:0:0:0:
334,288,46035,2,0,P|293:272|240:263,1,80.9999975280763,2|2,3:0|3:0,0:0:0:0:
119,384,46359,5,0,0:0:0:0:
146,263,46522,2,0,P|183:234|213:199,1,80.9999975280763,2|0,3:0|0:0,0:0:0:0:
263,111,46765,2,0,P|269:157|284:201,1,80.9999975280763,2|0,3:0|0:0,0:0:0:0:
334,288,47008,2,0,P|290:270|245:261,1,80.9999975280763,2|0,3:0|0:0,0:0:0:0:
160,130,47332,5,2,3:0:0:0:
247,224,47495,1,2,3:0:0:0:
160,130,47819,6,0,P|158:75|168:3,2,121.499996292114,2|2|2,3:0|3:0|3:0,0:0:0:0:
244,112,48467,1,2,0:0:0:0:
76,66,48630,2,0,P|34:86|0:94,1,80.9999975280763,2|2,3:0|3:0,0:0:0:0:
166,9,48954,1,2,0:0:0:0:
265,34,49116,2,0,P|287:40|346:68,1,80.9999975280763,2|0,3:0|0:0,0:0:0:0:
339,64,49359,1,2,3:0:0:0:
412,30,49603,6,0,P|450:19|486:0,1,80.9999975280763,2|0,3:0|0:0,0:0:0:0:
416,115,49927,5,2,3:0:0:0:
416,115,50089,2,0,P|398:157|385:204,1,80.9999975280763,2|2,3:0|0:0,0:0:0:0:
452,264,50413,2,0,P|442:293|429:349,1,80.9999975280763,2|0,3:0|0:0,0:0:0:0:
430,341,50657,1,2,3:0:0:0:
430,341,50738,1,2,3:0:0:0:
293,310,50900,2,0,P|275:346|262:384,1,80.9999975280763,0|2,0:0|0:0,0:0:0:0:
262,384,51143,1,2,3:0:0:0:
262,384,51224,1,2,3:0:0:0:
366,283,51386,5,2,3:3:0:0:
245,219,51549,1,4,3:0:0:0:
178,334,51711,1,2,3:0:0:0:
77,271,51873,1,2,1:3:0:0:
77,271,51954,1,2,1:3:0:0:
77,271,52035,2,0,P|36:280|0:295,1,80.9999975280763,2|4,1:3|3:0,0:0:0:0:
366,282,52359,6,0,P|405:271|441:257,1,80.9999975280763,4|2,0:0|3:0,0:0:0:0:
498,150,52684,2,0,P|460:161|418:167,1,80.9999975280763,2|2,3:0|0:0,0:0:0:0:
358,102,53008,2,0,P|300:119|240:128,2,121.499996292114,2|2|2,3:0|0:0|0:0,0:0:0:0:
351,285,53819,5,2,3:0:0:0:
252,234,53981,2,0,P|209:243|160:260,1,80.9999975280763,2|2,3:0|0:0,0:0:0:0:
70,242,54305,6,0,B|113:236|164:221,1,80.9999975280763,2|0,3:0|0:0,0:0:0:0:
198,291,54549,2,0,P|152:304|107:315,1,80.9999975280763,2|0,3:0|0:0,0:0:0:0:
57,273,54792,2,0,P|19:283|-19:292,1,80.9999975280763,2|2,3:0|0:0,0:0:0:0:
45,193,55116,5,2,3:0:0:0:
155,149,55278,2,0,P|164:109|179:62,1,80.9999975280763,2|0,3:0|0:0,0:0:0:0:
85,87,55603,5,2,3:0:0:0:
246,129,55846,1,2,3:0:0:0:
85,87,56089,1,2,3:0:0:0:
246,129,56332,1,2,0:0:0:0:
246,129,56413,2,0,P|281:141|345:147,1,80.9999975280763,2|2,3:0|3:0,0:0:0:0:
493,73,56738,5,2,0:0:0:0:
392,97,56900,2,0,P|405:58|413:18,1,80.9999975280763,2|0,3:0|0:0,0:0:0:0:
434,172,57143,2,0,P|473:177|511:191,1,80.9999975280763,2|0,3:0|0:0,0:0:0:0:
363,221,57386,2,0,P|349:259|341:299,1,80.9999975280763,2|0,3:0|0:0,0:0:0:0:
278,364,57711,1,2,3:0:0:0:
278,364,57873,2,0,P|238:351|198:343,1,80.9999975280763,2|0,3:0|0:0,0:0:0:0:
156,269,58197,6,0,P|167:229|174:190,1,80.9999975280763,2|0,3:0|0:0,0:0:0:0:
241,132,58440,2,0,P|280:143|323:148,1,80.9999975280763,2|0,3:0|0:0,0:0:0:0:
363,221,58684,2,0,P|349:259|341:299,1,80.9999975280763,2|0,3:0|0:0,0:0:0:0:
256,247,59008,1,2,3:0:0:0:
256,247,59170,1,2,3:0:0:0:
189,179,59495,5,2,3:0:0:0:
236,338,59738,1,2,3:0:0:0:
350,216,59981,1,2,3:0:0:0:
285,126,60305,6,0,P|285:83|292:40,1,80.9999975280763,2|2,3:0|3:0,0:0:0:0:
197,14,60630,1,2,0:0:0:0:
197,14,60792,2,0,P|202:71|192:152,2,121.499996292114,2|2|2,3:0|3:0|3:0,0:0:0:0:
102,41,61440,1,2,0:0:0:0:
102,41,61603,2,0,P|98:86|105:125,1,80.9999975280763,2|2,3:0|3:0,0:0:0:0:
290,45,61927,5,2,0:0:0:0:
290,44,62089,2,0,P|305:31|323:22,1,40.4999987640381,2|0,3:0|0:0,0:0:0:0:
101,40,62332,2,0,P|84:30|66:22,1,40.4999987640381,2|0,3:0|0:0,0:0:0:0:
194,165,62576,2,0,P|190:205|189:245,1,80.9999975280763,2|4,3:0|0:0,0:0:0:0:
199,73,62900,5,2,3:0:0:0:
199,73,63062,1,2,3:0:0:0:
169,156,63386,5,2,3:0:0:0:
213,229,63630,1,2,3:0:0:0:
303,238,63873,1,2,3:0:0:0:
369,171,64197,5,2,3:0:0:0:
369,171,64359,1,2,3:0:0:0:
401,248,64684,5,2,3:0:0:0:
361,329,64927,1,2,3:0:0:0:
272,336,65170,1,2,3:0:0:0:
228,264,65495,5,2,3:0:0:0:
228,264,65657,1,2,3:0:0:0:
159,209,65981,5,2,3:0:0:0:
77,228,66224,1,2,3:0:0:0:
36,305,66467,1,2,3:0:0:0:
88,376,66792,5,2,3:0:0:0:
88,376,66954,1,2,3:0:0:0:
138,304,67278,5,2,3:0:0:0:
107,219,67522,1,2,3:0:0:0:
27,194,67765,1,2,3:0:0:0:
27,194,67927,5,0,3:0:0:0:
7,161,68008,1,0,3:0:0:0:
2,129,68089,1,0,3:0:0:0:
13,96,68170,1,0,3:0:0:0:
37,71,68251,2,0,P|32:49|25:24,3,40.4999987640381,0|0|0|0,3:0|3:0|3:0|3:0,3:0:0:0:
107,111,68576,5,0,3:0:0:0:
141,120,68657,1,0,3:0:0:0:
177,114,68738,1,0,3:0:0:0:
204,85,68819,1,0,3:0:0:0:
208,49,68900,2,0,L|194:10,3,40.4999987640381,0|0|0|0,3:0|3:0|3:0|3:0,3:0:0:0:
292,35,69224,5,0,3:0:0:0:
335,44,69305,1,0,3:0:0:0:
363,80,69386,1,0,3:0:0:0:
367,124,69467,1,0,3:0:0:0:
340,165,69549,2,0,L|354:202,3,40.4999987640381,0|0|0|0,3:0|3:0|3:0|3:0,3:0:0:0:
436,245,69873,5,0,3:0:0:0:
426,299,69954,1,0,3:0:0:0:
388,329,70035,1,0,3:0:0:0:
339,342,70116,1,0,3:0:0:0:
295,323,70197,2,0,L|282:280,1,40.4999987640381,4|0,3:0|0:0,0:0:0:0:
222,173,70359,2,0,L|209:130,1,40.4999987640381,4|0,3:0|0:0,0:0:0:0:
247,14,70522,5,8,3:0:0:0:
247,25,70603,1,8,3:0:0:0:
248,36,70684,1,8,3:0:0:0:
248,48,70765,1,8,3:0:0:0:
249,59,70846,1,8,3:0:0:0:
249,70,70927,1,8,3:0:0:0:
250,82,71008,1,8,3:0:0:0:
250,93,71089,1,8,3:0:0:0:
251,105,71170,1,8,3:0:0:0:
252,116,71251,1,8,3:0:0:0:
252,127,71332,1,8,3:0:0:0:
253,139,71413,1,8,3:0:0:0:
253,150,71494,1,8,3:0:0:0:
254,161,71576,1,8,3:0:0:0:
254,173,71657,1,8,3:0:0:0:
255,184,71738,1,8,3:0:0:0:
256,196,71819,1,8,3:0:0:0:
256,207,71900,1,8,3:0:0:0:
257,218,71981,1,8,3:0:0:0:
257,230,72062,1,8,3:0:0:0:
258,241,72143,1,8,3:0:0:0:
258,252,72224,1,8,3:0:0:0:
259,264,72305,1,8,3:0:0:0:
259,275,72386,1,8,3:0:0:0:
260,287,72467,1,8,3:0:0:0:
261,298,72549,1,8,3:0:0:0:
261,309,72630,1,8,3:0:0:0:
262,321,72711,1,8,3:0:0:0:
262,332,72792,1,8,3:0:0:0:
263,343,72873,1,8,3:0:0:0:
263,355,72954,1,8,3:0:0:0:
264,366,73035,1,8,3:0:0:0:
265,378,73116,1,4,1:2:0:0:
256,192,73197,12,0,76197,0:0:0:0:
256,192,76359,12,0,77657,1:0:0:0:
256,192,77981,5,4,3:0:0:0:
256,192,78305,5,4,0:0:0:0:
176,124,78467,2,0,P|127:144|75:158,1,99.0000030212403,2|4,0:0|3:0,0:0:0:0:
1,274,78792,1,2,3:0:0:0:
86,320,78954,2,0,P|131:299|178:286,1,99.0000030212403,0|0,1:0|0:0,0:0:0:0:
273,345,79197,1,0,3:0:0:0:
273,345,79278,2,0,P|270:292|347:231,1,148.50000453186,0|0,3:0|0:0,0:0:0:0:
337,233,79603,2,0,P|390:218|439:200,1,99.0000030212403,0|0,1:0|0:0,0:0:0:0:
507,241,79927,5,0,1:0:0:0:
464,126,80089,2,0,P|444:80|425:30,2,99.0000030212403,2|4|2,3:0|3:0|3:0,0:0:0:0:
464,126,80495,1,0,3:0:0:0:
464,126,80576,1,0,3:0:0:0:
426,284,80738,1,2,3:0:0:0:
512,280,80900,5,0,1:0:0:0:
380,218,81062,1,2,3:0:0:0:
391,362,81224,2,0,P|342:344|291:332,1,99.0000030212403,0|0,1:0|0:0,0:0:0:0:
224,374,81467,1,0,3:0:0:0:
224,374,81549,2,0,P|212:323|159:232,1,148.50000453186,0|0,3:0|0:0,0:0:0:0:
165,239,81873,2,0,P|107:221|51:197,1,99.0000030212403,0|0,1:0|0:0,0:0:0:0:
0,356,82197,2,0,P|47:370|95:384,1,99.0000030212403,0|0,1:0|0:0,0:0:0:0:
0,165,82522,5,0,1:0:0:0:
71,293,82684,1,2,3:3:0:0:
0,165,82846,1,0,1:0:0:0:
73,41,83008,2,0,P|120:59|178:71,1,99.0000030212403,2|0,3:0|0:0,0:0:0:0:
167,69,83251,1,0,3:0:0:0:
167,69,83332,1,2,3:0:0:0:
260,173,83495,5,4,0:0:0:0:
264,177,83657,2,0,P|280:111|307:25,1,148.50000453186,2|0,0:0|0:0,0:0:0:0:
303,34,83981,1,2,1:0:0:0:
476,161,84143,6,0,P|428:146|380:133,1,99.0000030212403,0|0,1:0|0:0,0:0:0:0:
380,133,84386,1,0,3:0:0:0:
380,133,84467,1,0,3:0:0:0:
364,230,84630,1,2,0:3:0:0:
455,251,84792,1,0,1:0:0:0:
476,160,84954,1,2,0:3:0:0:
275,263,85116,5,0,1:0:0:0:
275,263,85278,2,0,P|262:311|241:357,1,99.0000030212403,2|4,3:0|3:0,0:0:0:0:
175,283,85603,1,0,3:0:0:0:
175,283,85684,1,0,3:0:0:0:
175,283,85765,1,0,3:0:0:0:
120,179,85927,2,0,P|82:243|61:314,1,148.50000453186,4|0,0:0|0:0,0:0:0:0:
61,314,86251,6,0,P|68:266|67:216,1,99.0000030212403,4|4,0:0|3:0,0:0:0:0:
36,29,86576,1,2,0:0:0:0:
36,29,86738,2,0,P|40:99|39:149,1,99.0000030212403,0|0,1:0|0:0,0:0:0:0:
0,171,86981,1,0,1:0:0:0:
44,131,87062,2,0,P|138:146|255:132,1,198.000006042481,0|4,1:0|3:0,0:0:0:0:
295,122,87711,5,0,1:0:0:0:
199,96,87873,1,2,3:0:0:0:
229,189,88035,1,0,1:0:0:0:
270,43,88197,5,0,1:0:0:0:
270,43,88278,1,0,1:0:0:0:
270,43,88359,1,0,1:0:0:0:
152,171,88522,1,0,1:0:0:0:
314,209,88684,1,0,1:0:0:0:
314,209,88846,2,0,P|360:191|418:176,1,99.0000030212403,4|4,3:0|3:0,3:0:0:0:
430,97,89170,5,2,3:0:0:0:
470,237,89332,1,0,3:0:0:0:
476,260,89413,1,0,3:0:0:0:
482,284,89494,1,0,3:0:0:0:
491,307,89575,1,0,3:0:0:0:
497,330,89657,2,0,P|446:345|398:369,1,99.0000030212403,0|0,3:0|3:0,3:0:0:0:
370,268,89981,1,0,1:0:0:0:
470,237,90143,1,2,3:0:0:0:
497,330,90305,1,0,1:0:0:0:
404,365,90467,6,0,P|346:344|294:333,1,99.0000030212403,4|4,3:0|3:0,0:0:0:0:
140,384,90792,1,0,3:0:0:0:
140,384,90873,1,0,3:0:0:0:
140,384,90954,2,0,P|82:369|35:347,2,99.0000030212403,0|2|4,3:0|0:1|0:0,0:0:0:0:
194,204,91440,6,0,P|210:153|223:93,1,99.0000030212403,2|4,3:0|3:0,0:0:0:0:
298,68,91765,1,2,0:1:0:0:
170,40,91927,2,0,P|121:28|75:11,1,99.0000030212403,0|0,1:0|0:0,0:0:0:0:
75,11,92170,1,0,3:0:0:0:
75,11,92251,1,0,1:0:0:0:
220,108,92413,1,2,3:0:0:0:
350,0,92576,6,0,P|399:13|452:31,1,99.0000030212403,0|0,1:0|0:0,0:0:0:0:
503,105,92900,1,0,1:0:0:0:
391,223,93062,2,0,P|343:206|296:194,1,99.0000030212403,2|4,3:0|3:0,0:0:0:0:
317,95,93386,2,0,P|360:106|411:123,1,99.0000030212403,2|8,3:0|3:0,0:0:0:0:
411,123,93630,1,0,3:0:0:0:
411,123,93711,1,0,3:0:0:0:
356,310,93873,5,0,1:0:0:0:
356,310,94035,2,0,P|305:294|262:279,1,99.0000030212403,2|0,3:0|0:0,0:0:0:0:
195,382,94359,5,2,3:0:0:0:
166,296,94522,2,0,P|190:246|208:189,1,99.0000030212403,0|0,1:0|0:0,0:0:0:0:
203,204,94765,1,0,3:0:0:0:
203,204,94846,1,0,3:0:0:0:
194,114,95008,1,2,3:0:0:0:
24,183,95170,6,0,P|67:207|113:224,1,99.0000030212403,0|0,1:0|0:0,0:0:0:0:
45,15,95495,1,0,1:0:0:0:
45,14,95657,2,0,P|25:59|0:101,1,99.0000030212403,2|4,3:0|3:0,0:0:0:0:
224,29,95981,1,0,3:0:0:0:
224,29,96062,1,0,3:0:0:0:
224,29,96143,2,0,P|173:12|124:-13,2,99.0000030212403,0|2|0,1:0|0:1|1:0,0:0:0:0:
254,68,96549,5,0,1:0:0:0:
260,115,96630,2,0,P|239:159|224:207,1,99.0000030212403,0|4,1:0|3:0,0:0:0:0:
327,261,96954,1,2,3:0:0:0:
224,206,97116,1,0,1:0:0:0:
171,305,97278,1,0,1:0:0:0:
68,253,97440,1,0,1:0:0:0:
19,352,97603,1,0,1:0:0:0:
327,261,97765,6,0,P|364:248|427:235,1,99.0000030212403,0|0,3:0|0:0,0:0:0:0:
327,261,98089,2,0,P|287:274|228:291,1,99.0000030212403,0|0,3:0|0:0,0:0:0:0:
327,261,98413,2,0,P|339:305|365:374,1,99.0000030212403,0|0,3:0|3:0,0:0:0:0:
358,354,98657,5,0,3:0:0:0:
358,354,98738,1,4,3:0:0:0:
327,261,98900,1,4,3:0:0:0:
293,164,99062,1,4,3:0:0:0:
259,67,99224,6,0,P|306:53|353:34,1,99.0000030212403,4|4,0:0|3:0,0:0:0:0:
190,0,99549,5,0,1:0:0:0:
189,0,99711,2,0,P|146:23|99:37,1,99.0000030212403,0|0,1:0|0:0,0:0:0:0:
48,14,99954,1,2,3:0:0:0:
98,37,100035,2,0,P|115:83|127:131,1,99.0000030212403,0|0,1:0|0:0,0:0:0:0:
67,256,100359,2,0,P|53:314|35:364,1,99.0000030212403,0|0,1:0|0:0,0:0:0:0:
2,368,100603,1,2,3:0:0:0:
40,351,100684,2,0,P|85:363|145:385,1,99.0000030212403,0|0,1:0|0:0,0:0:0:0:
319,355,101008,6,0,P|365:338|414:328,1,99.0000030212403,0|0,1:0|0:0,0:0:0:0:
449,350,101251,1,2,3:0:0:0:
415,329,101332,2,0,P|397:282|386:234,1,99.0000030212403,0|0,1:0|0:0,0:0:0:0:
460,123,101657,2,0,P|469:75|486:13,1,99.0000030212403,0|0,1:0|0:0,0:0:0:0:
512,0,101900,1,2,3:0:0:0:
481,26,101981,2,0,P|436:20|369:-3,1,99.0000030212403,0|0,1:0|0:0,0:0:0:0:
192,75,102305,6,0,P|144:87|97:103,1,99.0000030212403,0|0,1:0|0:0,0:0:0:0:
55,80,102549,1,2,3:0:0:0:
97,103,102630,2,0,P|118:158|129:207,1,99.0000030212403,0|0,1:0|0:0,0:0:0:0:
241,329,102954,6,0,P|253:277|272:227,1,107.999996704102,0|0,1:0|0:0,0:0:0:0:
273,227,103197,1,2,3:0:0:0:
273,227,103278,2,0,P|254:277|241:330,1,107.999996704102,0|0,1:0|0:0,0:0:0:0:
273,227,103603,5,0,1:0:0:0:
273,227,103684,2,0,P|286:174|305:124,1,107.999996704102,2|0,3:0|0:0,0:0:0:0:
310,132,103927,2,0,P|291:182|278:235,1,107.999996704102,0|0,1:0|0:0,0:0:0:0:
429,384,104251,6,0,P|411:337|388:294,1,99.0000030212403,4|0,0:0|0:0,0:0:0:0:
388,294,104495,1,0,1:0:0:0:
388,294,104576,1,0,1:0:0:0:
299,232,104738,1,2,1:0:0:0:
438,190,104900,1,0,1:0:0:0:
438,190,104981,2,0,P|468:180|491:171,1,49.5000015106202,2|0,3:0|0:0,0:0:0:0:
347,128,105224,1,8,3:0:0:0:
340,104,105305,1,8,3:0:0:0:
332,80,105386,1,8,3:0:0:0:
324,57,105467,1,8,3:0:0:0:
316,33,105549,6,0,P|363:19|408:0,1,99.0000030212403,4|0,0:0|0:0,0:0:0:0:
408,0,105792,1,0,1:0:0:0:
408,0,105873,1,0,1:0:0:0:
221,3,106035,2,0,P|234:50|246:98,1,99.0000030212403,2|4,3:0|3:0,0:0:0:0:
225,166,106278,1,4,3:0:0:0:
225,166,106359,1,4,3:0:0:0:
319,153,106522,5,0,1:0:0:0:
170,98,106684,1,0,1:0:0:0:
184,255,106846,2,0,P|137:272|92:294,1,99.0000030212403,0|2,1:0|0:0,0:0:0:0:
92,294,107089,1,0,1:0:0:0:
92,294,107170,1,0,1:0:0:0:
201,345,107332,1,4,0:0:0:0:
301,216,107657,5,4,0:0:0:0:
427,366,107981,5,4,0:0:0:0:
503,186,108143,1,4,0:0:0:0:
503,186,108305,2,0,P|480:196|457:206,1,49.5000015106202,0|0,1:0|0:0,0:0:0:0:
414,122,108467,2,0,P|390:133|360:148,1,49.5000015106202,0|0,1:0|0:0,0:0:0:0:
511,80,108630,5,8,3:0:0:0:
511,80,108711,1,8,3:0:0:0:
511,80,108792,2,0,P|500:98|493:116,6,24.7500007553101,0|2|2|2|2|2|2,1:0|3:0|3:0|3:0|3:0|3:0|3:0,3:0:0:0:
463,6,109116,6,0,P|418:25|372:42,1,99.0000030212403,2|2,0:0|0:0,0:0:0:0:
256,192,109440,5,4,0:0:0:0:
256,192,109522,12,0,114630,0:0:0:0:
256,192,117224,12,4,119819,1:0:0:0:
