osu file format v14

[General]
AudioFilename: audio.mp3
AudioLeadIn: 0
PreviewTime: 66397
Countdown: 0
SampleSet: Soft
StackLeniency: 0.7
Mode: 0
LetterboxInBreaks: 0
WidescreenStoryboard: 0

[Editor]
DistanceSpacing: 1
BeatDivisor: 4
GridSize: 4
TimelineZoom: 3.299999

[Metadata]
Title:CaptivAte ~jouka~ (Wiegenlied mix)
TitleUnicode:CaptivAte ~浄化~ (Wiegenlied mix)
Artist:DJ YOSHITAKA
ArtistUnicode:DJ YOSHITAKA
Creator:Crimmi
Version:Beginner
Source:ノスタルジア
Tags:beatmaniaIIDX beatmania IIDX 12 HAPPY SKY Original Soundtrack Piano Arrange NOSTALGIA NST Toshinari Iijima Purification Konami BEMANI CrimmiSkye
BeatmapID:1349156
BeatmapSetID:635785

[Difficulty]
HPDrainRate:3
CircleSize:2
OverallDifficulty:2
ApproachRate:3
SliderMultiplier:1.1
SliderTickRate:2

[Events]
//Background and Video events
0,0,"6252017.jpg",0,0
//Break Periods
//Storyboard Layer 0 (Background)
//Storyboard Layer 1 (Fail)
//Storyboard Layer 2 (Pass)
//Storyboard Layer 3 (Foreground)
//Storyboard Sound Samples

[TimingPoints]
2085,750,3,2,0,15,1,0
4324,666.666666666667,3,2,0,15,1,0
6379,659.340659340659,3,2,0,15,1,0
10345,337.078651685393,3,2,0,15,1,0
17400,705.882352941176,4,2,0,15,1,0
18615,495.867768595041,4,2,0,15,1,0
26600,495.867768595041,4,2,0,15,1,0
30655,495.867768595041,4,2,0,15,1,0
34620,502.092050209205,4,2,0,15,1,0
50680,498.960498960499,4,2,0,15,1,0
66640,500,4,2,0,15,1,0
90630,333.333333333333,3,2,0,15,1,0

[Colours]
Combo1 : 255,192,0
Combo2 : 255,128,64
Combo3 : 255,128,0
Combo4 : 205,12,40

[HitObjects]
56,184,2085,6,0,P|80:120|216:88,1,220,0|2,0:0|0:0,0:0:0:0:
344,96,4324,2,0,P|320:162|176:208,1,220,0|2,0:0|0:0,0:0:0:0:
120,128,6379,6,0,P|88:184|160:320,1,220,0|2,0:0|0:0,0:0:0:0:
192,212,8357,2,0,B|296:156|296:268|408:212,1,220,0|2,0:0|0:0,0:0:0:0:
256,60,10345,6,0,L|136:92,1,110
44,124,11019,1,0,0:0:0:0:
124,200,11356,2,0,P|112:268|232:360,1,220,2|0,0:0|0:0,0:0:0:0:
224,252,12367,6,0,L|356:240,1,110
432,296,13041,1,0,0:0:0:0:
420,188,13378,2,0,P|436:120|312:36,1,220,2|0,0:0|0:0,0:0:0:0:
336,136,14389,6,0,P|256:132|184:256,1,220
292,236,15401,2,0,L|420:228,2,110,2|0|0,0:0|0:0|0:0,0:0:0:0:
236,332,16412,5,0,0:0:0:0:
183,238,16749,1,0,0:0:0:0:
132,140,17086,1,2,0:0:0:0:
132,140,17400,6,0,P|192:120|240:140,1,110,0|2,0:0|0:0,0:0:0:0:
336,188,18615,6,0,P|344:120|328:76,1,110
235,136,19606,2,0,L|119:148,1,110,2|0,0:0|0:0,0:0:0:0:
48,68,20598,2,0,P|16:140|100:256,1,220,0|2,0:0|0:0,0:0:0:0:
124,148,22086,1,0,0:0:0:0:
208,216,22581,6,0,P|288:176|416:232,1,220,0|2,0:0|0:0,0:0:0:0:
472,308,24069,1,0,0:0:0:0:
500,200,24565,2,0,P|456:140|412:112,1,110
376,96,25309,2,0,P|320:88|260:96,1,110,2|0,0:0|0:0,0:0:0:0:
212,108,26053,1,2,0:0:0:0:
112,40,26600,6,0,P|88:115|140:208,2,165,0|0|2,0:0|0:0|0:0,0:0:0:0:
196,112,28583,2,0,L|384:128,2,165,0|0|2,0:0|0:0|0:0,0:0:0:0:
104,20,30655,6,0,P|64:108|128:216,2,220,0|2|0,0:0|0:0|0:0,0:0:0:0:
172,108,33134,1,2,0:0:0:0:
232,200,33630,2,0,L|264:260,2,55,0|0|2,0:0|0:0|0:0,0:0:0:0:
172,108,34621,5,0,0:0:0:0:
280,108,35122,2,0,L|400:112,2,110,2|0|2,0:0|0:0|0:0,0:0:0:0:
228,204,36628,5,0,0:0:0:0:
120,196,37130,2,0,L|4:192,2,110,2|0|2,0:0|0:0|0:0,0:0:0:0:
168,296,38636,5,0,0:0:0:0:
276,300,39138,2,0,L|404:304,2,110,2|0|2,0:0|0:0|0:0,0:0:0:0:
164,296,40645,6,0,L|144:176,1,110,0|2,0:0|0:0,0:0:0:0:
124,80,41649,2,0,L|112:24,2,55,0|0|2,0:0|0:0|0:0,0:0:0:0:
228,112,42653,6,0,P|304:80|388:120,2,165,0|0|2,0:0|0:0|0:0,0:0:0:0:
304,192,44661,2,0,P|224:224|152:184,2,165,0|0|2,0:0|0:0|0:0,0:0:0:0:
372,280,46670,6,0,P|320:316|268:332,1,110
220,328,47423,2,0,P|156:316|112:292,1,110
72,264,48176,1,2,0:0:0:0:
36,160,48678,6,0,P|72:96|224:100,1,220
144,176,50184,1,0,0:0:0:0:
252,176,50680,6,0,B|308:160|308:160|356:176|356:176|424:160,1,165
476,72,51927,2,0,P|512:124|504:232,2,165,2|0|0,0:0|0:0|0:0,0:0:0:0:
368,88,53923,1,2,0:0:0:0:
260,104,54671,6,0,P|176:168|300:304,1,330,0|2,0:0|0:0,0:0:0:0:
388,360,56667,2,0,P|400:288|384:248,1,110,0|2,0:0|0:0,0:0:0:0:
292,204,57665,2,0,P|240:196|144:272,1,165,0|2,0:0|0:0,0:0:0:0:
120,300,58663,6,0,L|120:116,2,165,0|2|0,0:0|0:0|0:0,0:0:0:0:
224,332,60659,2,0,P|300:344|412:328,2,165,0|2|0,0:0|0:0|0:0,0:0:0:0:
256,192,62655,12,0,65149,0:0:0:0:
48,320,66646,6,0,P|108:312|176:312,1,110,0|2,0:0|0:0,0:0:0:0:
264,336,67640,2,0,P|324:344|384:340,1,110,0|2,0:0|0:0,0:0:0:0:
472,288,68640,5,0,0:0:0:0:
380,228,69140,1,2,0:0:0:0:
464,160,69640,2,0,P|408:124|308:148,1,165
280,184,70640,6,0,L|116:224,2,165,0|2|2,0:0|0:0|0:0,0:0:0:0:
336,280,72640,2,0,P|384:216|232:88,1,330,0|2,0:0|0:0,0:0:0:0:
280,188,74640,6,0,P|204:196|128:128,2,165,0|2|0,0:0|0:0|0:0,0:0:0:0:
328,88,76640,2,0,P|392:196|340:280,1,220
248,308,78140,1,2,0:0:0:0:
140,300,78640,6,0,P|176:228|272:208,1,165
304,220,79640,2,0,P|412:196|448:96,1,220,2|0,0:0|0:0,0:0:0:0:
232,140,81640,2,0,P|200:208|244:308,1,165
280,292,82640,6,0,L|460:300,2,165,0|2|0,0:0|0:0|0:0,0:0:0:0:
188,348,84640,2,0,P|168:284|232:196,2,165,0|2|0,0:0|0:0|0:0,0:0:0:0:
280,292,86640,6,0,P|340:244|476:308,1,220,0|2,0:0|0:0,0:0:0:0:
376,348,88640,2,0,L|368:124,1,220
204,56,90640,6,0,P|172:136|212:268,1,220
256,360,91630,1,2,0:0:0:0:
324,272,91963,2,0,L|456:244,1,110
444,140,92630,6,0,P|376:92|144:148,1,330,0|2,0:0|0:0,0:0:0:0:
64,212,93963,1,0,0:0:0:0:
124,304,94296,1,0,0:0:0:0:
216,244,94630,6,0,P|244:204|384:264,1,220
456,332,95630,2,0,P|488:268|480:212,1,110,2|0,0:0|0:0,0:0:0:0:
436,136,96296,1,0,0:0:0:0:
488,40,96630,6,0,P|400:32|328:144,1,220
348,240,97630,2,0,L|364:360,2,110,2|0|2,0:0|0:0|0:0,0:0:0:0:
240,260,98629,6,0,P|256:184|396:144,1,220
476,192,99629,2,0,P|488:132|468:76,2,110,2|0|2,0:0|0:0|0:0,0:0:0:0:
464,300,100629,6,0,P|396:272|380:140,1,220
320,48,101629,6,0,P|280:100|260:148,1,110,2|0,0:0|0:0,0:0:0:0:
248,248,102296,1,0,0:0:0:0:
152,184,102629,6,0,L|36:176,2,110
248,248,103629,1,2,0:0:0:0:
348,204,103963,1,0,0:0:0:0:
260,140,104296,1,0,0:0:0:0:
348,72,104629,6,0,P|280:32|156:96,1,220
108,184,105629,2,0,L|112:304,2,110,2|0|2,0:0|0:0|0:0,0:0:0:0:
216,200,106629,6,0,P|292:164|424:208,1,220
420,312,107629,2,0,P|344:348|212:304,1,220,2|0,0:0|0:0,0:0:0:0:
123,358,108629,6,0,P|111:305|124:252,1,110
144,144,109296,1,0,0:0:0:0:
232,212,109629,2,0,B|288:204|288:204|348:216,1,110,2|0,0:0|0:0,0:0:0:0:
440,264,110296,1,0,0:0:0:0:
416,152,110629,6,0,L|400:40,2,110
440,264,111629,1,2,0:0:0:0:
332,276,111963,1,0,0:0:0:0:
312,168,112296,1,0,0:0:0:0:
228,236,112629,6,0,P|204:176|304:60,1,220
400,64,113629,2,0,P|478:134|460:237,1,220,2|0,0:0|0:0,0:0:0:0:
376,168,114629,6,0,B|276:124|276:224|164:168,1,220
104,76,115629,2,0,P|60:152|112:264,1,220,2|0,0:0|0:0,0:0:0:0:
208,320,116629,6,0,P|300:344|424:328,1,220
428,220,117629,2,0,P|336:196|212:212,1,220,2|0,0:0|0:0,0:0:0:0:
116,268,118629,5,0,0:0:0:0:
116,156,118963,2,0,L|0:168,2,110,0|0|2,0:0|0:0|0:0,0:0:0:0:
228,152,119963,1,0,0:0:0:0:
236,260,120296,1,0,0:0:0:0:
256,192,120629,12,2,122296,0:0:0:0:
