osu file format v14

[General]
AudioFilename: audio.mp3
AudioLeadIn: 0
PreviewTime: 66397
Countdown: 0
SampleSet: Soft
StackLeniency: 0.7
Mode: 0
LetterboxInBreaks: 0
WidescreenStoryboard: 1

[Editor]
DistanceSpacing: 1.2
BeatDivisor: 4
GridSize: 4
TimelineZoom: 3.299999

[Metadata]
Title:CaptivAte ~jouka~ (Wiegenlied mix)
TitleUnicode:CaptivAte ~浄化~ (Wiegenlied mix)
Artist:DJ YOSHITAKA
ArtistUnicode:DJ YOSHITAKA
Creator:Crimmi
Version:Another
Source:ノスタルジア
Tags:beatmaniaIIDX beatmania IIDX 12 HAPPY SKY Original Soundtrack Piano Arrange NOSTALGIA NST Toshinari Iijima Purification Konami BEMANI CrimmiSkye
BeatmapID:1353903
BeatmapSetID:635785

[Difficulty]
HPDrainRate:6
CircleSize:4.5
OverallDifficulty:8
ApproachRate:9
SliderMultiplier:1.6
SliderTickRate:2

[Events]
//Background and Video events
0,0,"6252017.jpg",0,0
//Break Periods
//Storyboard Layer 0 (Background)
//Storyboard Layer 1 (Fail)
//Storyboard Layer 2 (Pass)
//Storyboard Layer 3 (Foreground)
//Storyboard Sound Samples

[TimingPoints]
2085,750,3,2,0,15,1,0
4324,666.666666666667,3,2,0,15,1,0
6379,659.340659340659,3,2,0,15,1,0
10345,337.078651685393,3,2,0,15,1,0
17400,705.882352941176,4,2,0,15,1,0
18615,495.867768595041,4,2,0,15,1,0
26600,495.867768595041,4,2,0,15,1,0
30655,495.867768595041,4,2,0,15,1,0
34620,502.092050209205,4,2,0,15,1,0
50680,498.960498960499,4,2,0,15,1,0
66640,500,4,2,0,15,1,0
86640,-133.333333333333,4,2,0,15,0,0
87640,-200,4,2,0,15,0,0
90630,333.333333333333,3,2,0,15,1,0
106629,-66.6666666666667,3,2,0,15,0,0
114629,-100,3,2,0,15,0,0

[Colours]
Combo1 : 255,192,0
Combo2 : 255,128,64
Combo3 : 255,128,0
Combo4 : 205,12,40

[HitObjects]
256,196,2085,5,0,0:0:0:0:
328,132,2460,2,0,P|344:188|344:216,1,80
188,256,3210,2,0,P|172:200|172:172,1,80,0|2,0:0|0:0,0:0:0:0:
256,196,3960,1,0,0:0:0:0:
304,300,4324,6,0,L|392:296,1,80
256,196,4990,2,0,L|144:200,1,80
80,204,5657,1,2,0:0:0:0:
132,284,5990,1,0,0:0:0:0:
132,120,6324,6,0,P|88:113|46:124,1,80
80,204,7038,2,0,L|176:192,1,80
228,132,7697,1,2,0:0:0:0:
296,68,8027,1,0,0:0:0:0:
296,164,8357,6,0,L|300:252,1,80
304,340,9016,1,2,0:0:0:0:
380,120,9346,6,0,L|384:208,1,80
388,292,10005,1,2,0:0:0:0:
464,240,10345,6,0,P|396:200|312:240,1,160
256,292,10850,1,0,0:0:0:0:
184,356,11019,2,0,P|160:288|160:272,1,80
256,292,11356,2,0,L|100:208,1,160,2|0,0:0|0:0,0:0:0:0:
28,180,11861,1,0,0:0:0:0:
28,180,12030,2,0,P|68:136|112:128,1,80
145,59,12367,6,0,L|112:224,1,160
92,308,12873,1,0,0:0:0:0:
176,264,13041,2,0,P|244:260|280:264,1,80
92,308,13378,2,0,P|80:248|96:204,1,80,2|0,0:0|0:0,0:0:0:0:
192,88,13715,2,0,P|196:127|191:167,1,80
27,149,14052,2,0,P|64:134|104:136,1,80
188,168,14389,6,0,P|248:184|344:160,1,160
420,108,14895,1,0,0:0:0:0:
420,200,15064,2,0,P|412:244|432:304,1,80
492,148,15401,2,0,P|500:104|480:44,1,80,2|0,0:0|0:0,0:0:0:0:
420,108,15738,2,0,L|312:116,1,80
244,124,16075,1,0,0:0:0:0:
296,208,16243,1,0,0:0:0:0:
204,208,16412,6,0,P|232:268|264:288,1,80
244,124,16749,2,0,P|192:116|152:128,1,80
296,208,17086,2,0,P|332:160|336:132,1,80
204,208,17400,2,0,L|372:288,1,160,2|0,0:0|0:0,0:0:0:0:
440,308,18615,6,0,P|428:240|436:184,1,120
452,144,19110,2,0,L|344:144,1,80,2|0,0:0|0:0,0:0:0:0:
312,72,19606,2,0,P|284:136|328:232,1,160,0|2,0:0|0:0,0:0:0:0:
372,296,20350,1,0,0:0:0:0:
372,296,20474,1,0,0:0:0:0:
372,296,20598,2,0,P|304:268|208:296,1,160,0|2,0:0|0:0,0:0:0:0:
136,332,21342,1,0,0:0:0:0:
140,236,21590,2,0,B|148:156|128:116|128:116|112:176,1,160,0|2,0:0|0:0,0:0:0:0:
216,188,22334,1,0,0:0:0:0:
260,208,22457,1,0,0:0:0:0:
304,228,22581,6,0,P|360:224|392:232,1,80
256,304,23077,1,2,0:0:0:0:
256,304,23325,1,0,0:0:0:0:
256,304,23573,2,0,P|220:260|244:160,1,160,0|2,0:0|0:0,0:0:0:0:
296,88,24317,1,0,0:0:0:0:
328,124,24441,1,0,0:0:0:0:
360,160,24565,2,0,B|376:228|356:296|356:296|348:260,1,160,0|2,0:0|0:0,0:0:0:0:
276,216,25309,2,0,P|264:304|308:368,1,160
328,152,26053,2,0,P|280:136|240:144,1,80,2|0,0:0|0:0,0:0:0:0:
144,184,26600,6,0,B|84:224|24:196|24:196|56:216,1,160,0|2,0:0|0:0,0:0:0:0:
100,288,27343,2,0,L|72:116,1,160
12,56,28087,2,0,P|64:36|124:44,1,80,2|0,0:0|0:0,0:0:0:0:
156,104,28583,2,0,B|284:108|284:108|252:88,1,160,0|2,0:0|0:0,0:0:0:0:
192,24,29327,2,0,P|164:80|216:176,1,160
272,232,30071,1,2,0:0:0:0:
344,164,30319,1,0,0:0:0:0:
424,88,30655,6,0,L|412:196,1,80
400,256,31150,1,2,0:0:0:0:
384,348,31398,1,0,0:0:0:0:
312,284,31646,2,0,L|228:288,1,80
168,360,32142,2,0,P|136:296|152:256,1,80,2|0,0:0|0:0,0:0:0:0:
140,272,32514,1,0,0:0:0:0:
144,256,32638,1,0,0:0:0:0:
296,208,32886,6,0,L|264:164,1,40
192,56,33134,2,0,L|204:128,1,40,2|0,0:0|0:0,0:0:0:0:
152,240,33382,2,0,L|168:192,1,40
108,96,33630,6,0,L|142:142,1,40
230,254,33878,2,0,L|217:178,1,40
288,64,34126,2,0,L|270:115,1,40,2|0,0:0|0:0,0:0:0:0:
112,228,34374,2,0,L|168:188,1,40
288,176,34620,6,0,B|344:164|400:176|400:176|360:112,1,160,0|2,0:0|0:0,0:0:0:0:
320,56,35373,1,0,0:0:0:0:
320,56,35498,2,0,P|236:76|176:48,1,120
120,20,36126,2,0,P|112:64|120:104,1,80,2|0,0:0|0:0,0:0:0:0:
56,172,36628,6,0,P|112:196|196:152,1,160,0|2,0:0|0:0,0:0:0:0:
260,84,37381,1,0,0:0:0:0:
260,84,37507,2,0,P|288:140|272:212,1,120
228,272,38134,1,2,0:0:0:0:
324,280,38385,1,0,0:0:0:0:
340,280,38511,1,0,0:0:0:0:
352,280,38636,6,0,B|376:200|376:200|360:120,1,160,0|2,0:0|0:0,0:0:0:0:
336,36,39389,1,0,0:0:0:0:
336,36,39515,2,0,P|276:84|272:152,1,120
276,228,40143,1,2,0:0:0:0:
192,180,40394,1,0,0:0:0:0:
116,240,40645,6,0,P|100:184|104:136,1,80
140,12,41147,2,0,P|156:68|152:116,1,80,2|0,0:0|0:0,0:0:0:0:
100,164,41649,1,0,0:0:0:0:
172,300,41900,1,0,0:0:0:0:
224,152,42151,1,2,0:0:0:0:
88,256,42402,1,0,0:0:0:0:
248,240,42653,6,0,P|312:212|400:248,1,160,0|2,0:0|0:0,0:0:0:0:
404,252,43281,1,0,0:0:0:0:
416,264,43406,1,0,0:0:0:0:
428,276,43532,2,0,L|424:152,1,120
424,60,44410,1,0,0:0:0:0:
408,60,44536,1,0,0:0:0:0:
392,60,44661,6,0,B|336:140,1,80
232,280,45163,1,2,0:0:0:0:
244,264,45289,1,0,0:0:0:0:
256,248,45414,2,0,L|92:248,1,160
28,180,46168,2,0,P|8:224|8:264,1,80,2|0,0:0|0:0,0:0:0:0:
64,332,46670,5,0,0:0:0:0:
76,332,46795,1,0,0:0:0:0:
88,332,46921,1,0,0:0:0:0:
100,332,47046,2,0,P|160:320|216:332,1,120,2|0,0:0|0:0,0:0:0:0:
332,356,47925,1,0,0:0:0:0:
300,268,48176,1,2,0:0:0:0:
392,292,48427,2,0,P|388:240|296:176,1,160
220,216,49180,1,2,0:0:0:0:
240,124,49431,1,0,0:0:0:0:
133,135,49682,6,0,L|156:168,1,40
297,243,49933,2,0,L|280:208,1,40,2|0,0:0|0:0,0:0:0:0:
275,106,50184,2,0,L|240:124,1,40
160,261,50435,2,0,L|196:244,1,40,2|0,0:0|0:0,0:0:0:0:
88,216,50680,6,0,P|83:293|139:345,1,160
232,320,51428,2,0,B|304:304|304:304|388:324,1,160,2|0,0:0|0:0,0:0:0:0:
480,336,52176,1,2,0:0:0:0:
448,244,52426,1,0,0:0:0:0:
448,224,52551,1,0,0:0:0:0:
448,204,52675,6,0,P|384:184|284:208,1,160
488,280,53424,2,0,P|524:240|500:136,1,160,2|0,0:0|0:0,0:0:0:0:
444,68,54172,1,2,0:0:0:0:
376,136,54422,1,0,0:0:0:0:
360,136,54546,1,0,0:0:0:0:
344,136,54671,6,0,B|268:160|268:160|172:136,1,160
384,64,55420,2,0,P|420:108|388:208,1,160,2|0,0:0|0:0,0:0:0:0:
320,260,56168,1,2,0:0:0:0:
244,320,56418,1,0,0:0:0:0:
240,300,56542,1,0,0:0:0:0:
236,276,56667,6,0,L|144:276,1,80
0,204,57166,2,0,L|84:204,1,80,2|0,0:0|0:0,0:0:0:0:
300,144,57665,2,0,L|180:144,1,120
360,216,58413,1,2,0:0:0:0:
360,216,58663,6,0,P|396:160|392:124,1,80
352,56,59162,1,2,0:0:0:0:
300,144,59411,2,0,P|264:196|304:296,1,160
368,336,60160,1,2,0:0:0:0:
380,240,60409,1,0,0:0:0:0:
380,220,60534,1,0,0:0:0:0:
380,204,60659,6,0,P|316:180|220:212,1,160,0|2,0:0|0:0,0:0:0:0:
40,264,61407,1,0,0:0:0:0:
40,284,61532,1,0,0:0:0:0:
40,300,61657,6,0,P|104:324|200:292,1,160,0|2,0:0|0:0,0:0:0:0:
264,240,62405,5,0,0:0:0:0:
280,240,62530,1,0,0:0:0:0:
296,240,62655,1,0,0:0:0:0:
256,192,62779,12,0,65149,0:0:0:0:
120,104,66397,5,0,0:0:0:0:
128,116,66521,1,0,0:0:0:0:
136,124,66640,6,0,P|208:116|272:128,1,120,0|2,0:0|0:0,0:0:0:0:
384,188,67390,1,0,0:0:0:0:
424,100,67640,2,0,L|424:276,1,160,2|0,0:0|0:0,0:0:0:0:
420,356,68390,1,0,0:0:0:0:
400,352,68515,1,0,0:0:0:0:
384,348,68640,6,0,L|244:348,1,120,0|2,0:0|0:0,0:0:0:0:
36,256,69390,1,2,0:0:0:0:
36,256,69640,2,0,L|176:256,1,120,0|2,0:0|0:0,0:0:0:0:
300,256,70390,1,2,0:0:0:0:
236,328,70640,6,0,P|208:224|240:180,1,160,0|2,0:0|0:0,0:0:0:0:
320,332,71390,1,0,0:0:0:0:
320,332,71640,2,0,L|152:356,1,160,0|2,0:0|0:0,0:0:0:0:
64,364,72390,1,0,0:0:0:0:
60,348,72515,1,0,0:0:0:0:
56,332,72640,6,0,L|52:228,1,80,2|0,0:0|0:0,0:0:0:0:
56,156,73140,1,2,0:0:0:0:
148,324,73390,6,0,L|144:208,1,80,2|0,0:0|0:0,0:0:0:0:
148,148,73890,1,2,0:0:0:0:
68,200,74140,1,0,0:0:0:0:
68,200,74640,6,0,L|240:192,1,160,0|2,0:0|0:0,0:0:0:0:
164,120,75390,2,0,P|132:176|172:272,1,160
228,192,76140,1,2,0:0:0:0:
300,256,76390,1,0,0:0:0:0:
368,188,76640,2,0,P|372:132|368:96,1,80
300,256,77140,1,2,0:0:0:0:
392,288,77390,1,0,0:0:0:0:
392,304,77515,1,0,0:0:0:0:
392,320,77640,6,0,P|316:288|232:332,1,160,0|2,0:0|0:0,0:0:0:0:
168,368,78390,1,0,0:0:0:0:
168,352,78515,1,0,0:0:0:0:
168,332,78640,6,0,B|92:352|92:352|8:328,1,160,0|2,0:0|0:0,0:0:0:0:
192,256,79390,1,0,0:0:0:0:
192,256,79640,2,0,P|272:212|416:268,1,240,2|0,0:0|0:0,0:0:0:0:
456,340,80640,2,0,L|456:160,1,160,0|2,0:0|0:0,0:0:0:0:
452,72,81390,1,0,0:0:0:0:
368,124,81640,5,0,0:0:0:0:
92,192,82015,1,0,0:0:0:0:
372,264,82390,1,2,0:0:0:0:
372,264,82640,6,0,P|308:232|212:268,1,160,0|2,0:0|0:0,0:0:0:0:
420,332,83390,2,0,P|452:272|416:192,1,160,0|2,0:0|0:0,0:0:0:0:
348,128,84140,1,0,0:0:0:0:
276,68,84390,1,0,0:0:0:0:
256,68,84515,1,0,0:0:0:0:
236,68,84640,6,0,B|168:48|168:48|72:72,1,160,0|2,0:0|0:0,0:0:0:0:
56,204,85390,1,0,0:0:0:0:
76,204,85515,1,0,0:0:0:0:
96,204,85640,6,0,B|164:224|164:224|252:204,1,160,0|2,0:0|0:0,0:0:0:0:
332,156,86390,1,0,0:0:0:0:
332,172,86515,1,0,0:0:0:0:
332,188,86640,6,0,P|396:208|456:180,1,120.000004577637,0|2,0:0|0:0,0:0:0:0:
260,128,87640,6,0,P|240:176|272:260,1,120.000004577637
340,96,88640,6,0,P|288:48|172:136,1,240,2|0,0:0|0:0,0:0:0:0:
76,88,90630,6,0,P|72:144|84:180,1,80
168,304,90963,2,0,P|172:248|160:212,1,80,2|0,0:0|0:0,0:0:0:0:
13,240,91296,2,0,P|69:245|105:233,1,80
230,151,91629,2,0,P|174:146|138:158,1,80,2|0,0:0|0:0,0:0:0:0:
288,212,91963,2,0,P|308:160|300:108,1,80,2|0,0:0|0:0,0:0:0:0:
208,228,92296,2,0,P|228:272|264:296,1,80,2|0,0:0|0:0,0:0:0:0:
344,324,92630,5,0,0:0:0:0:
412,256,92796,1,0,0:0:0:0:
316,236,92963,2,0,B|316:176|316:176|304:144,1,80,2|0,0:0|0:0,0:0:0:0:
203,157,93296,2,0,B|196:176|196:176|196:236,1,80
384,224,93630,2,0,B|384:164|384:164|364:120,1,80,2|0,0:0|0:0,0:0:0:0:
136,145,93963,2,0,B|128:164|128:164|128:224,1,80,2|0,0:0|0:0,0:0:0:0:
208,280,94296,1,2,0:0:0:0:
304,280,94463,1,0,0:0:0:0:
200,256,94630,6,0,L|180:172,1,80
322,177,94963,2,0,L|308:256,1,80,2|0,0:0|0:0,0:0:0:0:
168,260,95296,2,0,L|140:172,1,80
369,188,95630,2,0,L|344:264,1,80,2|0,0:0|0:0,0:0:0:0:
128,268,95963,2,0,L|96:184,1,80,2|0,0:0|0:0,0:0:0:0:
412,193,96296,2,0,L|384:268,1,80,2|0,0:0|0:0,0:0:0:0:
332,348,96630,6,0,P|292:288|292:252,1,80,2|0,0:0|0:0,0:0:0:0:
220,282,96963,2,0,P|207:319|180:348,1,80,2|0,0:0|0:0,0:0:0:0:
144,284,97296,2,0,P|164:232|200:212,1,80,2|0,0:0|0:0,0:0:0:0:
329,218,97630,2,0,P|358:245|368:284,1,80,2|0,0:0|0:0,0:0:0:0:
120,180,97963,2,0,P|160:148|208:152,1,80,2|0,0:0|0:0,0:0:0:0:
440,300,98296,2,0,P|416:340|372:356,1,80,2|0,0:0|0:0,0:0:0:0:
292,340,98629,6,0,L|196:336,1,80
116,332,98963,1,2,0:0:0:0:
236,184,99296,1,0,0:0:0:0:
52,240,99629,2,0,L|144:248,1,80,2|0,0:0|0:0,0:0:0:0:
315,191,99963,2,0,L|236:184,1,80,2|0,0:0|0:0,0:0:0:0:
380,240,100296,2,0,P|396:184|380:144,1,80,2|0,0:0|0:0,0:0:0:0:
304,264,100629,6,0,P|332:300|444:292,1,160,0|2,0:0|0:0,0:0:0:0:
504,220,101129,1,0,0:0:0:0:
404,220,101296,1,2,0:0:0:0:
404,220,101463,2,0,L|412:120,1,80,0|2,0:0|0:0,0:0:0:0:
479,0,101796,2,0,L|476:72,1,80,0|2,0:0|0:0,0:0:0:0:
410,140,102129,1,0,0:0:0:0:
410,140,102296,2,0,L|298:144,1,80,2|0,0:0|0:0,0:0:0:0:
96,92,102629,2,0,L|200:92,1,80
40,24,102963,6,0,P|12:92|68:176,1,160,2|0,0:0|0:0,0:0:0:0:
128,220,103463,1,0,0:0:0:0:
212,176,103629,2,0,L|320:144,1,80,2|0,0:0|0:0,0:0:0:0:
459,201,103963,2,0,L|368:224,1,80,2|0,0:0|0:0,0:0:0:0:
288,244,104296,1,2,0:0:0:0:
356,312,104463,1,0,0:0:0:0:
320,156,104629,6,0,P|316:112|304:64,1,80,2|0,0:0|0:0,0:0:0:0:
280,212,104963,2,0,L|428:136,1,160,2|2,0:0|0:0,0:0:0:0:
504,88,105463,1,0,0:0:0:0:
492,184,105629,2,0,P|480:232|492:280,1,80,2|0,0:0|0:0,0:0:0:0:
504,88,105963,2,0,P|504:40|488:12,1,80,2|0,0:0|0:0,0:0:0:0:
416,76,106296,2,0,L|328:96,1,80,2|0,0:0|0:0,0:0:0:0:
196,116,106629,6,0,P|192:200|200:240,1,120.000004577637
312,324,106963,2,0,P|316:256|308:200,1,120.000004577637,2|0,0:0|0:0,0:0:0:0:
264,68,107296,2,0,P|208:32|152:52,1,120.000004577637,2|0,0:0|0:0,0:0:0:0:
256,144,107629,2,0,P|320:128|340:56,1,120.000004577637,2|0,0:0|0:0,0:0:0:0:
200,104,107963,2,0,P|184:156|240:212,1,120.000004577637,2|0,0:0|0:0,0:0:0:0:
292,205,108296,2,0,P|327:159|312:104,1,120.000004577637,2|0,0:0|0:0,0:0:0:0:
168,84,108629,6,0,P|152:156|176:232,1,120.000004577637
351,200,108963,2,0,P|359:141|344:84,1,120.000004577637,2|0,0:0|0:0,0:0:0:0:
280,212,109296,2,0,P|324:272|404:256,1,120.000004577637,2|0,0:0|0:0,0:0:0:0:
384,346,109629,2,0,L|420:232,1,120.000004577637,2|0,0:0|0:0,0:0:0:0:
420,32,109963,2,0,L|376:168,1,120.000004577637,2|0,0:0|0:0,0:0:0:0:
452,120,110296,2,0,P|408:80|324:108,1,120.000004577637
232,140,110629,6,0,B|200:132|128:124|128:124|152:156,1,120.000004577637
280,244,110963,2,0,B|312:252|384:260|384:260|360:228,1,120.000004577637,2|0,0:0|0:0,0:0:0:0:
202,213,111296,6,0,B|193:244|181:316|181:316|214:293,1,120.000004577637,2|0,0:0|0:0,0:0:0:0:
309,170,111630,2,0,B|318:139|330:67|330:67|297:90,1,120.000004577637,2|0,0:0|0:0,0:0:0:0:
168,116,111963,1,2,0:0:0:0:
318,75,112129,1,0,0:0:0:0:
225,192,112296,1,2,0:0:0:0:
230,29,112463,1,0,0:0:0:0:
309,170,112629,6,0,P|371:153|430:175,1,120.000004577637,2|0,0:0|0:0,0:0:0:0:
221,261,112963,2,0,P|149:274|95:250,1,120.000004577637,2|0,0:0|0:0,0:0:0:0:
307,248,113296,2,0,P|324:308|292:368,1,120.000004577637,2|0,0:0|0:0,0:0:0:0:
224,191,113629,2,0,P|220:128|252:79,1,120.000004577637,2|0,0:0|0:0,0:0:0:0:
296,156,113963,1,2,0:0:0:0:
152,96,114129,1,0,0:0:0:0:
296,224,114296,1,2,0:0:0:0:
152,164,114463,1,0,0:0:0:0:
296,88,114629,6,0,P|336:96|368:152,1,80,2|0,0:0|0:0,0:0:0:0:
232,128,114963,2,0,P|220:72|232:44,1,80,2|0,0:0|0:0,0:0:0:0:
296,164,115296,2,0,P|256:200|216:200,1,80,2|0,0:0|0:0,0:0:0:0:
140,235,115629,2,0,L|128:156,1,80,2|0,0:0|0:0,0:0:0:0:
156,223,115963,2,0,L|168:144,1,80
178,211,116296,2,0,L|212:132,1,80
268,64,116629,6,0,P|316:108|427:95,1,160,0|2,0:0|0:0,0:0:0:0:
352,20,117129,1,0,0:0:0:0:
268,64,117296,1,2,0:0:0:0:
180,104,117463,1,0,0:0:0:0:
92,140,117629,2,0,L|92:232,1,80,2|0,0:0|0:0,0:0:0:0:
112,124,117963,2,0,L|124:216,1,80
132,108,118296,2,0,L|152:192,1,80
176,280,118629,6,0,P|224:264|344:288,1,160,0|2,0:0|0:0,0:0:0:0:
408,336,119129,1,0,0:0:0:0:
488,280,119296,1,2,0:0:0:0:
408,228,119463,1,0,0:0:0:0:
328,280,119629,6,0,P|312:232|316:196,1,80,2|0,0:0|0:0,0:0:0:0:
501,203,119963,2,0,P|502:243|488:280,1,80,2|0,0:0|0:0,0:0:0:0:
408,336,120296,1,2,0:0:0:0:
392,336,120379,1,0,0:0:0:0:
376,336,120463,1,0,0:0:0:0:
360,336,120546,1,0,0:0:0:0:
344,336,120629,5,2,0:0:0:0:
220,340,120796,1,2,0:0:0:0:
280,140,120963,1,0,0:0:0:0:
344,336,121129,1,2,0:0:0:0:
380,228,121296,1,2,0:0:0:0:
180,228,121463,1,0,0:0:0:0:
384,301,121629,5,2,0:0:0:0:
262,135,121796,1,0,0:0:0:0:
266,340,121963,1,2,0:0:0:0:
373,191,122129,1,0,0:0:0:0:
194,249,122296,1,2,0:0:0:0:
