osu file format v14

[General]
AudioFilename: audio.mp3
AudioLeadIn: 0
PreviewTime: 48578
Countdown: 0
SampleSet: Soft
StackLeniency: 0.4
Mode: 0
LetterboxInBreaks: 0
WidescreenStoryboard: 0

[Editor]
Bookmarks: 27855,38953,48664,54214,54474,54734,59763,60023,60283,65312,65572,65832,72248,86121,108318
DistanceSpacing: 0.75
BeatDivisor: 4
GridSize: 32
TimelineZoom: 3.499999

[Metadata]
Title:A Kiss for the FLOWER
TitleUnicode:A Kiss for the FLOWER
Artist:DJ YOSHITAKA
ArtistUnicode:DJ YOSHITAKA
Creator:bite you death
Version:PETALS
Source:その花びらにくちづけを
Tags:remix sono hanabira ni kuchizuke o wo a kiss for the petals reo kawamura 川村 玲緒 mai sawaguchi 沢口 麻衣
BeatmapID:1327887
BeatmapSetID:629075

[Difficulty]
HPDrainRate:5.6
CircleSize:3.6
OverallDifficulty:8.6
ApproachRate:9.6
SliderMultiplier:1.73
SliderTickRate:1

[Events]
//Background and Video events
0,0,"gg.jpg",0,0
Video,0,"lewd.avi"
//Break Periods
2,5859,16188
2,28055,48095
//Storyboard Layer 0 (Background)
//Storyboard Layer 1 (Fail)
//Storyboard Layer 2 (Pass)
//Storyboard Layer 3 (Foreground)
//Storyboard Sound Samples

[TimingPoints]
110,346.820809248555,4,2,1,40,1,0
4271,-147.058823529412,4,2,1,40,0,0
4315,-147.058823529412,4,2,1,20,0,0
5312,-83.3333333333333,4,2,1,40,0,0
16757,-100,4,2,2,50,0,0
47277,-76.9230769230769,4,2,2,50,0,0
50052,-62.5,4,2,1,60,0,1
54214,-50,4,2,1,60,0,1
54474,-40,4,2,1,60,0,1
54734,-30,4,2,1,60,0,1
54907,-62.5,4,2,1,60,0,1
59763,-50,4,2,1,60,0,1
60023,-40,4,2,1,60,0,1
60283,-30,4,2,1,60,0,1
60456,-62.5,4,2,1,60,0,1
65312,-50,4,2,1,60,0,1
65572,-40,4,2,1,60,0,1
65832,-30,4,2,1,60,0,1
66005,-62.5,4,2,1,60,0,1
70861,-50,4,2,1,60,0,1
71121,-40,4,2,1,60,0,1
71381,-30,4,2,1,60,0,1
71555,-62.5,4,2,1,60,0,1
72248,-66.6666666666667,4,2,1,60,0,0
83346,-133.333333333333,4,2,1,60,0,0
85774,-133.333333333333,4,2,1,5,0,0
86121,-100,4,2,2,30,0,0
87508,-95.2380952380952,4,2,2,30,0,0
88896,-90.9090909090909,4,2,2,30,0,0
91670,-76.9230769230769,4,2,1,40,0,0
95832,-76.9230769230769,4,2,1,50,0,0
97219,-57.1428571428571,4,2,1,60,0,1
107451,-28.5714285714286,4,2,1,60,0,1
107624,-57.1428571428571,4,2,1,60,0,1
108318,-66.6666666666667,4,2,1,60,0,0
120803,-66.6666666666667,4,2,1,5,0,0

[Colours]
Combo1 : 0,0,79
Combo2 : 255,193,224
Combo3 : 253,251,223
Combo4 : 255,81,168

[HitObjects]
296,92,110,6,0,B|291:169|291:169|295:200|295:200|291:276,1,173,6|8,0:0|0:0,0:0:0:0:
123,211,803,2,0,P|180:187|212:184,2,86.5,0|2|8,0:0|0:0|0:0,0:0:0:0:
115,85,1497,6,0,P|133:149|112:232,2,129.75,2|2|2,0:0|0:0|0:0,0:0:0:0:
67,264,2190,2,0,P|81:276|100:284,8,21.625,2|0|0|0|0|0|0|0|0,0:0|0:0|0:0|0:0|0:0|0:0|0:0|0:0|0:0,0:0:0:0:
257,110,2884,6,0,L|253:207,1,86.5,6|0,0:0|0:0,0:0:0:0:
224,336,3231,1,8,0:0:0:0:
83,277,3404,1,8,0:0:0:0:
284,284,3578,2,0,P|301:336|289:379,1,86.5,2|0,0:0|0:0,0:0:0:0:
224,336,3838,2,0,L|365:343,1,129.75,2|2,0:0|0:0,0:0:0:0:
434,251,4185,2,0,P|424:261|420:276,1,21.625
425,290,4271,6,2,P|421:185|272:257,1,323.510001974548,6|0,0:0|0:0,0:3:0:0:
284,284,5312,6,0,B|230:270|230:270|182:282|182:282|127:274,1,155.699995248413,6|0,0:0|0:0,0:0:0:0:
48,258,5659,5,2,0:0:0:0:
326,162,16757,5,6,0:0:0:0:
449,227,16930,2,0,B|453:156|453:156|436:176,1,86.5,2|0,0:1|0:0,0:0:0:0:
320,102,17190,2,0,B|316:173|316:173|333:153,1,86.5,2|0,0:1|0:0,0:0:0:0:
329,22,17451,1,2,0:1:0:0:
329,22,17537,2,0,P|273:35|250:58,1,86.5,2|0,0:1|0:0,0:0:0:0:
82,140,17971,2,0,B|180:126|180:126|131:96,1,129.75,2|0,0:1|0:0,0:0:0:0:
23,89,18318,6,0,P|5:142|15:180,1,86.5,2|0,0:1|0:0,0:0:0:0:
141,191,18578,2,0,P|159:138|149:100,1,86.5,2|0,0:1|0:0,0:0:0:0:
68,240,18838,1,2,0:1:0:0:
68,240,18925,2,0,L|83:340,1,86.5,2|0,0:1|0:0,0:0:0:0:
257,286,19358,2,0,B|158:275|158:275|180:318,1,129.75,2|0,0:1|0:0,0:0:0:0:
310,346,19705,6,0,P|336:295|331:255,1,86.5,2|0,0:1|0:0,0:0:0:0:
302,121,19965,2,0,P|276:172|281:212,1,86.5,2|0,0:1|0:0,0:0:0:0:
444,191,20225,1,2,0:1:0:0:
444,191,20312,2,0,L|354:180,1,86.5,2|0,0:1|0:0,0:0:0:0:
204,277,20745,2,0,L|334:267,1,129.75,2|0,0:1|0:0,0:0:0:0:
151,211,21092,6,0,P|126:259|126:303,1,86.5,2|0,0:1|0:0,0:0:0:0:
214,363,21352,2,0,L|203:264,1,86.5,2|0,0:1|0:0,0:0:0:0:
38,301,21612,1,2,0:1:0:0:
38,301,21699,2,0,L|144:287,1,86.5,2|0,0:1|0:0,0:0:0:0:
170,136,22133,1,2,0:1:0:0:
245,187,22306,6,0,P|260:137|237:73,1,86.5,6|0,0:1|0:0,0:0:0:0:
264,20,22566,2,0,P|249:70|272:134,1,86.5,2|0,0:1|0:0,0:0:0:0:
370,91,22826,2,0,P|341:75|317:70,1,43.25,2|0,0:1|0:0,0:0:0:0:
404,181,23000,1,2,0:1:0:0:
419,190,23086,2,0,L|533:178,1,86.5,2|2,0:1|0:1,0:0:0:0:
490,171,23346,1,2,0:1:0:0:
451,299,23520,1,2,0:1:0:0:
370,91,23693,5,2,0:1:0:0:
306,239,23867,1,2,0:1:0:0:
291,248,23953,2,0,L|177:236,1,86.5,2|2,0:1|0:1,0:0:0:0:
220,229,24214,2,0,P|215:207|205:188,1,43.25,2|0,0:1|0:0,0:0:0:0:
107,105,24387,5,2,0:1:0:0:
107,105,24474,2,0,P|158:115|207:100,1,86.5,2|2,0:1|0:1,0:0:0:0:
274,103,24734,2,0,P|222:96|184:111,1,86.5,2|0,0:1|0:0,0:0:0:0:
332,172,25081,6,0,P|360:123|360:78,1,86.5,2|0,0:1|0:0,0:0:0:0:
362,250,25341,2,0,P|334:201|334:156,1,86.5,2|0,0:1|0:0,0:0:0:0:
442,251,25601,2,0,P|435:283|419:308,1,43.25,2|0,0:1|0:0,0:0:0:0:
344,347,25774,5,2,0:1:0:0:
344,347,25861,2,0,L|236:340,1,86.5,2|2,0:1|0:1,0:0:0:0:
171,347,26121,2,0,L|279:340,1,86.5,2|0,0:1|0:0,0:0:0:0:
114,289,26468,6,0,P|93:345|98:375,1,86.5,2|0,0:1|0:0,0:0:0:0:
207,265,26728,2,0,L|193:166,1,86.5,2|0,0:1|0:0,0:0:0:0:
230,64,26988,1,2,0:1:0:0:
245,74,27162,5,2,0:1:0:0:
260,83,27248,2,0,L|374:71,1,86.5,2|2,0:1|0:1,0:0:0:0:
331,64,27508,1,2,0:1:0:0:
209,189,27682,1,2,0:1:0:0:
386,226,27855,5,6,0:1:0:0:
427,268,48664,5,6,1:1:0:0:
102,96,48925,1,6,1:1:0:0:
274,371,49185,1,6,1:1:0:0:
124,21,49445,1,6,1:1:0:0:
489,214,49705,1,6,1:1:0:0:
235,299,49878,1,6,1:1:0:0:
365,129,50052,6,0,L|354:298,1,138.4,6|0,0:0|0:0,0:0:0:0:
158,279,50312,2,0,P|183:239|268:227,1,138.4,2|0,0:0|0:0,0:0:0:0:
172,374,50572,1,2,0:0:0:0:
121,363,50659,1,0,0:0:0:0:
83,328,50745,1,2,0:0:0:0:
68,280,50832,1,2,0:0:0:0:
229,121,51005,1,2,0:0:0:0:
262,160,51092,2,0,P|270:216|262:237,1,69.2,2|0,0:0|0:0,0:0:0:0:
150,106,51266,2,0,P|178:58|218:38,1,69.2,2|2,0:0|0:0,0:0:0:0:
391,153,51439,6,0,P|331:177|253:154,1,138.4,6|0,0:0|0:0,0:0:0:0:
445,80,51699,2,0,P|477:144|457:214,1,138.4,2|0,0:0|0:0,0:0:0:0:
294,334,51959,1,2,0:0:0:0:
289,288,52046,1,0,0:0:0:0:
304,245,52133,1,2,0:0:0:0:
336,212,52219,1,2,0:0:0:0:
450,311,52393,1,2,0:0:0:0:
450,311,52479,2,0,L|374:301,1,69.2,2|0,0:0|0:0,0:0:0:0:
172,212,52653,1,2,0:0:0:0:
181,287,52740,1,2,0:0:0:0:
190,363,52826,6,0,B|85:350|85:350|129:318,1,138.4,6|0,0:0|0:0,0:0:0:0:
260,228,53086,2,0,L|273:402,1,138.4,2|0,0:0|0:0,0:0:0:0:
172,212,53346,1,2,0:0:0:0:
191,170,53433,1,0,0:0:0:0:
228,144,53520,1,2,0:0:0:0:
273,139,53607,1,2,0:0:0:0:
444,224,53780,1,2,0:0:0:0:
396,242,53867,2,0,P|362:230|326:202,1,69.2,2|0,0:0|0:0,0:0:0:0:
402,83,54040,2,0,P|408:122|403:157,1,69.2,2|0,0:0|0:0,0:0:0:0:
310,43,54214,6,0,L|546:31,1,173,6|0,0:1|0:0,0:0:0:0:
228,144,54474,6,0,B|55:135|55:135|139:195,1,216.25,6|0,0:1|0:0,0:0:0:0:
309,245,54734,6,0,P|374:214|467:238,1,144.166666666667,6|0,0:1|0:0,0:0:0:0:
270,323,54907,5,2,0:0:0:0:
237,290,54994,1,2,0:0:0:0:
225,246,55081,1,2,0:0:0:0:
235,202,55167,1,2,0:0:0:0:
391,111,55341,5,2,0:0:0:0:
388,167,55427,1,2,0:0:0:0:
360,216,55514,1,2,0:0:0:0:
309,245,55601,6,0,P|374:214|470:238,1,138.4,6|0,0:0|0:0,0:0:0:0:
270,323,55861,2,0,L|105:313,1,138.4,2|0,0:0|0:0,0:0:0:0:
309,245,56121,1,2,0:0:0:0:
341,276,56208,1,0,0:0:0:0:
354,320,56294,1,2,0:0:0:0:
342,364,56381,1,2,0:0:0:0:
131,314,56555,1,2,0:0:0:0:
105,268,56641,2,0,P|102:230|125:180,1,69.2,2|0,0:0|0:0,0:0:0:0:
296,173,56815,2,0,P|264:194|209:199,1,69.2,2|2,0:0|0:0,0:0:0:0:
205,36,56988,6,0,B|224:12|224:12|234:119,1,138.4,6|0,0:0|0:0,0:0:0:0:
309,245,57248,2,0,B|239:222|239:222|159:248,1,138.4,2|0,0:0|0:0,0:0:0:0:
345,321,57508,1,2,0:0:0:0:
376,288,57595,1,0,0:0:0:0:
389,244,57682,1,2,0:0:0:0:
379,199,57768,1,2,0:0:0:0:
254,72,57942,1,2,0:0:0:0:
249,124,58029,2,0,P|267:153|296:173,1,69.2,2|0,0:0|0:0,0:0:0:0:
420,89,58202,2,0,P|376:82|340:91,1,69.2,2|2,0:0|0:0,0:0:0:0:
473,153,58375,6,0,P|501:104|477:28,1,138.4,6|0,0:0|0:0,0:0:0:0:
282,104,58636,2,0,L|426:88,1,138.4,2|0,0:0|0:0,0:0:0:0:
236,37,58896,1,2,0:0:0:0:
207,72,58982,1,0,0:0:0:0:
202,117,59069,1,2,0:0:0:0:
222,158,59156,1,2,0:0:0:0:
389,234,59329,1,2,0:0:0:0:
395,182,59416,2,0,P|379:150|347:126,1,69.2,2|0,0:0|0:0,0:0:0:0:
182,211,59589,2,0,P|196:179|222:157,1,69.2,2|0,0:0|0:0,0:0:0:0:
225,288,59763,6,0,P|154:296|92:221,1,173,6|0,0:1|0:0,0:0:0:0:
178,54,60023,6,0,B|128:103|158:185|158:185|127:137|52:148,1,216.25,6|0,0:1|0:0,0:0:0:0:
256,131,60283,6,0,B|423:117,1,144.166666666667,6|0,0:1|0:0,0:0:0:0:
191,200,60456,5,2,0:0:0:0:
166,161,60543,1,2,0:0:0:0:
163,115,60630,1,2,0:0:0:0:
183,74,60716,1,2,0:0:0:0:
410,94,60890,5,2,0:0:0:0:
367,133,60977,1,2,0:0:0:0:
311,146,61063,1,2,0:0:0:0:
256,131,61150,6,0,B|251:163|272:187|272:187|248:230|274:279,1,138.4,6|0,0:0|0:0,0:0:0:0:
457,273,61410,2,0,P|398:224|329:235,1,138.4,2|0,0:0|0:0,0:0:0:0:
219,331,61670,1,2,0:0:0:0:
262,344,61757,1,0,0:0:0:0:
306,333,61844,1,2,0:0:0:0:
339,301,61930,1,2,0:0:0:0:
297,100,62104,1,2,0:0:0:0:
256,131,62190,2,0,P|246:169|250:212,1,69.2,2|0,0:0|0:0,0:0:0:0:
383,219,62364,2,0,P|355:191|315:173,1,69.2,2|2,0:0|0:0,0:0:0:0:
424,295,62537,6,0,P|454:267|446:162,1,138.4,6|0,0:0|0:0,0:0:0:0:
313,197,62797,2,0,B|284:224|284:224|392:218,1,138.4,2|0,0:0|0:0,0:0:0:0:
407,0,63057,1,2,0:0:0:0:
400,45,63144,1,0,0:0:0:0:
393,91,63231,1,2,0:0:0:0:
386,136,63318,1,2,0:0:0:0:
208,79,63491,1,2,0:0:0:0:
208,79,63578,2,0,P|244:66|286:70,1,69.2,2|0,0:0|0:0,0:0:0:0:
263,217,63751,2,0,L|254:139,1,69.2,2|2,0:0|0:0,0:0:0:0:
331,269,63925,6,0,P|288:298|199:272,1,138.4,6|0,0:0|0:0,0:0:0:0:
84,292,64185,2,0,P|127:263|216:289,1,138.4,2|0,0:0|0:0,0:0:0:0:
151,338,64445,1,2,0:0:0:0:
154,292,64531,1,0,0:0:0:0:
158,246,64618,1,2,0:0:0:0:
161,200,64705,1,2,0:0:0:0:
94,37,64878,1,2,0:0:0:0:
61,76,64965,2,0,P|58:114|70:156,1,69.2,2|0,0:0|0:0,0:0:0:0:
226,129,65138,2,0,P|186:109|142:105,1,69.2,2|0,0:0|0:0,0:0:0:0:
263,217,65312,6,0,L|275:22,1,173,6|0,0:1|0:0,0:0:0:0:
436,183,65572,6,0,B|406:137|346:129|346:129|404:125|452:60,1,216.25,6|0,0:1|0:0,0:0:0:0:
509,223,65832,6,0,P|478:257|386:251,1,144.166666666667,6|0,0:1|0:0,0:0:0:0:
346,129,66005,5,2,0:0:0:0:
351,209,66092,1,2,0:0:0:0:
357,290,66179,1,2,0:0:0:0:
363,370,66266,5,2,0:1:0:0:
322,338,66352,1,0,0:0:0:0:
275,317,66439,1,2,0:0:0:0:
224,318,66526,1,2,0:0:0:0:
179,341,66612,1,2,0:0:0:0:
90,349,66699,6,0,L|76:275,1,69.2,6|0,0:0|0:0,0:0:0:0:
170,146,66873,1,2,0:0:0:0:
170,146,66959,2,0,L|160:228,1,69.2,2|0,0:0|0:0,0:0:0:0:
90,87,67133,1,2,0:0:0:0:
90,87,67219,1,2,0:0:0:0:
131,57,67306,1,0,0:0:0:0:
183,53,67393,1,2,0:0:0:0:
229,76,67479,1,2,0:0:0:0:
257,118,67566,1,0,0:0:0:0:
301,146,67653,1,2,0:0:0:0:
351,156,67740,1,2,0:0:0:0:
402,147,67826,1,0,0:0:0:0:
447,121,67913,5,2,0:0:0:0:
443,207,68000,1,2,0:0:0:0:
439,294,68086,6,0,L|434:369,1,69.2,6|0,0:0|0:0,0:0:0:0:
303,276,68260,1,2,0:0:0:0:
303,276,68346,2,0,L|370:242,1,69.2,2|0,0:0|0:0,0:0:0:0:
243,340,68520,1,2,0:0:0:0:
243,340,68607,1,2,0:0:0:0:
223,311,68693,1,0,0:0:0:0:
215,278,68780,1,2,0:0:0:0:
219,244,68867,1,2,0:0:0:0:
235,214,68953,1,0,0:0:0:0:
265,195,69040,1,2,0:0:0:0:
271,245,69127,1,2,0:0:0:0:
242,286,69214,1,0,0:0:0:0:
192,297,69300,5,2,0:0:0:0:
124,245,69387,1,2,0:0:0:0:
117,157,69474,6,0,L|125:240,1,69.2,6|0,0:0|0:0,0:0:0:0:
55,98,69647,1,2,0:0:0:0:
94,74,69734,1,2,0:0:0:0:
139,74,69820,1,0,0:0:0:0:
178,97,69907,1,2,0:0:0:0:
217,120,69994,1,2,0:0:0:0:
262,120,70081,1,0,0:0:0:0:
301,97,70167,1,2,0:0:0:0:
340,73,70254,1,2,0:0:0:0:
385,73,70341,1,0,0:0:0:0:
424,96,70427,1,2,0:0:0:0:
449,133,70514,6,0,L|437:216,1,69.2,2|0,0:0|0:0,0:0:0:0:
316,297,70688,2,0,L|306:208,1,69.2,2|0,0:0|0:0,0:0:0:0:
381,352,70861,6,0,P|316:379|232:316,1,173,6|0,0:1|0:0,0:0:0:0:
318,84,71121,6,0,B|322:164|322:164|305:204|305:204|317:306,1,216.25,6|0,0:1|0:0,0:0:0:0:
494,243,71381,6,0,B|456:228|425:232|425:232|439:215|439:215|404:226|349:217,1,144.166666666667,6|0,0:1|0:0,0:0:0:0:
147,246,71555,5,2,0:0:0:0:
227,237,71641,1,2,0:0:0:0:
307,229,71728,1,2,0:0:0:0:
387,220,71815,1,2,0:0:0:0:
112,158,71988,5,2,0:0:0:0:
61,217,72075,1,2,0:0:0:0:
72,295,72162,1,2,0:0:0:0:
137,339,72248,5,6,0:1:0:0:
98,42,72508,1,6,0:1:0:0:
159,363,72768,1,6,0:1:0:0:
194,95,73029,1,6,0:1:0:0:
72,295,73289,1,6,0:1:0:0:
227,237,73462,1,6,0:1:0:0:
9,196,73636,6,0,B|39:335|39:335|57:304|86:282,1,194.625007424355,6|0,0:0|0:0,0:0:0:0:
227,237,73982,2,0,P|167:198|81:221,1,129.75000494957,2|0,0:0|0:0,0:0:0:0:
273,340,74329,2,0,L|418:325,1,129.75000494957,2|2,0:0|0:0,0:0:0:0:
346,134,74676,1,2,0:0:0:0:
333,232,74849,1,2,0:0:0:0:
359,36,75023,5,6,0:1:0:0:
402,326,75283,1,6,0:1:0:0:
133,180,75543,1,6,0:1:0:0:
434,129,75803,1,6,0:1:0:0:
160,309,76063,1,6,0:1:0:0:
262,171,76237,1,6,0:1:0:0:
402,326,76410,6,0,B|321:273|240:332|240:332|203:298|138:313,1,259.50000989914,6|0,0:0|0:0,0:0:0:0:
68,143,76930,1,2,0:0:0:0:
56,166,77017,2,0,L|49:341,1,129.75000494957,2|0,0:0|0:0,0:0:0:0:
70,277,77277,1,0,0:0:0:0:
241,331,77451,1,2,0:0:0:0:
241,331,77537,1,2,0:0:0:0:
191,51,77797,5,6,0:1:0:0:
402,326,78057,1,6,0:1:0:0:
70,277,78318,1,6,0:1:0:0:
326,51,78578,1,6,0:1:0:0:
204,375,78838,1,6,0:1:0:0:
131,164,79011,1,6,0:1:0:0:
250,302,79185,6,0,P|175:296|122:351,1,129.75000494957,6|0,0:0|0:0,0:0:0:0:
288,376,79445,1,2,0:0:0:0:
323,342,79531,2,0,P|332:299|319:253,1,64.8750024747849,2|2,0:0|0:0,0:0:0:0:
220,144,79705,2,0,L|230:219,1,64.8750024747849,2|0,0:0|0:0,0:0:0:0:
274,65,79878,1,2,0:0:0:0:
228,49,79965,1,0,0:0:0:0:
181,57,80052,1,0,0:0:0:0:
143,87,80138,1,2,0:0:0:0:
125,132,80225,2,0,L|134:185,6,32.4375012373925,2|0|0|0|0|0|0,0:0|0:0|0:0|0:0|0:0|0:0|0:0,0:0:0:0:
154,274,80572,5,6,0:1:0:0:
484,199,80832,1,6,0:1:0:0:
181,57,81092,1,6,0:1:0:0:
319,360,81352,1,6,0:1:0:0:
404,59,81612,1,6,0:1:0:0:
242,226,81786,1,6,0:1:0:0:
484,199,81959,5,6,0:0:0:0:
235,251,82133,1,2,0:0:0:0:
228,276,82219,1,2,0:0:0:0:
342,141,82393,1,2,0:0:0:0:
335,116,82479,1,2,0:0:0:0:
477,224,82653,1,2,0:0:0:0:
470,249,82740,1,2,0:0:0:0:
235,251,82913,1,2,0:0:0:0:
242,226,83000,1,2,0:0:0:0:
416,356,83173,1,2,0:0:0:0:
248,118,83346,5,6,0:0:0:0:
256,192,83433,12,0,85774,0:0:0:0:
346,223,86121,6,0,L|339:110,1,86.5,2|0,0:0|0:0,0:0:0:0:
175,164,86381,2,0,P|213:185|256:191,1,86.5,2|0,0:0|0:0,0:0:0:0:
246,91,86641,1,2,0:0:0:0:
159,192,86815,1,2,0:0:0:0:
143,220,86901,2,0,L|150:333,1,86.5,2|2,0:0|0:0,0:0:0:0:
313,278,87162,2,0,P|275:257|232:251,1,86.5,2|2,0:0|0:0,0:0:0:0:
336,301,87422,1,2,0:0:0:0:
360,324,87508,6,0,L|467:312,1,90.8249972282411,2|0,0:0|0:0,0:0:0:0:
413,142,87768,2,0,P|394:186|401:240,1,90.8249972282411,2|2,0:0|0:0,0:0:0:0:
497,133,88029,1,2,0:0:0:0:
480,91,88115,1,2,0:0:0:0:
444,64,88202,1,2,0:0:0:0:
399,60,88289,1,2,0:0:0:0:
212,121,88462,1,2,0:0:0:0:
246,91,88549,1,2,0:0:0:0:
174,201,88722,1,2,0:0:0:0:
138,172,88809,1,2,0:0:0:0:
123,130,88896,6,0,L|133:18,1,95.1500029037476,2|0,0:0|0:0,0:0:0:0:
280,61,89156,2,0,L|270:173,1,95.1500029037476,2|0,0:0|0:0,0:0:0:0:
183,283,89416,1,2,0:0:0:0:
209,246,89503,1,2,0:0:0:0:
251,231,89589,1,2,0:0:0:0:
295,240,89676,1,2,0:0:0:0:
423,361,89849,1,2,0:0:0:0:
437,317,89936,1,2,0:0:0:0:
259,317,90110,1,2,0:0:0:0:
451,273,90283,5,2,0:0:0:0:
272,148,90456,1,2,0:0:0:0:
283,194,90543,1,2,0:0:0:0:
438,229,90716,1,2,0:0:0:0:
427,183,90803,1,2,0:0:0:0:
314,276,90977,1,2,0:0:0:0:
267,278,91063,1,2,0:0:0:0:
224,257,91150,1,2,0:0:0:0:
198,218,91237,1,2,0:0:0:0:
296,28,91410,1,2,0:0:0:0:
292,83,91497,1,2,0:0:0:0:
287,138,91583,1,2,0:0:0:0:
283,194,91670,5,6,0:0:0:0:
287,138,93057,5,6,0:0:0:0:
292,83,94445,5,6,0:0:0:0:
296,28,95138,5,6,0:0:0:0:
314,276,95832,5,6,0:0:0:0:
165,146,96005,1,2,0:0:0:0:
160,188,96092,1,2,0:0:0:0:
300,359,96266,1,2,0:0:0:0:
306,317,96352,1,2,0:0:0:0:
103,263,96526,5,2,0:0:0:0:
154,283,96612,1,2,0:0:0:0:
208,270,96699,1,2,0:0:0:0:
245,229,96786,1,2,0:0:0:0:
180,21,96873,5,6,0:1:0:0:
175,62,96959,1,6,0:1:0:0:
170,104,97046,1,6,0:1:0:0:
165,146,97133,1,6,0:1:0:0:
160,188,97219,6,0,L|329:170,1,151.375001443625,6|0,0:0|0:0,0:0:0:0:
481,60,97479,2,0,P|424:122|417:200,1,151.375001443625,2|0,0:0|0:0,0:0:0:0:
489,331,97740,1,2,0:0:0:0:
437,295,97826,1,0,0:0:0:0:
375,285,97913,1,2,0:0:0:0:
316,303,98000,1,2,0:0:0:0:
264,338,98086,1,2,0:0:0:0:
202,348,98173,1,2,0:0:0:0:
143,330,98260,6,0,L|151:234,1,75.6875007218123,6|2,0:1|0:0,0:0:0:0:
303,96,98433,2,0,L|312:189,1,75.6875007218123,6|2,0:1|0:0,0:0:0:0:
67,144,98607,6,0,P|143:116|214:181,1,151.375001443625,6|0,0:0|0:0,0:0:0:0:
122,347,98867,2,0,B|126:300|126:300|129:292|129:292|127:281|127:281|133:182,1,151.375001443625,2|0,0:0|0:0,0:0:0:0:
303,96,99127,1,2,0:0:0:0:
322,143,99214,1,0,0:0:0:0:
318,193,99300,1,2,0:0:0:0:
291,235,99387,1,2,0:0:0:0:
207,83,99560,1,2,0:0:0:0:
207,83,99647,1,2,0:0:0:0:
232,33,99734,1,2,0:0:0:0:
281,5,99820,1,2,0:0:0:0:
336,8,99907,1,2,0:0:0:0:
381,42,99994,6,0,L|371:200,1,151.375001443625,6|0,0:0|0:0,0:0:0:0:
297,312,100254,2,0,P|382:285|440:322,1,151.375001443625,2|0,0:0|0:0,0:0:0:0:
216,364,100514,1,2,0:0:0:0:
165,357,100601,1,0,0:0:0:0:
115,351,100688,1,2,0:0:0:0:
65,345,100774,1,2,0:0:0:0:
147,104,100948,1,2,0:0:0:0:
147,104,101034,1,2,0:0:0:0:
170,148,101121,1,0,0:0:0:0:
172,198,101208,1,2,0:0:0:0:
152,244,101294,1,2,0:0:0:0:
85,176,101381,6,0,L|247:187,1,151.375001443625,6|0,0:0|0:0,0:0:0:0:
448,301,101641,2,0,L|286:312,1,151.375001443625,2|0,0:0|0:0,0:0:0:0:
383,99,101901,2,0,B|375:200,1,75.6875007218123,2|0,0:0|0:0,0:0:0:0:
316,46,102075,5,2,0:0:0:0:
357,19,102162,1,2,0:0:0:0:
407,19,102248,1,2,0:0:0:0:
449,46,102335,1,2,0:0:0:0:
383,99,102422,5,6,0:1:0:0:
299,94,102508,1,2,0:0:0:0:
216,90,102595,1,2,0:0:0:0:
133,86,102682,1,2,0:0:0:0:
50,82,102768,6,0,B|50:127|77:150|77:150|89:192|65:246,1,151.375001443625,6|0,0:0|0:0,0:0:0:0:
88,324,103029,2,0,B|54:337|54:337|76:204,1,151.375001443625,2|0,0:0|0:0,0:0:0:0:
271,341,103289,1,2,0:0:0:0:
228,366,103375,1,0,0:0:0:0:
178,369,103462,1,2,0:0:0:0:
132,348,103549,2,0,L|151:262,1,75.6875007218123,2|2,0:0|0:0,0:0:0:0:
302,94,103722,1,2,0:0:0:0:
302,94,103809,1,6,0:1:0:0:
291,176,103896,1,6,0:1:0:0:
281,259,103982,1,6,0:1:0:0:
271,341,104069,1,6,0:1:0:0:
203,291,104156,6,0,L|392:309,1,151.375001443625,6|0,0:0|0:0,0:0:0:0:
130,362,104416,2,0,P|104:311|134:214,1,151.375001443625,2|0,0:0|0:0,0:0:0:0:
302,94,104676,1,2,0:0:0:0:
248,126,104763,1,0,0:0:0:0:
186,134,104849,1,2,0:0:0:0:
125,117,104936,1,2,0:0:0:0:
354,15,105110,1,2,0:0:0:0:
354,15,105196,1,2,0:0:0:0:
383,55,105283,1,2,0:0:0:0:
390,104,105370,1,2,0:0:0:0:
372,151,105456,1,2,0:0:0:0:
292,219,105543,6,0,P|434:231|448:249,1,151.375001443625,6|0,0:0|0:0,0:0:0:0:
265,348,105803,2,0,L|87:336,1,151.375001443625,2|0,0:0|0:0,0:0:0:0:
157,94,106063,1,2,0:0:0:0:
186,134,106150,1,0,0:0:0:0:
196,183,106237,1,2,0:0:0:0:
183,231,106323,1,2,0:0:0:0:
44,68,106497,1,2,0:0:0:0:
44,68,106583,1,2,0:0:0:0:
127,63,106670,1,0,0:0:0:0:
210,59,106757,1,2,0:0:0:0:
293,54,106844,1,2,0:0:0:0:
375,48,106930,6,0,B|409:21|409:21|391:136,1,151.375001443625,6|0,0:0|0:0,0:0:0:0:
267,242,107190,6,0,B|226:226|226:226|335:184,1,151.375001443625,6|0,0:0|0:0,0:0:0:0:
487,237,107451,6,0,B|493:279|493:279|402:206,1,151.375001443625,6|0,0:0|0:0,0:0:0:0:
173,125,107624,1,2,0:0:0:0:
122,189,107711,1,0,0:0:0:0:
125,270,107797,1,2,0:0:0:0:
180,330,107884,1,2,0:0:0:0:
346,73,108057,5,2,0:0:0:0:
245,71,108144,1,2,0:0:0:0:
144,69,108231,1,2,0:0:0:0:
44,68,108318,5,6,0:1:0:0:
408,210,108578,1,6,0:1:0:0:
51,332,108838,1,6,0:1:0:0:
346,73,109098,1,6,0:1:0:0:
2,179,109358,1,6,0:1:0:0:
180,330,109531,1,6,0:1:0:0:
177,81,109705,6,0,B|162:120|138:132|138:132|145:148|145:148|127:167|126:214,1,129.75000494957,6|0,0:0|0:0,0:0:0:0:
294,261,109965,1,0,0:0:0:0:
294,261,110052,1,8,0:0:0:0:
260,219,110138,1,0,0:0:0:0:
210,200,110225,1,0,0:0:0:0:
309,308,110399,2,0,L|304:347,6,32.4375012373925,2|0|0|0|0|0|0,0:0|0:0|0:0|0:0|0:0|0:0|0:0,0:0:0:0:
346,183,110745,1,8,0:0:0:0:
180,330,110919,2,0,L|104:320,1,64.8750024747849
10,303,111092,5,6,0:1:0:0:
177,81,111352,1,6,0:1:0:0:
168,360,111612,1,6,0:1:0:0:
151,53,111873,1,6,0:1:0:0:
309,308,112133,1,6,0:1:0:0:
120,245,112306,1,6,0:1:0:0:
366,237,112479,6,0,P|395:294|381:359,1,129.75000494957,6|0,0:0|0:0,0:0:0:0:
284,227,112740,1,0,0:0:0:0:
294,180,112826,2,0,P|343:149|377:146,1,64.8750024747849,8|0,0:0|0:0,0:0:0:0:
498,309,113000,2,0,L|430:299,1,64.8750024747849
439,144,113173,2,0,L|476:152,2,32.4375012373925,2|0|0,0:0|0:0|0:0,0:0:0:0:
269,77,113433,1,2,0:0:0:0:
366,237,113607,1,2,0:0:0:0:
366,237,113693,1,2,0:0:0:0:
288,0,113867,5,6,0:1:0:0:
156,354,114127,1,6,0:1:0:0:
97,64,114387,1,6,0:1:0:0:
366,237,114647,1,6,0:1:0:0:
42,300,114907,1,6,0:1:0:0:
219,191,115081,1,6,0:1:0:0:
152,267,115254,6,0,P|121:203|131:144,1,129.75000494957,6|0,0:0|0:0,0:0:0:0:
348,208,115514,1,0,0:0:0:0:
348,208,115601,1,8,0:0:0:0:
284,199,115688,1,0,0:0:0:0:
219,191,115774,1,0,0:0:0:0:
412,217,115948,2,0,L|470:225,6,32.4375012373925,2|0|0|0|0|0|0,0:0|0:0|0:0|0:0|0:0|0:0|0:0,0:0:0:0:
249,277,116294,1,8,0:0:0:0:
396,66,116468,2,0,L|387:138,1,64.8750024747849,2|2,0:0|0:0,0:0:0:0:
370,292,116641,5,6,0:1:0:0:
287,44,116901,1,6,0:1:0:0:
298,379,117162,1,6,0:1:0:0:
396,66,117422,1,6,0:1:0:0:
99,158,117682,1,6,0:1:0:0:
249,277,117855,1,6,0:1:0:0:
66,85,118029,6,0,L|47:219,1,129.75000494957,6|0,0:0|0:0,0:0:0:0:
117,286,118289,2,0,L|98:152,1,129.75000494957,2|0,0:0|0:0,0:0:0:0:
27,338,118549,1,2,0:0:0:0:
233,323,118722,1,2,0:0:0:0:
249,277,118809,1,2,0:0:0:0:
82,111,118982,1,2,0:0:0:0:
98,157,119069,5,2,0:0:0:0:
114,203,119416,5,2,0:0:0:0:
256,192,119503,12,0,121150,0:0:0:0:
