osu file format v14

[General]
AudioFilename: audio.mp3
AudioLeadIn: 0
PreviewTime: 225335
Countdown: 0
SampleSet: None
StackLeniency: 0.7
Mode: 3
LetterboxInBreaks: 0
SpecialStyle: 0
WidescreenStoryboard: 1

[Editor]
DistanceSpacing: 1.1
BeatDivisor: 4
GridSize: 8
TimelineZoom: 2.999999

[Metadata]
Title:FULL MEME NIGHT
TitleUnicode:FULL MEME NIGHT
Artist:DJ UNDERJOY vs his recorder
ArtistUnicode:DJ UNDERJOY vs his recorder
Creator:prebert123
Version:prebert's JOYremover
Source:mr underjoy ofcourse lol
Tags:meme
BeatmapID:1879167
BeatmapSetID:899628

[Difficulty]
HPDrainRate:0
CircleSize:4
OverallDifficulty:0
ApproachRate:5
SliderMultiplier:1.4
SliderTickRate:1

[Events]
//Background and Video events
0,0,"bg.png",0,0
//Break Periods
2,65848,74244
//Storyboard Layer 0 (Background)
//Storyboard Layer 1 (Fail)
//Storyboard Layer 2 (Pass)
//Storyboard Layer 3 (Foreground)
//Storyboard Sound Samples

[TimingPoints]
649,300,4,2,1,20,1,0
1105,300,4,2,1,20,1,0
13081,300,4,2,1,20,1,0
13359,300,4,2,1,20,1,0
17859,300,4,2,1,20,1,0
18080,300,4,2,1,20,1,0
27345,300,4,2,1,20,1,0
36923,300,4,2,1,20,1,0
46523,300,4,2,1,20,1,0
47648,300,4,2,1,20,1,0
65650,352.941176470588,4,2,1,20,1,0
65650,-85.4700854700855,4,2,1,20,0,0
76560,352.941176470588,4,2,1,20,1,0
76560,-85.4700854700855,4,2,1,20,0,0
99129,311.688311688312,4,2,1,20,1,0
99129,-133.333333333333,4,2,1,20,0,0
119030,352.941176470588,4,2,1,20,1,0
119030,-85.4700854700855,4,2,1,20,0,0
130350,352.941176470588,4,2,1,20,1,0
130350,-85.4700854700855,4,2,1,20,0,0
141600,333.333333333333,4,2,1,20,1,0
141600,-90.0900900900901,4,2,1,20,0,0
151680,285.714285714286,4,2,1,20,1,0
151680,-105.263157894737,4,2,1,20,0,0
152270,285.714285714286,4,2,1,20,1,0
152270,-105.263157894737,4,2,1,20,0,0
154500,285.714285714286,4,2,1,20,1,0
154500,-105.263157894737,4,2,1,20,0,0
156775,285.714285714286,4,2,1,20,1,0
156775,-105.263157894737,4,2,1,20,0,0
159025,285.714285714286,4,2,1,20,1,0
159025,-105.263157894737,4,2,1,20,0,0
169310,428.571428571429,4,2,1,20,1,1
169310,-70.4225352112676,4,2,1,20,0,1
170615,428.571428571429,4,2,1,20,1,1
170615,-70.4225352112676,4,2,1,20,0,1
184296,240,4,2,1,20,1,0
184296,-125,4,2,1,20,0,0
191916,-500,4,2,1,20,0,0
192456,-125,4,2,1,20,0,0
192945,240,4,2,1,20,1,0
192945,-125,4,2,1,20,0,0
200645,240,4,2,1,20,1,0
200645,-125,4,2,1,20,0,0
225343,214.285714285714,4,2,1,20,1,0
225343,-140.845070422535,4,2,1,20,0,0
225450,-1000,4,2,1,20,0,0
225610,-33.3333333333333,4,2,1,20,0,0
225664,-1000,4,2,1,20,0,0
225825,-33.3333333333333,4,2,1,20,0,0
225878,-1000,4,2,1,20,0,0
226039,-33.3333333333333,4,2,1,20,0,0
226093,-1000,4,2,1,20,0,0
226253,-33.3333333333333,4,2,1,20,0,0
226307,-1000,4,2,1,20,0,0
226360,-50,4,2,1,20,0,0
226414,-1000,4,2,1,20,0,0
226468,-50,4,2,1,20,0,0
226521,-1000,4,2,1,20,0,0
226575,-50,4,2,1,20,0,0
226628,-1000,4,2,1,20,0,0
226789,-33.3333333333333,4,2,1,20,0,0
226843,-1000,4,2,1,20,0,0
227003,-33.3333333333333,4,2,1,20,0,0
227030,234.375,4,2,1,20,1,0
227030,-125,4,2,1,20,0,0
228880,285.714285714286,4,2,1,20,1,0
228880,-105.263157894737,4,2,1,20,0,0

[HitObjects]
448,192,649,5,0,0:0:0:0:
448,192,799,1,0,0:0:0:0:
64,192,949,1,0,0:0:0:0:
192,192,1105,1,0,0:0:0:0:
448,192,1105,1,0,0:0:0:0:
64,192,1405,1,0,0:0:0:0:
192,192,1555,1,0,0:0:0:0:
320,192,1630,1,0,0:0:0:0:
64,192,1705,1,0,0:0:0:0:
448,192,1705,1,0,0:0:0:0:
320,192,1855,1,0,0:0:0:0:
448,192,1930,1,0,0:0:0:0:
320,192,2005,1,0,0:0:0:0:
64,192,2005,1,0,0:0:0:0:
448,192,2155,1,0,0:0:0:0:
192,192,2155,1,0,0:0:0:0:
320,192,2305,1,0,0:0:0:0:
64,192,2305,1,0,0:0:0:0:
320,192,3055,1,0,0:0:0:0:
64,192,3055,1,0,0:0:0:0:
64,192,3205,1,0,0:0:0:0:
320,192,3205,1,0,0:0:0:0:
192,192,3355,1,0,0:0:0:0:
320,192,3355,1,0,0:0:0:0:
448,192,3505,1,0,0:0:0:0:
320,192,3505,1,0,0:0:0:0:
64,192,3505,1,0,0:0:0:0:
64,192,3805,1,0,0:0:0:0:
448,192,3955,1,0,0:0:0:0:
320,192,4030,1,0,0:0:0:0:
192,192,4105,1,0,0:0:0:0:
64,192,4180,1,0,0:0:0:0:
192,192,4255,1,0,0:0:0:0:
320,192,4330,1,0,0:0:0:0:
448,192,4405,1,0,0:0:0:0:
320,192,4480,1,0,0:0:0:0:
192,192,4555,1,0,0:0:0:0:
64,192,4630,1,0,0:0:0:0:
320,192,4705,1,0,0:0:0:0:
448,192,4705,1,0,0:0:0:0:
192,192,4705,1,0,0:0:0:0:
448,192,5005,1,0,0:0:0:0:
64,192,5005,1,0,0:0:0:0:
192,192,5005,1,0,0:0:0:0:
192,192,5286,1,0,0:0:0:0:
320,192,5305,1,0,0:0:0:0:
448,192,5305,1,0,0:0:0:0:
64,192,5305,128,0,5605:0:0:0:0:
448,192,5605,1,0,0:0:0:0:
192,192,5605,1,0,0:0:0:0:
64,192,5905,1,0,0:0:0:0:
192,192,5905,1,0,0:0:0:0:
320,192,5905,1,0,0:0:0:0:
448,192,5905,1,0,0:0:0:0:
64,192,6205,1,0,0:0:0:0:
192,192,6280,1,0,0:0:0:0:
320,192,6355,1,0,0:0:0:0:
448,192,6430,1,0,0:0:0:0:
64,192,6505,1,0,0:0:0:0:
192,192,6580,1,0,0:0:0:0:
320,192,6655,1,0,0:0:0:0:
448,192,6730,1,0,0:0:0:0:
64,192,6805,1,0,0:0:0:0:
192,192,6880,1,0,0:0:0:0:
320,192,6955,1,0,0:0:0:0:
448,192,7030,1,0,0:0:0:0:
64,192,7105,1,0,0:0:0:0:
192,192,7180,1,0,0:0:0:0:
320,192,7255,1,0,0:0:0:0:
448,192,7330,1,0,0:0:0:0:
320,192,7405,1,0,0:0:0:0:
192,192,7480,1,0,0:0:0:0:
64,192,7555,1,0,0:0:0:0:
192,192,7630,1,0,0:0:0:0:
320,192,7705,1,0,0:0:0:0:
448,192,7780,1,0,0:0:0:0:
320,192,7855,1,0,0:0:0:0:
192,192,7930,1,0,0:0:0:0:
64,192,8005,1,0,0:0:0:0:
320,192,8005,1,0,0:0:0:0:
448,192,8005,1,0,0:0:0:0:
64,192,8305,1,0,0:0:0:0:
320,192,8305,1,0,0:0:0:0:
192,192,8380,1,0,0:0:0:0:
320,192,8455,1,0,0:0:0:0:
448,192,8530,1,0,0:0:0:0:
192,192,8605,1,0,0:0:0:0:
64,192,8680,1,0,0:0:0:0:
320,192,8755,1,0,0:0:0:0:
448,192,8830,1,0,0:0:0:0:
64,192,8905,1,0,0:0:0:0:
192,192,8980,1,0,0:0:0:0:
320,192,9055,1,0,0:0:0:0:
448,192,9130,1,0,0:0:0:0:
64,192,9130,1,0,0:0:0:0:
192,192,9205,1,0,0:0:0:0:
320,192,9280,1,0,0:0:0:0:
448,192,9355,1,0,0:0:0:0:
320,192,9430,1,0,0:0:0:0:
192,192,9505,1,0,0:0:0:0:
64,192,9580,1,0,0:0:0:0:
448,192,9580,1,0,0:0:0:0:
320,192,9655,1,0,0:0:0:0:
64,192,9730,1,0,0:0:0:0:
192,192,9805,1,0,0:0:0:0:
320,192,9880,1,0,0:0:0:0:
448,192,9955,1,0,0:0:0:0:
192,192,10030,1,0,0:0:0:0:
64,192,10105,1,0,0:0:0:0:
320,192,10180,1,0,0:0:0:0:
192,192,10255,1,0,0:0:0:0:
64,192,10330,1,0,0:0:0:0:
448,192,10330,1,0,0:0:0:0:
192,192,10405,1,0,0:0:0:0:
320,192,10480,1,0,0:0:0:0:
448,192,10555,1,0,0:0:0:0:
320,192,10630,1,0,0:0:0:0:
192,192,10705,1,0,0:0:0:0:
64,192,10705,1,0,0:0:0:0:
448,192,10780,1,0,0:0:0:0:
320,192,10855,1,0,0:0:0:0:
192,192,10930,1,0,0:0:0:0:
64,192,11005,1,0,0:0:0:0:
448,192,11005,1,0,0:0:0:0:
320,192,11080,1,0,0:0:0:0:
192,192,11155,1,0,0:0:0:0:
64,192,11230,1,0,0:0:0:0:
448,192,11305,1,0,0:0:0:0:
320,192,11380,1,0,0:0:0:0:
64,192,11455,1,0,0:0:0:0:
192,192,11530,1,0,0:0:0:0:
320,192,11605,1,0,0:0:0:0:
448,192,11680,1,0,0:0:0:0:
64,192,11755,1,0,0:0:0:0:
192,192,11830,1,0,0:0:0:0:
320,192,11905,1,0,0:0:0:0:
64,192,11905,1,0,0:0:0:0:
448,192,11980,1,0,0:0:0:0:
320,192,12055,1,0,0:0:0:0:
192,192,12130,1,0,0:0:0:0:
64,192,12205,1,0,0:0:0:0:
192,192,12280,1,0,0:0:0:0:
320,192,12355,1,0,0:0:0:0:
448,192,12430,1,0,0:0:0:0:
320,192,12505,1,0,0:0:0:0:
192,192,12505,1,0,0:0:0:0:
448,192,12580,1,0,0:0:0:0:
64,192,12655,1,0,0:0:0:0:
448,192,12730,1,0,0:0:0:0:
192,192,12805,1,0,0:0:0:0:
64,192,12805,1,0,0:0:0:0:
320,192,12880,1,0,0:0:0:0:
448,192,12955,1,0,0:0:0:0:
320,192,13030,1,0,0:0:0:0:
64,192,13081,1,0,0:0:0:0:
192,192,13081,1,0,0:0:0:0:
320,192,13156,1,0,0:0:0:0:
448,192,13231,1,0,0:0:0:0:
320,192,13306,1,0,0:0:0:0:
192,192,13359,1,0,0:0:0:0:
64,192,13434,1,0,0:0:0:0:
192,192,13509,1,0,0:0:0:0:
320,192,13584,1,0,0:0:0:0:
448,192,13659,1,0,0:0:0:0:
64,192,13734,1,0,0:0:0:0:
192,192,13809,1,0,0:0:0:0:
320,192,13884,1,0,0:0:0:0:
192,192,13959,1,0,0:0:0:0:
64,192,13959,1,0,0:0:0:0:
448,192,14034,1,0,0:0:0:0:
320,192,14109,1,0,0:0:0:0:
64,192,14184,1,0,0:0:0:0:
320,192,14259,1,0,0:0:0:0:
192,192,14334,1,0,0:0:0:0:
64,192,14409,1,0,0:0:0:0:
192,192,14484,1,0,0:0:0:0:
320,192,14559,1,0,0:0:0:0:
448,192,14634,1,0,0:0:0:0:
320,192,14709,1,0,0:0:0:0:
192,192,14784,1,0,0:0:0:0:
64,192,14859,1,0,0:0:0:0:
192,192,14934,1,0,0:0:0:0:
320,192,15009,1,0,0:0:0:0:
448,192,15084,1,0,0:0:0:0:
320,192,15159,1,0,0:0:0:0:
192,192,15234,1,0,0:0:0:0:
320,192,15309,1,0,0:0:0:0:
64,192,15384,1,0,0:0:0:0:
192,192,15459,1,0,0:0:0:0:
448,192,15459,1,0,0:0:0:0:
320,192,15459,1,0,0:0:0:0:
64,192,15534,1,0,0:0:0:0:
192,192,15609,1,0,0:0:0:0:
320,192,15684,1,0,0:0:0:0:
448,192,15759,1,0,0:0:0:0:
192,192,15759,1,0,0:0:0:0:
64,192,15759,1,0,0:0:0:0:
320,192,15834,1,0,0:0:0:0:
192,192,15909,1,0,0:0:0:0:
64,192,15984,1,0,0:0:0:0:
192,192,16059,1,0,0:0:0:0:
320,192,16059,1,0,0:0:0:0:
448,192,16059,1,0,0:0:0:0:
64,192,16134,1,0,0:0:0:0:
192,192,16209,1,0,0:0:0:0:
320,192,16284,1,0,0:0:0:0:
448,192,16359,1,0,0:0:0:0:
192,192,16359,1,0,0:0:0:0:
64,192,16359,1,0,0:0:0:0:
320,192,16434,1,0,0:0:0:0:
192,192,16509,1,0,0:0:0:0:
64,192,16584,1,0,0:0:0:0:
192,192,16659,1,0,0:0:0:0:
320,192,16659,1,0,0:0:0:0:
448,192,16659,1,0,0:0:0:0:
64,192,16734,1,0,0:0:0:0:
192,192,16809,1,0,0:0:0:0:
448,192,16884,1,0,0:0:0:0:
64,192,16959,1,0,0:0:0:0:
320,192,16959,1,0,0:0:0:0:
192,192,17034,1,0,0:0:0:0:
320,192,17109,1,0,0:0:0:0:
448,192,17184,1,0,0:0:0:0:
192,192,17259,1,0,0:0:0:0:
64,192,17259,1,0,0:0:0:0:
320,192,17334,1,0,0:0:0:0:
448,192,17334,1,0,0:0:0:0:
192,192,17409,1,0,0:0:0:0:
64,192,17409,1,0,0:0:0:0:
320,192,17484,1,0,0:0:0:0:
448,192,17484,1,0,0:0:0:0:
192,192,17559,1,0,0:0:0:0:
64,192,17559,1,0,0:0:0:0:
320,192,17634,1,0,0:0:0:0:
448,192,17634,1,0,0:0:0:0:
192,192,17709,1,0,0:0:0:0:
64,192,17709,1,0,0:0:0:0:
320,192,17784,1,0,0:0:0:0:
448,192,17784,1,0,0:0:0:0:
192,192,17859,1,0,0:0:0:0:
64,192,17859,1,0,0:0:0:0:
448,192,17934,1,0,0:0:0:0:
320,192,18009,1,0,0:0:0:0:
64,192,18080,1,0,0:0:0:0:
192,192,18155,1,0,0:0:0:0:
448,192,18230,1,0,0:0:0:0:
320,192,18305,1,0,0:0:0:0:
64,192,18380,1,0,0:0:0:0:
192,192,18455,1,0,0:0:0:0:
320,192,18530,1,0,0:0:0:0:
448,192,18605,1,0,0:0:0:0:
64,192,18680,1,0,0:0:0:0:
192,192,18755,1,0,0:0:0:0:
320,192,18830,1,0,0:0:0:0:
448,192,18905,1,0,0:0:0:0:
320,192,18980,1,0,0:0:0:0:
192,192,19055,1,0,0:0:0:0:
64,192,19130,1,0,0:0:0:0:
192,192,19205,1,0,0:0:0:0:
448,192,19280,1,0,0:0:0:0:
320,192,19280,1,0,0:0:0:0:
64,192,19355,1,0,0:0:0:0:
192,192,19355,1,0,0:0:0:0:
320,192,19430,1,0,0:0:0:0:
448,192,19430,1,0,0:0:0:0:
192,192,19505,1,0,0:0:0:0:
64,192,19505,1,0,0:0:0:0:
320,192,19580,1,0,0:0:0:0:
448,192,19580,1,0,0:0:0:0:
192,192,19655,1,0,0:0:0:0:
64,192,19655,1,0,0:0:0:0:
320,192,19730,1,0,0:0:0:0:
448,192,19730,1,0,0:0:0:0:
192,192,19805,1,0,0:0:0:0:
64,192,19805,1,0,0:0:0:0:
320,192,19880,1,0,0:0:0:0:
448,192,19880,1,0,0:0:0:0:
192,192,19955,1,0,0:0:0:0:
64,192,19955,1,0,0:0:0:0:
448,192,20030,1,0,0:0:0:0:
320,192,20030,1,0,0:0:0:0:
64,192,20105,1,0,0:0:0:0:
192,192,20180,1,0,0:0:0:0:
64,192,20255,1,0,0:0:0:0:
448,192,20330,1,0,0:0:0:0:
320,192,20405,1,0,0:0:0:0:
192,192,20480,1,0,0:0:0:0:
64,192,20555,1,0,0:0:0:0:
192,192,20630,1,0,0:0:0:0:
320,192,20705,1,0,0:0:0:0:
448,192,20780,1,0,0:0:0:0:
320,192,20855,1,0,0:0:0:0:
192,192,20930,1,0,0:0:0:0:
64,192,21005,1,0,0:0:0:0:
192,192,21080,1,0,0:0:0:0:
320,192,21155,1,0,0:0:0:0:
448,192,21230,1,0,0:0:0:0:
320,192,21305,1,0,0:0:0:0:
192,192,21380,1,0,0:0:0:0:
64,192,21455,1,0,0:0:0:0:
192,192,21530,1,0,0:0:0:0:
320,192,21605,1,0,0:0:0:0:
448,192,21680,1,0,0:0:0:0:
64,192,21680,1,0,0:0:0:0:
192,192,21755,1,0,0:0:0:0:
320,192,21830,1,0,0:0:0:0:
448,192,21905,1,0,0:0:0:0:
320,192,21980,1,0,0:0:0:0:
192,192,22055,1,0,0:0:0:0:
64,192,22130,1,0,0:0:0:0:
448,192,22130,1,0,0:0:0:0:
320,192,22205,1,0,0:0:0:0:
192,192,22280,1,0,0:0:0:0:
64,192,22355,1,0,0:0:0:0:
448,192,22430,1,0,0:0:0:0:
320,192,22505,1,0,0:0:0:0:
448,192,22580,1,0,0:0:0:0:
320,192,22655,1,0,0:0:0:0:
192,192,22730,1,0,0:0:0:0:
64,192,22805,1,0,0:0:0:0:
448,192,22880,1,0,0:0:0:0:
320,192,22955,1,0,0:0:0:0:
192,192,23030,1,0,0:0:0:0:
64,192,23105,1,0,0:0:0:0:
192,192,23180,1,0,0:0:0:0:
320,192,23255,1,0,0:0:0:0:
448,192,23330,1,0,0:0:0:0:
320,192,23405,1,0,0:0:0:0:
192,192,23480,1,0,0:0:0:0:
64,192,23555,1,0,0:0:0:0:
192,192,23630,1,0,0:0:0:0:
320,192,23705,1,0,0:0:0:0:
448,192,23780,1,0,0:0:0:0:
320,192,23855,1,0,0:0:0:0:
192,192,23930,1,0,0:0:0:0:
64,192,24005,1,0,0:0:0:0:
448,192,24080,1,0,0:0:0:0:
320,192,24155,1,0,0:0:0:0:
192,192,24230,1,0,0:0:0:0:
64,192,24305,1,0,0:0:0:0:
448,192,24380,1,0,0:0:0:0:
320,192,24455,1,0,0:0:0:0:
64,192,24530,1,0,0:0:0:0:
192,192,24605,1,0,0:0:0:0:
320,192,24680,1,0,0:0:0:0:
448,192,24755,1,0,0:0:0:0:
320,192,24830,1,0,0:0:0:0:
192,192,24905,1,0,0:0:0:0:
448,192,24980,1,0,0:0:0:0:
64,192,25030,1,0,0:0:0:0:
192,192,25080,1,0,0:0:0:0:
320,192,25130,1,0,0:0:0:0:
448,192,25180,1,0,0:0:0:0:
64,192,25230,1,0,0:0:0:0:
192,192,25280,1,0,0:0:0:0:
320,192,25330,1,0,0:0:0:0:
448,192,25380,1,0,0:0:0:0:
64,192,25430,1,0,0:0:0:0:
192,192,25480,1,0,0:0:0:0:
320,192,25530,1,0,0:0:0:0:
448,192,25580,1,0,0:0:0:0:
64,192,25630,1,0,0:0:0:0:
192,192,25680,1,0,0:0:0:0:
320,192,25730,1,0,0:0:0:0:
448,192,25780,1,0,0:0:0:0:
320,192,25880,1,0,0:0:0:0:
192,192,25955,1,0,0:0:0:0:
64,192,26030,1,0,0:0:0:0:
192,192,26105,1,0,0:0:0:0:
320,192,26180,1,0,0:0:0:0:
448,192,26180,1,0,0:0:0:0:
192,192,26255,1,0,0:0:0:0:
64,192,26330,1,0,0:0:0:0:
192,192,26405,1,0,0:0:0:0:
320,192,26480,1,0,0:0:0:0:
448,192,26480,1,0,0:0:0:0:
192,192,26555,1,0,0:0:0:0:
64,192,26630,1,0,0:0:0:0:
192,192,26705,1,0,0:0:0:0:
320,192,26780,1,0,0:0:0:0:
448,192,26855,1,0,0:0:0:0:
320,192,26930,1,0,0:0:0:0:
192,192,27005,1,0,0:0:0:0:
64,192,27080,1,0,0:0:0:0:
192,192,27155,1,0,0:0:0:0:
320,192,27230,1,0,0:0:0:0:
448,192,27305,1,0,0:0:0:0:
320,192,27420,1,0,0:0:0:0:
192,192,27420,1,0,0:0:0:0:
64,192,27495,1,0,0:0:0:0:
192,192,27545,1,0,0:0:0:0:
448,192,27595,1,0,0:0:0:0:
320,192,27645,1,0,0:0:0:0:
64,192,27695,1,0,0:0:0:0:
192,192,27745,1,0,0:0:0:0:
448,192,27795,1,0,0:0:0:0:
320,192,27845,1,0,0:0:0:0:
64,192,27895,1,0,0:0:0:0:
192,192,27945,1,0,0:0:0:0:
448,192,27995,1,0,0:0:0:0:
320,192,28045,1,0,0:0:0:0:
64,192,28095,1,0,0:0:0:0:
192,192,28145,1,0,0:0:0:0:
448,192,28195,1,0,0:0:0:0:
320,192,28245,1,0,0:0:0:0:
64,192,28295,1,0,0:0:0:0:
192,192,28345,1,0,0:0:0:0:
448,192,28395,1,0,0:0:0:0:
320,192,28445,1,0,0:0:0:0:
64,192,28495,1,0,0:0:0:0:
192,192,28545,1,0,0:0:0:0:
448,192,28595,1,0,0:0:0:0:
320,192,28645,1,0,0:0:0:0:
64,192,28695,1,0,0:0:0:0:
192,192,28745,1,0,0:0:0:0:
448,192,28795,1,0,0:0:0:0:
320,192,28845,1,0,0:0:0:0:
64,192,28895,1,0,0:0:0:0:
192,192,28945,1,0,0:0:0:0:
448,192,28995,1,0,0:0:0:0:
320,192,29045,1,0,0:0:0:0:
64,192,29095,1,0,0:0:0:0:
192,192,29145,1,0,0:0:0:0:
320,192,29195,1,0,0:0:0:0:
448,192,29245,1,0,0:0:0:0:
64,192,29295,1,0,0:0:0:0:
192,192,29345,1,0,0:0:0:0:
448,192,29395,1,0,0:0:0:0:
320,192,29445,1,0,0:0:0:0:
64,192,29495,1,0,0:0:0:0:
192,192,29545,1,0,0:0:0:0:
448,192,29595,1,0,0:0:0:0:
320,192,29645,1,0,0:0:0:0:
64,192,29695,1,0,0:0:0:0:
192,192,29745,1,0,0:0:0:0:
320,192,29820,1,0,0:0:0:0:
448,192,29895,1,0,0:0:0:0:
320,192,29970,1,0,0:0:0:0:
192,192,30045,1,0,0:0:0:0:
64,192,30120,1,0,0:0:0:0:
192,192,30195,1,0,0:0:0:0:
448,192,30270,1,0,0:0:0:0:
320,192,30345,1,0,0:0:0:0:
192,192,30420,1,0,0:0:0:0:
64,192,30495,1,0,0:0:0:0:
448,192,30570,1,0,0:0:0:0:
320,192,30645,1,0,0:0:0:0:
192,192,30720,1,0,0:0:0:0:
64,192,30795,1,0,0:0:0:0:
448,192,30870,1,0,0:0:0:0:
320,192,30945,1,0,0:0:0:0:
64,192,31020,1,0,0:0:0:0:
192,192,31095,1,0,0:0:0:0:
320,192,31170,1,0,0:0:0:0:
448,192,31245,1,0,0:0:0:0:
64,192,31320,1,0,0:0:0:0:
192,192,31395,1,0,0:0:0:0:
320,192,31470,1,0,0:0:0:0:
448,192,31545,1,0,0:0:0:0:
320,192,31620,1,0,0:0:0:0:
192,192,31695,1,0,0:0:0:0:
64,192,31770,1,0,0:0:0:0:
192,192,31845,1,0,0:0:0:0:
320,192,31920,1,0,0:0:0:0:
448,192,31995,1,0,0:0:0:0:
320,192,32070,1,0,0:0:0:0:
192,192,32145,1,0,0:0:0:0:
64,192,32220,1,0,0:0:0:0:
448,192,32295,1,0,0:0:0:0:
320,192,32370,1,0,0:0:0:0:
192,192,32445,1,0,0:0:0:0:
64,192,32520,1,0,0:0:0:0:
192,192,32595,1,0,0:0:0:0:
448,192,32670,1,0,0:0:0:0:
320,192,32745,1,0,0:0:0:0:
192,192,32820,1,0,0:0:0:0:
64,192,32895,1,0,0:0:0:0:
192,192,32970,1,0,0:0:0:0:
320,192,33045,1,0,0:0:0:0:
448,192,33120,1,0,0:0:0:0:
320,192,33195,1,0,0:0:0:0:
192,192,33270,1,0,0:0:0:0:
64,192,33345,1,0,0:0:0:0:
320,192,33345,1,0,0:0:0:0:
448,192,33495,1,0,0:0:0:0:
192,192,33495,1,0,0:0:0:0:
320,192,33645,1,0,0:0:0:0:
64,192,33645,1,0,0:0:0:0:
448,192,33945,1,0,0:0:0:0:
192,192,33945,1,0,0:0:0:0:
320,192,34245,1,0,0:0:0:0:
192,192,34245,1,0,0:0:0:0:
192,192,34526,1,0,0:0:0:0:
64,192,34545,1,0,0:0:0:0:
320,192,34545,1,0,0:0:0:0:
192,192,35407,1,0,0:0:0:0:
320,192,35426,1,0,0:0:0:0:
64,192,35445,1,0,0:0:0:0:
448,192,35445,1,0,0:0:0:0:
192,192,35595,1,0,0:0:0:0:
320,192,35595,1,0,0:0:0:0:
320,192,35895,1,0,0:0:0:0:
192,192,36045,1,0,0:0:0:0:
64,192,36045,1,0,0:0:0:0:
448,192,36195,1,0,0:0:0:0:
320,192,36270,1,0,0:0:0:0:
64,192,36345,1,0,0:0:0:0:
192,192,36345,1,0,0:0:0:0:
320,192,36420,1,0,0:0:0:0:
448,192,36495,1,0,0:0:0:0:
320,192,36570,1,0,0:0:0:0:
192,192,36645,1,0,0:0:0:0:
64,192,36720,1,0,0:0:0:0:
448,192,36795,1,0,0:0:0:0:
320,192,36870,1,0,0:0:0:0:
192,192,36923,1,0,0:0:0:0:
64,192,36945,1,0,0:0:0:0:
320,192,37073,1,0,0:0:0:0:
448,192,37223,1,0,0:0:0:0:
192,192,37223,1,0,0:0:0:0:
192,192,37373,1,0,0:0:0:0:
192,192,37523,1,0,0:0:0:0:
448,192,37523,1,0,0:0:0:0:
320,192,37673,1,0,0:0:0:0:
320,192,37823,1,0,0:0:0:0:
64,192,37823,1,0,0:0:0:0:
192,192,37973,1,0,0:0:0:0:
192,192,38123,1,0,0:0:0:0:
448,192,38123,1,0,0:0:0:0:
448,192,38273,1,0,0:0:0:0:
448,192,38423,1,0,0:0:0:0:
64,192,38423,1,0,0:0:0:0:
192,192,38573,1,0,0:0:0:0:
192,192,38723,1,0,0:0:0:0:
448,192,38723,1,0,0:0:0:0:
64,192,38873,1,0,0:0:0:0:
192,192,38873,1,0,0:0:0:0:
448,192,39023,1,0,0:0:0:0:
320,192,39023,1,0,0:0:0:0:
64,192,39073,1,0,0:0:0:0:
192,192,39123,1,0,0:0:0:0:
320,192,39173,1,0,0:0:0:0:
448,192,39223,1,0,0:0:0:0:
320,192,39323,1,0,0:0:0:0:
192,192,39323,1,0,0:0:0:0:
64,192,39323,1,0,0:0:0:0:
448,192,39398,1,0,0:0:0:0:
320,192,39473,1,0,0:0:0:0:
192,192,39548,1,0,0:0:0:0:
64,192,39623,1,0,0:0:0:0:
448,192,39623,1,0,0:0:0:0:
320,192,39773,1,0,0:0:0:0:
320,192,39923,1,0,0:0:0:0:
192,192,39923,1,0,0:0:0:0:
192,192,40073,1,0,0:0:0:0:
192,192,40223,1,0,0:0:0:0:
64,192,40373,1,0,0:0:0:0:
192,192,40373,1,0,0:0:0:0:
448,192,40373,1,0,0:0:0:0:
320,192,40373,128,0,40823:0:0:0:0:
192,192,40673,1,0,0:0:0:0:
192,192,40823,1,0,0:0:0:0:
320,192,40973,1,0,0:0:0:0:
320,192,41123,1,0,0:0:0:0:
448,192,41273,1,0,0:0:0:0:
320,192,41423,1,0,0:0:0:0:
448,192,41573,1,0,0:0:0:0:
64,192,41723,1,0,0:0:0:0:
192,192,41723,1,0,0:0:0:0:
320,192,41723,1,0,0:0:0:0:
448,192,41723,128,0,42023:0:0:0:0:
64,192,42023,1,0,0:0:0:0:
192,192,42023,1,0,0:0:0:0:
320,192,42098,1,0,0:0:0:0:
192,192,42173,1,0,0:0:0:0:
64,192,42248,1,0,0:0:0:0:
448,192,42323,1,0,0:0:0:0:
320,192,42323,1,0,0:0:0:0:
64,192,42623,1,0,0:0:0:0:
192,192,42698,1,0,0:0:0:0:
320,192,42773,1,0,0:0:0:0:
448,192,42848,1,0,0:0:0:0:
192,192,42923,1,0,0:0:0:0:
64,192,42923,1,0,0:0:0:0:
320,192,43073,1,0,0:0:0:0:
192,192,43073,1,0,0:0:0:0:
448,192,43223,1,0,0:0:0:0:
320,192,43223,1,0,0:0:0:0:
320,192,43373,1,0,0:0:0:0:
192,192,43373,1,0,0:0:0:0:
192,192,43523,1,0,0:0:0:0:
64,192,43523,1,0,0:0:0:0:
448,192,43973,1,0,0:0:0:0:
320,192,44048,1,0,0:0:0:0:
192,192,44123,1,0,0:0:0:0:
64,192,44123,1,0,0:0:0:0:
320,192,44273,1,0,0:0:0:0:
192,192,44423,1,0,0:0:0:0:
64,192,44423,1,0,0:0:0:0:
320,192,44573,1,0,0:0:0:0:
192,192,44573,1,0,0:0:0:0:
64,192,44723,1,0,0:0:0:0:
192,192,44723,1,0,0:0:0:0:
448,192,44723,1,0,0:0:0:0:
320,192,44873,1,0,0:0:0:0:
192,192,44873,1,0,0:0:0:0:
64,192,45023,1,0,0:0:0:0:
192,192,45023,1,0,0:0:0:0:
448,192,45023,1,0,0:0:0:0:
192,192,45173,1,0,0:0:0:0:
64,192,45173,1,0,0:0:0:0:
320,192,45323,1,0,0:0:0:0:
192,192,45323,1,0,0:0:0:0:
448,192,45473,1,0,0:0:0:0:
320,192,45473,1,0,0:0:0:0:
192,192,45623,1,0,0:0:0:0:
64,192,45623,1,0,0:0:0:0:
320,192,45773,1,0,0:0:0:0:
448,192,45773,1,0,0:0:0:0:
192,192,45923,1,0,0:0:0:0:
64,192,45923,1,0,0:0:0:0:
320,192,46073,1,0,0:0:0:0:
448,192,46073,1,0,0:0:0:0:
192,192,46148,1,0,0:0:0:0:
64,192,46148,1,0,0:0:0:0:
320,192,46223,1,0,0:0:0:0:
448,192,46223,1,0,0:0:0:0:
64,192,46298,1,0,0:0:0:0:
192,192,46298,1,0,0:0:0:0:
320,192,46373,1,0,0:0:0:0:
448,192,46373,1,0,0:0:0:0:
192,192,46448,1,0,0:0:0:0:
64,192,46448,1,0,0:0:0:0:
320,192,46523,1,0,0:0:0:0:
448,192,46523,1,0,0:0:0:0:
64,192,46598,1,0,0:0:0:0:
192,192,46673,1,0,0:0:0:0:
320,192,46748,1,0,0:0:0:0:
448,192,46823,1,0,0:0:0:0:
320,192,46898,1,0,0:0:0:0:
192,192,46973,1,0,0:0:0:0:
64,192,47048,1,0,0:0:0:0:
320,192,47123,1,0,0:0:0:0:
448,192,47123,1,0,0:0:0:0:
192,192,47198,1,0,0:0:0:0:
64,192,47198,1,0,0:0:0:0:
320,192,47273,1,0,0:0:0:0:
448,192,47273,1,0,0:0:0:0:
64,192,47348,1,0,0:0:0:0:
192,192,47423,1,0,0:0:0:0:
320,192,47498,1,0,0:0:0:0:
448,192,47573,1,0,0:0:0:0:
320,192,47648,1,0,0:0:0:0:
64,192,47723,1,0,0:0:0:0:
448,192,47723,1,0,0:0:0:0:
192,192,47798,1,0,0:0:0:0:
320,192,47873,1,0,0:0:0:0:
448,192,47948,1,0,0:0:0:0:
320,192,48023,1,0,0:0:0:0:
192,192,48098,1,0,0:0:0:0:
64,192,48173,1,0,0:0:0:0:
192,192,48248,1,0,0:0:0:0:
320,192,48323,1,0,0:0:0:0:
448,192,48398,1,0,0:0:0:0:
320,192,48473,1,0,0:0:0:0:
192,192,48548,1,0,0:0:0:0:
64,192,48623,1,0,0:0:0:0:
192,192,48698,1,0,0:0:0:0:
320,192,48773,1,0,0:0:0:0:
448,192,48848,1,0,0:0:0:0:
64,192,48848,1,0,0:0:0:0:
192,192,48923,1,0,0:0:0:0:
320,192,48998,1,0,0:0:0:0:
448,192,49073,1,0,0:0:0:0:
320,192,49148,1,0,0:0:0:0:
192,192,49223,1,0,0:0:0:0:
64,192,49298,1,0,0:0:0:0:
192,192,49373,1,0,0:0:0:0:
320,192,49448,1,0,0:0:0:0:
448,192,49523,1,0,0:0:0:0:
320,192,49598,1,0,0:0:0:0:
192,192,49673,1,0,0:0:0:0:
64,192,49748,1,0,0:0:0:0:
448,192,49823,1,0,0:0:0:0:
320,192,49898,1,0,0:0:0:0:
192,192,49973,1,0,0:0:0:0:
64,192,50048,1,0,0:0:0:0:
448,192,50048,1,0,0:0:0:0:
192,192,50123,1,0,0:0:0:0:
320,192,50198,1,0,0:0:0:0:
448,192,50273,1,0,0:0:0:0:
320,192,50348,1,0,0:0:0:0:
192,192,50423,1,0,0:0:0:0:
64,192,50498,1,0,0:0:0:0:
192,192,50573,1,0,0:0:0:0:
320,192,50648,1,0,0:0:0:0:
448,192,50723,1,0,0:0:0:0:
320,192,50798,1,0,0:0:0:0:
192,192,50873,1,0,0:0:0:0:
64,192,50948,1,0,0:0:0:0:
192,192,51023,1,0,0:0:0:0:
320,192,51098,1,0,0:0:0:0:
448,192,51173,1,0,0:0:0:0:
64,192,51248,1,0,0:0:0:0:
192,192,51323,1,0,0:0:0:0:
320,192,51398,1,0,0:0:0:0:
448,192,51473,1,0,0:0:0:0:
64,192,51548,1,0,0:0:0:0:
192,192,51623,1,0,0:0:0:0:
448,192,51698,1,0,0:0:0:0:
320,192,51698,1,0,0:0:0:0:
192,192,51773,1,0,0:0:0:0:
64,192,51773,1,0,0:0:0:0:
320,192,51848,1,0,0:0:0:0:
448,192,51848,1,0,0:0:0:0:
192,192,51923,1,0,0:0:0:0:
64,192,51923,1,0,0:0:0:0:
320,192,51998,1,0,0:0:0:0:
448,192,51998,1,0,0:0:0:0:
192,192,52073,1,0,0:0:0:0:
64,192,52073,1,0,0:0:0:0:
448,192,52148,1,0,0:0:0:0:
320,192,52223,1,0,0:0:0:0:
192,192,52298,1,0,0:0:0:0:
64,192,52373,1,0,0:0:0:0:
448,192,52448,1,0,0:0:0:0:
320,192,52448,1,0,0:0:0:0:
192,192,52523,1,0,0:0:0:0:
64,192,52523,1,0,0:0:0:0:
320,192,52598,1,0,0:0:0:0:
448,192,52598,1,0,0:0:0:0:
192,192,52673,1,0,0:0:0:0:
64,192,52673,1,0,0:0:0:0:
320,192,52748,1,0,0:0:0:0:
448,192,52748,1,0,0:0:0:0:
192,192,52823,1,0,0:0:0:0:
64,192,52823,1,0,0:0:0:0:
320,192,52898,1,0,0:0:0:0:
448,192,52898,1,0,0:0:0:0:
192,192,52973,128,0,53048:0:0:0:0:
64,192,52973,128,0,53048:0:0:0:0:
320,192,53048,128,0,53123:0:0:0:0:
448,192,53048,128,0,53123:0:0:0:0:
192,192,53123,128,0,53198:0:0:0:0:
64,192,53123,128,0,53198:0:0:0:0:
320,192,53198,128,0,53273:0:0:0:0:
448,192,53198,128,0,53273:0:0:0:0:
64,192,53273,128,0,53348:0:0:0:0:
192,192,53273,128,0,53348:0:0:0:0:
448,192,53348,1,0,0:0:0:0:
320,192,53423,1,0,0:0:0:0:
192,192,53498,1,0,0:0:0:0:
64,192,53573,1,0,0:0:0:0:
448,192,53648,1,0,0:0:0:0:
320,192,53648,1,0,0:0:0:0:
192,192,53723,1,0,0:0:0:0:
320,192,53798,1,0,0:0:0:0:
192,192,53873,1,0,0:0:0:0:
320,192,53948,1,0,0:0:0:0:
192,192,54023,1,0,0:0:0:0:
320,192,54098,1,0,0:0:0:0:
192,192,54173,1,0,0:0:0:0:
320,192,54248,1,0,0:0:0:0:
192,192,54323,1,0,0:0:0:0:
320,192,54398,1,0,0:0:0:0:
192,192,54473,1,0,0:0:0:0:
320,192,54548,1,0,0:0:0:0:
192,192,54623,1,0,0:0:0:0:
320,192,54698,1,0,0:0:0:0:
192,192,54773,1,0,0:0:0:0:
320,192,54848,1,0,0:0:0:0:
448,192,54848,1,0,0:0:0:0:
64,192,54923,1,0,0:0:0:0:
320,192,54998,1,0,0:0:0:0:
64,192,55073,1,0,0:0:0:0:
320,192,55148,1,0,0:0:0:0:
64,192,55223,1,0,0:0:0:0:
320,192,55298,1,0,0:0:0:0:
64,192,55373,1,0,0:0:0:0:
320,192,55448,1,0,0:0:0:0:
64,192,55523,1,0,0:0:0:0:
320,192,55598,1,0,0:0:0:0:
64,192,55673,1,0,0:0:0:0:
320,192,55748,1,0,0:0:0:0:
192,192,55823,1,0,0:0:0:0:
320,192,55898,1,0,0:0:0:0:
448,192,55973,1,0,0:0:0:0:
64,192,56048,1,0,0:0:0:0:
192,192,56048,1,0,0:0:0:0:
320,192,56198,1,0,0:0:0:0:
320,192,56348,1,0,0:0:0:0:
192,192,56498,1,0,0:0:0:0:
192,192,56648,1,0,0:0:0:0:
64,192,56798,1,0,0:0:0:0:
64,192,56948,1,0,0:0:0:0:
64,192,57098,1,0,0:0:0:0:
192,192,57098,1,0,0:0:0:0:
320,192,57248,1,0,0:0:0:0:
448,192,57248,1,0,0:0:0:0:
64,192,57398,1,0,0:0:0:0:
192,192,57548,1,0,0:0:0:0:
448,192,57698,1,0,0:0:0:0:
320,192,57848,1,0,0:0:0:0:
192,192,57998,1,0,0:0:0:0:
64,192,58148,1,0,0:0:0:0:
320,192,58298,1,0,0:0:0:0:
448,192,58298,1,0,0:0:0:0:
192,192,58448,1,0,0:0:0:0:
64,192,58448,1,0,0:0:0:0:
448,192,58598,1,0,0:0:0:0:
320,192,58748,1,0,0:0:0:0:
320,192,58898,1,0,0:0:0:0:
64,192,59048,1,0,0:0:0:0:
192,192,59198,1,0,0:0:0:0:
192,192,59348,1,0,0:0:0:0:
320,192,59498,1,0,0:0:0:0:
448,192,59498,1,0,0:0:0:0:
192,192,59648,1,0,0:0:0:0:
64,192,59648,128,0,60848:0:0:0:0:
448,192,59798,1,0,0:0:0:0:
320,192,59798,1,0,0:0:0:0:
320,192,59948,1,0,0:0:0:0:
192,192,59948,1,0,0:0:0:0:
320,192,60098,1,0,0:0:0:0:
448,192,60098,1,0,0:0:0:0:
320,192,60248,1,0,0:0:0:0:
192,192,60248,1,0,0:0:0:0:
320,192,60398,1,0,0:0:0:0:
448,192,60398,1,0,0:0:0:0:
320,192,60548,1,0,0:0:0:0:
448,192,60548,1,0,0:0:0:0:
320,192,60698,1,0,0:0:0:0:
448,192,60698,1,0,0:0:0:0:
320,192,60848,1,0,0:0:0:0:
192,192,60848,1,0,0:0:0:0:
448,192,60998,1,0,0:0:0:0:
320,192,61148,1,0,0:0:0:0:
192,192,61298,1,0,0:0:0:0:
448,192,61448,1,0,0:0:0:0:
320,192,61598,1,0,0:0:0:0:
192,192,61748,1,0,0:0:0:0:
64,192,61898,1,0,0:0:0:0:
448,192,62048,1,0,0:0:0:0:
320,192,62048,1,0,0:0:0:0:
192,192,62198,1,0,0:0:0:0:
320,192,62348,1,0,0:0:0:0:
448,192,62498,1,0,0:0:0:0:
64,192,62648,1,0,0:0:0:0:
192,192,62798,1,0,0:0:0:0:
320,192,62948,1,0,0:0:0:0:
448,192,63098,1,0,0:0:0:0:
64,192,63248,128,0,63323:0:0:0:0:
192,192,63248,128,0,63285:0:0:0:0:
448,192,63323,128,0,63398:0:0:0:0:
320,192,63323,128,0,63360:0:0:0:0:
64,192,63398,128,0,63473:0:0:0:0:
192,192,63398,128,0,63435:0:0:0:0:
448,192,63473,128,0,63548:0:0:0:0:
320,192,63473,128,0,63510:0:0:0:0:
64,192,63548,128,0,63623:0:0:0:0:
192,192,63548,128,0,63585:0:0:0:0:
448,192,63623,128,0,63698:0:0:0:0:
320,192,63623,128,0,63660:0:0:0:0:
64,192,63698,128,0,63773:0:0:0:0:
192,192,63698,128,0,63735:0:0:0:0:
448,192,63773,128,0,63848:0:0:0:0:
320,192,63773,128,0,63810:0:0:0:0:
64,192,63848,128,0,63923:0:0:0:0:
192,192,63848,128,0,63885:0:0:0:0:
448,192,63923,128,0,63998:0:0:0:0:
320,192,63923,128,0,63960:0:0:0:0:
64,192,63998,128,0,64073:0:0:0:0:
192,192,63998,128,0,64035:0:0:0:0:
448,192,64073,128,0,64148:0:0:0:0:
320,192,64073,128,0,64110:0:0:0:0:
64,192,64148,128,0,64223:0:0:0:0:
192,192,64148,128,0,64185:0:0:0:0:
448,192,64223,128,0,64298:0:0:0:0:
320,192,64223,128,0,64260:0:0:0:0:
64,192,64298,128,0,64373:0:0:0:0:
192,192,64298,128,0,64335:0:0:0:0:
448,192,64373,128,0,64448:0:0:0:0:
320,192,64373,128,0,64410:0:0:0:0:
192,192,64448,128,0,64523:0:0:0:0:
64,192,64448,128,0,64485:0:0:0:0:
320,192,64523,128,0,64598:0:0:0:0:
448,192,64523,128,0,64560:0:0:0:0:
192,192,64598,128,0,64673:0:0:0:0:
64,192,64598,128,0,64635:0:0:0:0:
320,192,64673,128,0,64748:0:0:0:0:
448,192,64673,128,0,64710:0:0:0:0:
192,192,64748,128,0,64823:0:0:0:0:
64,192,64748,128,0,64785:0:0:0:0:
320,192,64823,128,0,64898:0:0:0:0:
448,192,64823,128,0,64860:0:0:0:0:
192,192,64898,128,0,64973:0:0:0:0:
64,192,64898,128,0,64935:0:0:0:0:
320,192,64973,128,0,65048:0:0:0:0:
448,192,64973,128,0,65010:0:0:0:0:
192,192,65048,128,0,65123:0:0:0:0:
64,192,65048,128,0,65085:0:0:0:0:
320,192,65123,128,0,65198:0:0:0:0:
448,192,65123,128,0,65160:0:0:0:0:
192,192,65198,128,0,65273:0:0:0:0:
64,192,65198,128,0,65235:0:0:0:0:
320,192,65273,128,0,65348:0:0:0:0:
448,192,65273,128,0,65310:0:0:0:0:
192,192,65348,128,0,65423:0:0:0:0:
64,192,65348,128,0,65385:0:0:0:0:
320,192,65423,128,0,65498:0:0:0:0:
448,192,65423,128,0,65460:0:0:0:0:
192,192,65498,128,0,65573:0:0:0:0:
64,192,65498,128,0,65535:0:0:0:0:
320,192,65573,128,0,65648:0:0:0:0:
448,192,65573,128,0,65610:0:0:0:0:
64,192,75444,132,0,76560:0:0:0:0:
192,192,75797,128,0,76560:0:0:0:0:
448,192,76150,128,0,76591:0:0:0:0:
320,192,76591,1,0,0:0:0:0:
192,192,76648,1,0,0:0:0:0:
64,192,76736,1,0,0:0:0:0:
448,192,76736,1,0,0:0:0:0:
320,192,76824,1,0,0:0:0:0:
192,192,76912,1,0,0:0:0:0:
64,192,77001,1,0,0:0:0:0:
448,192,77001,1,0,0:0:0:0:
320,192,77089,1,0,0:0:0:0:
192,192,77177,1,0,0:0:0:0:
64,192,77265,1,0,0:0:0:0:
448,192,77265,1,0,0:0:0:0:
320,192,77354,1,0,0:0:0:0:
192,192,77442,1,0,0:0:0:0:
64,192,77530,1,0,0:0:0:0:
448,192,77530,1,0,0:0:0:0:
320,192,77618,1,0,0:0:0:0:
192,192,77707,1,0,0:0:0:0:
64,192,77795,1,0,0:0:0:0:
448,192,77795,1,0,0:0:0:0:
320,192,77883,1,0,0:0:0:0:
192,192,77971,1,0,0:0:0:0:
64,192,78060,1,0,0:0:0:0:
192,192,78148,1,0,0:0:0:0:
320,192,78236,1,0,0:0:0:0:
448,192,78324,1,0,0:0:0:0:
64,192,78324,1,0,0:0:0:0:
192,192,78412,1,0,0:0:0:0:
320,192,78501,1,0,0:0:0:0:
448,192,78589,1,0,0:0:0:0:
64,192,78589,1,0,0:0:0:0:
192,192,78677,1,0,0:0:0:0:
320,192,78765,1,0,0:0:0:0:
448,192,78854,1,0,0:0:0:0:
64,192,78854,1,0,0:0:0:0:
192,192,78942,1,0,0:0:0:0:
320,192,79030,1,0,0:0:0:0:
448,192,79118,1,0,0:0:0:0:
64,192,79118,1,0,0:0:0:0:
192,192,79207,1,0,0:0:0:0:
320,192,79295,1,0,0:0:0:0:
448,192,79383,1,0,0:0:0:0:
64,192,79383,1,0,0:0:0:0:
192,192,79471,1,0,0:0:0:0:
320,192,79560,1,0,0:0:0:0:
448,192,79648,1,0,0:0:0:0:
64,192,79648,1,0,0:0:0:0:
192,192,79736,1,0,0:0:0:0:
320,192,79824,1,0,0:0:0:0:
448,192,79912,1,0,0:0:0:0:
64,192,79912,1,0,0:0:0:0:
192,192,80001,1,0,0:0:0:0:
320,192,80089,1,0,0:0:0:0:
448,192,80177,1,0,0:0:0:0:
64,192,80177,1,0,0:0:0:0:
192,192,80265,1,0,0:0:0:0:
320,192,80354,1,0,0:0:0:0:
448,192,80442,1,0,0:0:0:0:
64,192,80442,1,0,0:0:0:0:
192,192,80530,1,0,0:0:0:0:
320,192,80618,1,0,0:0:0:0:
448,192,80707,1,0,0:0:0:0:
64,192,80707,1,0,0:0:0:0:
192,192,80795,1,0,0:0:0:0:
320,192,80883,1,0,0:0:0:0:
448,192,80971,1,0,0:0:0:0:
64,192,80971,1,0,0:0:0:0:
192,192,81060,1,0,0:0:0:0:
320,192,81148,1,0,0:0:0:0:
448,192,81236,1,0,0:0:0:0:
320,192,81324,1,0,0:0:0:0:
192,192,81412,1,0,0:0:0:0:
64,192,81501,1,0,0:0:0:0:
448,192,81501,1,0,0:0:0:0:
320,192,81589,1,0,0:0:0:0:
192,192,81677,1,0,0:0:0:0:
64,192,81765,1,0,0:0:0:0:
448,192,81765,1,0,0:0:0:0:
320,192,81854,1,0,0:0:0:0:
192,192,81942,1,0,0:0:0:0:
64,192,82030,1,0,0:0:0:0:
448,192,82030,1,0,0:0:0:0:
320,192,82118,1,0,0:0:0:0:
192,192,82207,1,0,0:0:0:0:
64,192,82207,1,0,0:0:0:0:
448,192,82295,1,0,0:0:0:0:
320,192,82383,1,0,0:0:0:0:
192,192,82471,1,0,0:0:0:0:
64,192,82560,1,0,0:0:0:0:
448,192,82648,1,0,0:0:0:0:
320,192,82736,1,0,0:0:0:0:
192,192,82736,1,0,0:0:0:0:
448,192,82824,1,0,0:0:0:0:
320,192,82912,1,0,0:0:0:0:
192,192,83001,1,0,0:0:0:0:
64,192,83089,1,0,0:0:0:0:
448,192,83177,1,0,0:0:0:0:
320,192,83265,1,0,0:0:0:0:
192,192,83265,1,0,0:0:0:0:
64,192,83354,1,0,0:0:0:0:
192,192,83442,1,0,0:0:0:0:
320,192,83530,1,0,0:0:0:0:
448,192,83618,1,0,0:0:0:0:
64,192,83618,1,0,0:0:0:0:
192,192,83618,1,0,0:0:0:0:
320,192,83707,1,0,0:0:0:0:
192,192,83795,1,0,0:0:0:0:
64,192,83883,1,0,0:0:0:0:
448,192,83971,1,0,0:0:0:0:
320,192,84060,1,0,0:0:0:0:
192,192,84148,1,0,0:0:0:0:
64,192,84236,1,0,0:0:0:0:
320,192,84324,1,0,0:0:0:0:
192,192,84412,1,0,0:0:0:0:
64,192,84501,1,0,0:0:0:0:
448,192,84589,1,0,0:0:0:0:
320,192,84677,1,0,0:0:0:0:
192,192,84765,1,0,0:0:0:0:
64,192,84854,1,0,0:0:0:0:
192,192,84942,1,0,0:0:0:0:
320,192,85030,1,0,0:0:0:0:
448,192,85030,1,0,0:0:0:0:
64,192,85118,1,0,0:0:0:0:
192,192,85207,1,0,0:0:0:0:
320,192,85295,1,0,0:0:0:0:
448,192,85383,1,0,0:0:0:0:
64,192,85471,1,0,0:0:0:0:
192,192,85560,1,0,0:0:0:0:
320,192,85648,1,0,0:0:0:0:
448,192,85736,1,0,0:0:0:0:
320,192,85824,1,0,0:0:0:0:
192,192,85912,1,0,0:0:0:0:
64,192,86001,1,0,0:0:0:0:
448,192,86001,1,0,0:0:0:0:
320,192,86089,1,0,0:0:0:0:
192,192,86177,1,0,0:0:0:0:
64,192,86265,1,0,0:0:0:0:
448,192,86265,1,0,0:0:0:0:
320,192,86354,1,0,0:0:0:0:
192,192,86442,1,0,0:0:0:0:
64,192,86530,1,0,0:0:0:0:
448,192,86530,1,0,0:0:0:0:
320,192,86618,1,0,0:0:0:0:
192,192,86707,1,0,0:0:0:0:
64,192,86795,1,0,0:0:0:0:
448,192,86795,1,0,0:0:0:0:
320,192,86883,1,0,0:0:0:0:
192,192,86971,1,0,0:0:0:0:
448,192,86971,1,0,0:0:0:0:
64,192,87060,1,0,0:0:0:0:
320,192,87060,1,0,0:0:0:0:
192,192,87148,1,0,0:0:0:0:
448,192,87148,1,0,0:0:0:0:
64,192,87236,1,0,0:0:0:0:
320,192,87236,1,0,0:0:0:0:
192,192,87324,1,0,0:0:0:0:
448,192,87324,1,0,0:0:0:0:
64,192,87412,1,0,0:0:0:0:
320,192,87412,1,0,0:0:0:0:
192,192,87501,1,0,0:0:0:0:
448,192,87501,1,0,0:0:0:0:
64,192,87589,1,0,0:0:0:0:
320,192,87589,1,0,0:0:0:0:
192,192,87677,1,0,0:0:0:0:
64,192,87765,1,0,0:0:0:0:
192,192,87854,1,0,0:0:0:0:
448,192,87854,1,0,0:0:0:0:
320,192,87854,1,0,0:0:0:0:
64,192,87942,1,0,0:0:0:0:
192,192,88030,1,0,0:0:0:0:
320,192,88118,1,0,0:0:0:0:
448,192,88207,1,0,0:0:0:0:
192,192,88207,1,0,0:0:0:0:
64,192,88295,1,0,0:0:0:0:
192,192,88383,1,0,0:0:0:0:
320,192,88471,1,0,0:0:0:0:
448,192,88560,1,0,0:0:0:0:
192,192,88560,1,0,0:0:0:0:
320,192,88648,1,0,0:0:0:0:
192,192,88736,1,0,0:0:0:0:
64,192,88824,1,0,0:0:0:0:
448,192,88912,1,0,0:0:0:0:
320,192,88912,1,0,0:0:0:0:
192,192,89001,1,0,0:0:0:0:
320,192,89089,1,0,0:0:0:0:
448,192,89177,1,0,0:0:0:0:
320,192,89265,1,0,0:0:0:0:
192,192,89265,1,0,0:0:0:0:
448,192,89354,1,0,0:0:0:0:
320,192,89442,1,0,0:0:0:0:
192,192,89530,1,0,0:0:0:0:
448,192,89618,1,0,0:0:0:0:
320,192,89618,1,0,0:0:0:0:
64,192,89707,1,0,0:0:0:0:
320,192,89795,1,0,0:0:0:0:
192,192,89883,1,0,0:0:0:0:
320,192,89971,1,0,0:0:0:0:
448,192,89971,1,0,0:0:0:0:
64,192,90059,1,0,0:0:0:0:
192,192,90148,1,0,0:0:0:0:
448,192,90236,1,0,0:0:0:0:
320,192,90324,1,0,0:0:0:0:
64,192,90324,1,0,0:0:0:0:
192,192,90412,1,0,0:0:0:0:
320,192,90501,1,0,0:0:0:0:
64,192,90589,1,0,0:0:0:0:
192,192,90677,1,0,0:0:0:0:
448,192,90677,1,0,0:0:0:0:
320,192,90765,1,0,0:0:0:0:
192,192,90854,1,0,0:0:0:0:
64,192,90942,1,0,0:0:0:0:
320,192,91030,1,0,0:0:0:0:
448,192,91030,1,0,0:0:0:0:
192,192,91118,1,0,0:0:0:0:
320,192,91207,1,0,0:0:0:0:
448,192,91295,1,0,0:0:0:0:
64,192,91383,1,0,0:0:0:0:
192,192,91383,1,0,0:0:0:0:
320,192,91471,1,0,0:0:0:0:
192,192,91559,1,0,0:0:0:0:
64,192,91648,1,0,0:0:0:0:
192,192,91736,1,0,0:0:0:0:
320,192,91736,1,0,0:0:0:0:
448,192,91824,1,0,0:0:0:0:
320,192,91912,1,0,0:0:0:0:
192,192,92001,1,0,0:0:0:0:
320,192,92089,1,0,0:0:0:0:
448,192,92089,1,0,0:0:0:0:
64,192,92089,128,0,92618:0:0:0:0:
192,192,92177,1,0,0:0:0:0:
320,192,92265,1,0,0:0:0:0:
448,192,92354,1,0,0:0:0:0:
192,192,92442,1,0,0:0:0:0:
320,192,92530,1,0,0:0:0:0:
448,192,92618,1,0,0:0:0:0:
320,192,92618,1,0,0:0:0:0:
192,192,92707,1,0,0:0:0:0:
64,192,92707,1,0,0:0:0:0:
320,192,92795,1,0,0:0:0:0:
448,192,92795,1,0,0:0:0:0:
64,192,92883,1,0,0:0:0:0:
192,192,92883,1,0,0:0:0:0:
320,192,92971,1,0,0:0:0:0:
192,192,93059,1,0,0:0:0:0:
64,192,93148,1,0,0:0:0:0:
448,192,93236,1,0,0:0:0:0:
320,192,93324,1,0,0:0:0:0:
192,192,93412,1,0,0:0:0:0:
320,192,93501,1,0,0:0:0:0:
448,192,93501,1,0,0:0:0:0:
64,192,93501,1,0,0:0:0:0:
192,192,93589,1,0,0:0:0:0:
320,192,93677,1,0,0:0:0:0:
448,192,93765,1,0,0:0:0:0:
64,192,93854,1,0,0:0:0:0:
192,192,93854,1,0,0:0:0:0:
320,192,93942,1,0,0:0:0:0:
192,192,94030,1,0,0:0:0:0:
64,192,94118,1,0,0:0:0:0:
320,192,94207,1,0,0:0:0:0:
448,192,94207,1,0,0:0:0:0:
192,192,94295,1,0,0:0:0:0:
320,192,94383,1,0,0:0:0:0:
448,192,94471,1,0,0:0:0:0:
320,192,94559,1,0,0:0:0:0:
192,192,94559,1,0,0:0:0:0:
64,192,94648,1,0,0:0:0:0:
448,192,94736,1,0,0:0:0:0:
64,192,94824,1,0,0:0:0:0:
320,192,94912,1,0,0:0:0:0:
192,192,94912,1,0,0:0:0:0:
448,192,95001,1,0,0:0:0:0:
64,192,95089,1,0,0:0:0:0:
192,192,95177,1,0,0:0:0:0:
320,192,95265,1,0,0:0:0:0:
448,192,95265,1,0,0:0:0:0:
192,192,95354,1,0,0:0:0:0:
320,192,95442,1,0,0:0:0:0:
448,192,95530,1,0,0:0:0:0:
64,192,95618,1,0,0:0:0:0:
192,192,95618,1,0,0:0:0:0:
320,192,95707,1,0,0:0:0:0:
192,192,95795,1,0,0:0:0:0:
64,192,95883,1,0,0:0:0:0:
448,192,95971,1,0,0:0:0:0:
320,192,95971,1,0,0:0:0:0:
192,192,96059,1,0,0:0:0:0:
448,192,96148,1,0,0:0:0:0:
320,192,96236,1,0,0:0:0:0:
192,192,96324,1,0,0:0:0:0:
64,192,96324,1,0,0:0:0:0:
448,192,96412,1,0,0:0:0:0:
320,192,96501,1,0,0:0:0:0:
448,192,96589,1,0,0:0:0:0:
64,192,96677,1,0,0:0:0:0:
192,192,96677,1,0,0:0:0:0:
448,192,96765,1,0,0:0:0:0:
320,192,96765,1,0,0:0:0:0:
192,192,96854,1,0,0:0:0:0:
64,192,96854,1,0,0:0:0:0:
320,192,96942,1,0,0:0:0:0:
448,192,96942,1,0,0:0:0:0:
64,192,97030,1,0,0:0:0:0:
192,192,97118,1,0,0:0:0:0:
320,192,97207,1,0,0:0:0:0:
448,192,97295,1,0,0:0:0:0:
320,192,97383,1,0,0:0:0:0:
192,192,97471,1,0,0:0:0:0:
64,192,97559,1,0,0:0:0:0:
448,192,97736,1,0,0:0:0:0:
320,192,97736,1,0,0:0:0:0:
192,192,97824,1,0,0:0:0:0:
64,192,97824,1,0,0:0:0:0:
320,192,97912,1,0,0:0:0:0:
448,192,97912,1,0,0:0:0:0:
192,192,98089,1,0,0:0:0:0:
64,192,98089,1,0,0:0:0:0:
320,192,98177,1,0,0:0:0:0:
448,192,98177,1,0,0:0:0:0:
192,192,98265,1,0,0:0:0:0:
64,192,98265,1,0,0:0:0:0:
320,192,98442,1,0,0:0:0:0:
448,192,98442,1,0,0:0:0:0:
192,192,98530,1,0,0:0:0:0:
64,192,98530,1,0,0:0:0:0:
320,192,98618,1,0,0:0:0:0:
448,192,98618,1,0,0:0:0:0:
192,192,98707,1,0,0:0:0:0:
320,192,98795,1,0,0:0:0:0:
192,192,98883,1,0,0:0:0:0:
320,192,98971,1,0,0:0:0:0:
192,192,99059,1,0,0:0:0:0:
320,192,99129,1,0,0:0:0:0:
64,192,99129,1,0,0:0:0:0:
448,192,99129,1,0,0:0:0:0:
64,192,99284,128,0,99362:0:0:0:0:
192,192,99362,128,0,99440:0:0:0:0:
320,192,99440,128,0,99518:0:0:0:0:
448,192,99518,128,0,99596:0:0:0:0:
64,192,99596,128,0,99674:0:0:0:0:
192,192,99674,128,0,99752:0:0:0:0:
320,192,99752,128,0,99830:0:0:0:0:
448,192,99752,128,0,99830:0:0:0:0:
192,192,99830,128,0,99908:0:0:0:0:
64,192,99908,128,0,99986:0:0:0:0:
192,192,99986,128,0,100064:0:0:0:0:
320,192,100064,128,0,100141:0:0:0:0:
448,192,100141,128,0,100219:0:0:0:0:
320,192,100219,128,0,100297:0:0:0:0:
192,192,100297,128,0,100375:0:0:0:0:
64,192,100375,128,0,100453:0:0:0:0:
448,192,100375,128,0,100453:0:0:0:0:
320,192,100375,128,0,100453:0:0:0:0:
192,192,100453,128,0,100531:0:0:0:0:
64,192,100531,128,0,100609:0:0:0:0:
192,192,100609,128,0,100687:0:0:0:0:
320,192,100687,128,0,100765:0:0:0:0:
64,192,100765,128,0,100843:0:0:0:0:
192,192,100843,128,0,100921:0:0:0:0:
320,192,100843,128,0,100921:0:0:0:0:
448,192,100843,128,0,100921:0:0:0:0:
64,192,100921,128,0,100999:0:0:0:0:
448,192,100999,128,0,101077:0:0:0:0:
320,192,101077,128,0,101154:0:0:0:0:
64,192,101154,128,0,101232:0:0:0:0:
192,192,101154,128,0,101232:0:0:0:0:
448,192,101154,128,0,101232:0:0:0:0:
320,192,101232,128,0,101310:0:0:0:0:
64,192,101310,128,0,101388:0:0:0:0:
192,192,101388,128,0,101466:0:0:0:0:
320,192,101466,128,0,101544:0:0:0:0:
448,192,101544,128,0,101622:0:0:0:0:
64,192,101622,128,0,101700:0:0:0:0:
192,192,101622,128,0,101700:0:0:0:0:
320,192,101700,128,0,101778:0:0:0:0:
448,192,101778,128,0,101856:0:0:0:0:
64,192,101856,128,0,101934:0:0:0:0:
192,192,101934,128,0,102012:0:0:0:0:
320,192,102012,128,0,102090:0:0:0:0:
448,192,102090,128,0,102167:0:0:0:0:
320,192,102167,128,0,102245:0:0:0:0:
192,192,102245,128,0,102323:0:0:0:0:
64,192,102323,128,0,102401:0:0:0:0:
448,192,102401,128,0,102479:0:0:0:0:
320,192,102479,128,0,102557:0:0:0:0:
64,192,102557,128,0,102635:0:0:0:0:
192,192,102635,128,0,102713:0:0:0:0:
448,192,102713,128,0,102791:0:0:0:0:
320,192,102791,128,0,102869:0:0:0:0:
64,192,102869,128,0,102947:0:0:0:0:
192,192,102947,128,0,103025:0:0:0:0:
320,192,103025,128,0,103103:0:0:0:0:
448,192,103103,128,0,103180:0:0:0:0:
320,192,103180,128,0,103258:0:0:0:0:
192,192,103258,128,0,103336:0:0:0:0:
64,192,103336,128,0,103414:0:0:0:0:
448,192,103414,1,0,0:0:0:0:
320,192,103492,1,0,0:0:0:0:
192,192,103570,1,0,0:0:0:0:
64,192,103648,1,0,0:0:0:0:
448,192,103648,1,0,0:0:0:0:
320,192,103726,1,0,0:0:0:0:
192,192,103804,1,0,0:0:0:0:
64,192,103882,1,0,0:0:0:0:
192,192,103960,1,0,0:0:0:0:
320,192,104038,1,0,0:0:0:0:
448,192,104116,1,0,0:0:0:0:
64,192,104116,1,0,0:0:0:0:
192,192,104193,128,0,104271:0:0:0:0:
448,192,104271,128,0,104349:0:0:0:0:
320,192,104349,128,0,104427:0:0:0:0:
64,192,104427,128,0,104505:0:0:0:0:
448,192,104505,128,0,104583:0:0:0:0:
192,192,104505,128,0,104583:0:0:0:0:
320,192,104583,128,0,104661:0:0:0:0:
64,192,104661,128,0,104739:0:0:0:0:
448,192,104739,128,0,104817:0:0:0:0:
320,192,104817,128,0,104895:0:0:0:0:
192,192,104895,128,0,104973:0:0:0:0:
64,192,104973,128,0,105051:0:0:0:0:
448,192,105051,128,0,105129:0:0:0:0:
320,192,105129,128,0,105206:0:0:0:0:
192,192,105206,128,0,105284:0:0:0:0:
64,192,105284,128,0,105362:0:0:0:0:
192,192,105362,128,0,105440:0:0:0:0:
320,192,105440,128,0,105518:0:0:0:0:
448,192,105518,128,0,105596:0:0:0:0:
320,192,105596,128,0,105674:0:0:0:0:
192,192,105674,128,0,105752:0:0:0:0:
64,192,105752,128,0,105830:0:0:0:0:
192,192,105830,128,0,105908:0:0:0:0:
320,192,105908,128,0,105986:0:0:0:0:
448,192,105986,128,0,106064:0:0:0:0:
64,192,106064,128,0,106141:0:0:0:0:
192,192,106141,128,0,106219:0:0:0:0:
320,192,106219,128,0,106297:0:0:0:0:
448,192,106297,128,0,106375:0:0:0:0:
192,192,106453,128,0,106531:0:0:0:0:
64,192,106453,128,0,106609:0:0:0:0:
320,192,106531,128,0,106609:0:0:0:0:
448,192,106609,128,0,106687:0:0:0:0:
192,192,106687,128,0,106765:0:0:0:0:
320,192,106765,128,0,106843:0:0:0:0:
448,192,106843,128,0,106921:0:0:0:0:
320,192,106921,128,0,106999:0:0:0:0:
192,192,106999,128,0,107077:0:0:0:0:
64,192,107077,128,0,107154:0:0:0:0:
448,192,107154,128,0,107232:0:0:0:0:
320,192,107232,128,0,107310:0:0:0:0:
192,192,107310,128,0,107388:0:0:0:0:
64,192,107388,128,0,107466:0:0:0:0:
448,192,107466,128,0,107544:0:0:0:0:
320,192,107544,128,0,107622:0:0:0:0:
192,192,107622,128,0,107700:0:0:0:0:
64,192,107700,128,0,107778:0:0:0:0:
448,192,107778,128,0,107856:0:0:0:0:
320,192,107856,128,0,107934:0:0:0:0:
192,192,107934,128,0,108012:0:0:0:0:
64,192,108012,128,0,108090:0:0:0:0:
192,192,108090,128,0,108167:0:0:0:0:
320,192,108167,128,0,108245:0:0:0:0:
64,192,108245,128,0,108323:0:0:0:0:
192,192,108323,128,0,108401:0:0:0:0:
320,192,108401,128,0,108479:0:0:0:0:
448,192,108479,128,0,108557:0:0:0:0:
320,192,108557,128,0,108635:0:0:0:0:
192,192,108635,128,0,108713:0:0:0:0:
448,192,108713,128,0,108791:0:0:0:0:
320,192,108713,128,0,108791:0:0:0:0:
64,192,108791,128,0,108869:0:0:0:0:
192,192,108869,128,0,108947:0:0:0:0:
320,192,108947,128,0,109025:0:0:0:0:
448,192,109025,128,0,109103:0:0:0:0:
64,192,109103,128,0,109180:0:0:0:0:
192,192,109103,128,0,109180:0:0:0:0:
320,192,109180,128,0,109258:0:0:0:0:
192,192,109258,128,0,109336:0:0:0:0:
64,192,109336,128,0,109414:0:0:0:0:
448,192,109414,128,0,109492:0:0:0:0:
320,192,109492,128,0,109570:0:0:0:0:
192,192,109570,128,0,109648:0:0:0:0:
64,192,109648,128,0,109726:0:0:0:0:
320,192,109726,128,0,109804:0:0:0:0:
192,192,109804,128,0,109882:0:0:0:0:
64,192,109882,128,0,109960:0:0:0:0:
448,192,109960,128,0,110038:0:0:0:0:
320,192,110038,128,0,110116:0:0:0:0:
192,192,110116,128,0,110193:0:0:0:0:
64,192,110193,128,0,110271:0:0:0:0:
192,192,110271,128,0,110349:0:0:0:0:
320,192,110349,128,0,110427:0:0:0:0:
448,192,110349,128,0,110427:0:0:0:0:
64,192,110427,128,0,110505:0:0:0:0:
192,192,110505,128,0,110583:0:0:0:0:
320,192,110583,128,0,110661:0:0:0:0:
448,192,110661,128,0,110739:0:0:0:0:
320,192,110739,128,0,110817:0:0:0:0:
192,192,110817,128,0,110895:0:0:0:0:
64,192,110895,128,0,110973:0:0:0:0:
320,192,110973,128,0,111051:0:0:0:0:
192,192,111051,128,0,111129:0:0:0:0:
64,192,111129,128,0,111206:0:0:0:0:
448,192,111206,128,0,111284:0:0:0:0:
320,192,111284,128,0,111362:0:0:0:0:
192,192,111362,128,0,111440:0:0:0:0:
64,192,111440,128,0,111518:0:0:0:0:
192,192,111518,128,0,111596:0:0:0:0:
448,192,111596,128,0,111908:0:0:0:0:
192,192,111908,1,0,0:0:0:0:
320,192,112219,128,0,112531:0:0:0:0:
192,192,112531,1,0,0:0:0:0:
64,192,112687,128,0,114090:0:0:0:0:
448,192,114090,128,0,114167:0:0:0:0:
320,192,114167,128,0,114245:0:0:0:0:
192,192,114245,128,0,114323:0:0:0:0:
64,192,114323,128,0,114401:0:0:0:0:
448,192,114401,128,0,114479:0:0:0:0:
320,192,114479,128,0,114557:0:0:0:0:
192,192,114557,128,0,114635:0:0:0:0:
64,192,114635,128,0,114713:0:0:0:0:
192,192,114713,128,0,114791:0:0:0:0:
320,192,114791,128,0,114869:0:0:0:0:
448,192,114869,128,0,114947:0:0:0:0:
64,192,114947,128,0,115025:0:0:0:0:
192,192,115025,128,0,115103:0:0:0:0:
320,192,115103,128,0,115180:0:0:0:0:
448,192,115180,128,0,115258:0:0:0:0:
64,192,115258,128,0,115336:0:0:0:0:
192,192,115336,128,0,115414:0:0:0:0:
320,192,115414,128,0,115492:0:0:0:0:
448,192,115492,128,0,115570:0:0:0:0:
64,192,115570,128,0,115648:0:0:0:0:
192,192,115648,128,0,115726:0:0:0:0:
320,192,115726,128,0,115804:0:0:0:0:
448,192,115804,128,0,115882:0:0:0:0:
64,192,115882,128,0,115960:0:0:0:0:
192,192,115960,128,0,116038:0:0:0:0:
320,192,116038,128,0,116116:0:0:0:0:
448,192,116116,128,0,116193:0:0:0:0:
64,192,116271,128,0,116427:0:0:0:0:
448,192,116427,128,0,116583:0:0:0:0:
320,192,116583,128,0,116895:0:0:0:0:
64,192,116895,128,0,117051:0:0:0:0:
320,192,117051,128,0,118453:0:0:0:0:
192,192,118453,128,0,118765:0:0:0:0:
64,192,118453,128,0,118765:0:0:0:0:
448,192,118453,128,0,118765:0:0:0:0:
320,192,118921,1,0,0:0:0:0:
192,192,119088,1,0,0:0:0:0:
64,192,119088,1,0,0:0:0:0:
448,192,119088,1,0,0:0:0:0:
320,192,119206,1,0,0:0:0:0:
320,192,119382,1,0,0:0:0:0:
192,192,119559,1,0,0:0:0:0:
64,192,119559,1,0,0:0:0:0:
448,192,119735,1,0,0:0:0:0:
448,192,119912,1,0,0:0:0:0:
448,192,120088,1,0,0:0:0:0:
192,192,120088,1,0,0:0:0:0:
320,192,120265,1,0,0:0:0:0:
320,192,120441,1,0,0:0:0:0:
320,192,120618,1,0,0:0:0:0:
64,192,120618,1,0,0:0:0:0:
192,192,120794,1,0,0:0:0:0:
192,192,120971,1,0,0:0:0:0:
64,192,121147,1,0,0:0:0:0:
192,192,121147,1,0,0:0:0:0:
320,192,121147,1,0,0:0:0:0:
192,192,121324,1,0,0:0:0:0:
192,192,121500,1,0,0:0:0:0:
448,192,121677,1,0,0:0:0:0:
320,192,121853,1,0,0:0:0:0:
192,192,121853,1,0,0:0:0:0:
448,192,122030,1,0,0:0:0:0:
448,192,122206,1,0,0:0:0:0:
320,192,122206,1,0,0:0:0:0:
320,192,122382,1,0,0:0:0:0:
192,192,122559,1,0,0:0:0:0:
320,192,122559,1,0,0:0:0:0:
192,192,122735,1,0,0:0:0:0:
192,192,122912,1,0,0:0:0:0:
64,192,122912,1,0,0:0:0:0:
64,192,123088,1,0,0:0:0:0:
64,192,123265,1,0,0:0:0:0:
320,192,123265,1,0,0:0:0:0:
192,192,123441,1,0,0:0:0:0:
320,192,123618,1,0,0:0:0:0:
448,192,123618,1,0,0:0:0:0:
64,192,123794,1,0,0:0:0:0:
192,192,123971,1,0,0:0:0:0:
320,192,123971,1,0,0:0:0:0:
64,192,124147,1,0,0:0:0:0:
192,192,124235,1,0,0:0:0:0:
320,192,124324,1,0,0:0:0:0:
448,192,124500,1,0,0:0:0:0:
320,192,124588,1,0,0:0:0:0:
64,192,124677,1,0,0:0:0:0:
192,192,124677,1,0,0:0:0:0:
448,192,124853,1,0,0:0:0:0:
320,192,125030,1,0,0:0:0:0:
192,192,125030,1,0,0:0:0:0:
192,192,125206,1,0,0:0:0:0:
320,192,125382,1,0,0:0:0:0:
448,192,125382,1,0,0:0:0:0:
192,192,125559,1,0,0:0:0:0:
64,192,125735,1,0,0:0:0:0:
320,192,125735,1,0,0:0:0:0:
192,192,125912,1,0,0:0:0:0:
320,192,126088,1,0,0:0:0:0:
448,192,126088,1,0,0:0:0:0:
64,192,126088,1,0,0:0:0:0:
192,192,126265,1,0,0:0:0:0:
320,192,126265,1,0,0:0:0:0:
448,192,126265,1,0,0:0:0:0:
320,192,126441,1,0,0:0:0:0:
192,192,126441,1,0,0:0:0:0:
64,192,126441,1,0,0:0:0:0:
192,192,126618,1,0,0:0:0:0:
448,192,126618,1,0,0:0:0:0:
64,192,126618,1,0,0:0:0:0:
320,192,127324,1,0,0:0:0:0:
192,192,127324,1,0,0:0:0:0:
64,192,127412,1,0,0:0:0:0:
448,192,127412,1,0,0:0:0:0:
320,192,127500,128,0,127677:0:0:0:0:
192,192,127500,128,0,127677:0:0:0:0:
448,192,127677,1,0,0:0:0:0:
64,192,127677,1,0,0:0:0:0:
64,192,127853,1,0,0:0:0:0:
448,192,127853,1,0,0:0:0:0:
320,192,128030,128,0,128382:0:0:0:0:
192,192,128030,128,0,128382:0:0:0:0:
64,192,128382,1,0,0:0:0:0:
448,192,128382,1,0,0:0:0:0:
64,192,128559,1,0,0:0:0:0:
448,192,128559,1,0,0:0:0:0:
192,192,128735,1,0,0:0:0:0:
320,192,128735,1,0,0:0:0:0:
64,192,128912,1,0,0:0:0:0:
320,192,128912,1,0,0:0:0:0:
448,192,128912,1,0,0:0:0:0:
192,192,128912,1,0,0:0:0:0:
64,192,129088,1,0,0:0:0:0:
192,192,129177,1,0,0:0:0:0:
320,192,129265,1,0,0:0:0:0:
64,192,129353,1,0,0:0:0:0:
192,192,129441,1,0,0:0:0:0:
320,192,129530,1,0,0:0:0:0:
64,192,129618,1,0,0:0:0:0:
192,192,129706,1,0,0:0:0:0:
320,192,129794,1,0,0:0:0:0:
64,192,129882,1,0,0:0:0:0:
192,192,129971,1,0,0:0:0:0:
320,192,130059,1,0,0:0:0:0:
448,192,130147,1,0,0:0:0:0:
320,192,130235,1,0,0:0:0:0:
192,192,130324,1,0,0:0:0:0:
64,192,130324,1,0,0:0:0:0:
448,192,130438,1,0,0:0:0:0:
320,192,130526,1,0,0:0:0:0:
192,192,130614,1,0,0:0:0:0:
64,192,130702,1,0,0:0:0:0:
320,192,130702,1,0,0:0:0:0:
448,192,130702,1,0,0:0:0:0:
192,192,130791,1,0,0:0:0:0:
448,192,130879,1,0,0:0:0:0:
320,192,130967,1,0,0:0:0:0:
192,192,131055,1,0,0:0:0:0:
64,192,131055,1,0,0:0:0:0:
320,192,131144,1,0,0:0:0:0:
64,192,131232,1,0,0:0:0:0:
192,192,131320,1,0,0:0:0:0:
448,192,131408,1,0,0:0:0:0:
64,192,131408,1,0,0:0:0:0:
192,192,131497,1,0,0:0:0:0:
320,192,131585,1,0,0:0:0:0:
64,192,131673,1,0,0:0:0:0:
320,192,131761,1,0,0:0:0:0:
192,192,131761,1,0,0:0:0:0:
448,192,131761,1,0,0:0:0:0:
64,192,131850,1,0,0:0:0:0:
448,192,131938,1,0,0:0:0:0:
320,192,132026,1,0,0:0:0:0:
192,192,132114,1,0,0:0:0:0:
64,192,132202,1,0,0:0:0:0:
448,192,132291,1,0,0:0:0:0:
320,192,132379,1,0,0:0:0:0:
192,192,132467,1,0,0:0:0:0:
64,192,132555,1,0,0:0:0:0:
192,192,132644,1,0,0:0:0:0:
320,192,132732,1,0,0:0:0:0:
448,192,132820,1,0,0:0:0:0:
64,192,132820,1,0,0:0:0:0:
192,192,132908,1,0,0:0:0:0:
320,192,132997,1,0,0:0:0:0:
448,192,132997,1,0,0:0:0:0:
192,192,133085,1,0,0:0:0:0:
64,192,133173,1,0,0:0:0:0:
448,192,133173,1,0,0:0:0:0:
320,192,133173,1,0,0:0:0:0:
192,192,133261,1,0,0:0:0:0:
448,192,133350,1,0,0:0:0:0:
320,192,133438,1,0,0:0:0:0:
192,192,133526,1,0,0:0:0:0:
64,192,133526,1,0,0:0:0:0:
320,192,133614,1,0,0:0:0:0:
448,192,133702,1,0,0:0:0:0:
64,192,133702,1,0,0:0:0:0:
192,192,133791,1,0,0:0:0:0:
320,192,133879,1,0,0:0:0:0:
448,192,133967,1,0,0:0:0:0:
64,192,133967,1,0,0:0:0:0:
192,192,134055,1,0,0:0:0:0:
320,192,134055,1,0,0:0:0:0:
448,192,134144,1,0,0:0:0:0:
320,192,134232,1,0,0:0:0:0:
64,192,134408,1,0,0:0:0:0:
192,192,134408,1,0,0:0:0:0:
320,192,134585,1,0,0:0:0:0:
192,192,134585,1,0,0:0:0:0:
448,192,134585,1,0,0:0:0:0:
192,192,134761,1,0,0:0:0:0:
320,192,134850,1,0,0:0:0:0:
192,192,134938,1,0,0:0:0:0:
192,192,135114,1,0,0:0:0:0:
320,192,135202,1,0,0:0:0:0:
192,192,135291,1,0,0:0:0:0:
192,192,135467,1,0,0:0:0:0:
320,192,135555,1,0,0:0:0:0:
192,192,135644,1,0,0:0:0:0:
320,192,135820,1,0,0:0:0:0:
192,192,135908,1,0,0:0:0:0:
320,192,135997,1,0,0:0:0:0:
448,192,135997,1,0,0:0:0:0:
192,192,136173,1,0,0:0:0:0:
64,192,136173,1,0,0:0:0:0:
320,192,136350,1,0,0:0:0:0:
192,192,136350,1,0,0:0:0:0:
448,192,136350,1,0,0:0:0:0:
320,192,136526,1,0,0:0:0:0:
192,192,136526,1,0,0:0:0:0:
320,192,136702,1,0,0:0:0:0:
448,192,136702,1,0,0:0:0:0:
192,192,136702,1,0,0:0:0:0:
320,192,136879,1,0,0:0:0:0:
448,192,136879,1,0,0:0:0:0:
448,192,137055,1,0,0:0:0:0:
320,192,137055,1,0,0:0:0:0:
192,192,137055,1,0,0:0:0:0:
320,192,137232,1,0,0:0:0:0:
192,192,137232,1,0,0:0:0:0:
320,192,137408,1,0,0:0:0:0:
448,192,137408,1,0,0:0:0:0:
64,192,137408,1,0,0:0:0:0:
192,192,137585,1,0,0:0:0:0:
64,192,137585,1,0,0:0:0:0:
192,192,137761,1,0,0:0:0:0:
320,192,137761,1,0,0:0:0:0:
320,192,137938,1,0,0:0:0:0:
448,192,137938,1,0,0:0:0:0:
64,192,138114,1,0,0:0:0:0:
320,192,138114,1,0,0:0:0:0:
192,192,138114,128,0,138291:0:0:0:0:
64,192,138291,1,0,0:0:0:0:
448,192,138291,1,0,0:0:0:0:
320,192,138291,128,0,138467:0:0:0:0:
64,192,138467,1,0,0:0:0:0:
192,192,138467,1,0,0:0:0:0:
448,192,138467,128,0,138644:0:0:0:0:
320,192,138644,1,0,0:0:0:0:
192,192,138644,1,0,0:0:0:0:
64,192,138644,128,0,138820:0:0:0:0:
192,192,138820,1,0,0:0:0:0:
320,192,138820,1,0,0:0:0:0:
448,192,138820,1,0,0:0:0:0:
192,192,138997,1,0,0:0:0:0:
192,192,139173,1,0,0:0:0:0:
320,192,139350,1,0,0:0:0:0:
448,192,139526,1,0,0:0:0:0:
192,192,139526,1,0,0:0:0:0:
192,192,139702,1,0,0:0:0:0:
192,192,139879,1,0,0:0:0:0:
320,192,140055,1,0,0:0:0:0:
192,192,140232,1,0,0:0:0:0:
64,192,140232,1,0,0:0:0:0:
448,192,140320,1,0,0:0:0:0:
320,192,140408,1,0,0:0:0:0:
192,192,140497,1,0,0:0:0:0:
64,192,140585,1,0,0:0:0:0:
448,192,140673,1,0,0:0:0:0:
320,192,140761,1,0,0:0:0:0:
192,192,140850,1,0,0:0:0:0:
64,192,140938,1,0,0:0:0:0:
448,192,140997,1,0,0:0:0:0:
320,192,141055,1,0,0:0:0:0:
192,192,141114,1,0,0:0:0:0:
64,192,141173,1,0,0:0:0:0:
192,192,141232,1,0,0:0:0:0:
320,192,141291,1,0,0:0:0:0:
448,192,141350,1,0,0:0:0:0:
64,192,141408,1,0,0:0:0:0:
192,192,141467,1,0,0:0:0:0:
320,192,141526,1,0,0:0:0:0:
448,192,141585,1,0,0:0:0:0:
64,192,141600,1,0,0:0:0:0:
192,192,141600,1,0,0:0:0:0:
320,192,141766,1,0,0:0:0:0:
448,192,141933,1,0,0:0:0:0:
320,192,142100,1,0,0:0:0:0:
192,192,142266,1,0,0:0:0:0:
64,192,142433,1,0,0:0:0:0:
192,192,142600,1,0,0:0:0:0:
320,192,142766,1,0,0:0:0:0:
448,192,142933,1,0,0:0:0:0:
320,192,143100,1,0,0:0:0:0:
320,192,143266,1,0,0:0:0:0:
448,192,143433,1,0,0:0:0:0:
448,192,143600,1,0,0:0:0:0:
320,192,143766,1,0,0:0:0:0:
320,192,143933,1,0,0:0:0:0:
448,192,144100,1,0,0:0:0:0:
64,192,144266,1,0,0:0:0:0:
192,192,144266,1,0,0:0:0:0:
448,192,144433,1,0,0:0:0:0:
320,192,144600,1,0,0:0:0:0:
192,192,144766,1,0,0:0:0:0:
64,192,144933,1,0,0:0:0:0:
192,192,145100,1,0,0:0:0:0:
320,192,145266,1,0,0:0:0:0:
448,192,145433,1,0,0:0:0:0:
320,192,145600,1,0,0:0:0:0:
192,192,145766,1,0,0:0:0:0:
64,192,145933,1,0,0:0:0:0:
192,192,146100,1,0,0:0:0:0:
64,192,146266,1,0,0:0:0:0:
192,192,146433,1,0,0:0:0:0:
320,192,146600,1,0,0:0:0:0:
192,192,146766,1,0,0:0:0:0:
320,192,146933,1,0,0:0:0:0:
448,192,146933,1,0,0:0:0:0:
192,192,147100,1,0,0:0:0:0:
320,192,147266,1,0,0:0:0:0:
448,192,147433,1,0,0:0:0:0:
64,192,147600,1,0,0:0:0:0:
192,192,147766,1,0,0:0:0:0:
448,192,147933,1,0,0:0:0:0:
320,192,148100,1,0,0:0:0:0:
64,192,148266,1,0,0:0:0:0:
192,192,148266,1,0,0:0:0:0:
320,192,148433,1,0,0:0:0:0:
192,192,148600,1,0,0:0:0:0:
320,192,148766,1,0,0:0:0:0:
192,192,148933,1,0,0:0:0:0:
320,192,149100,1,0,0:0:0:0:
448,192,149266,1,0,0:0:0:0:
320,192,149433,1,0,0:0:0:0:
192,192,149600,1,0,0:0:0:0:
64,192,149600,1,0,0:0:0:0:
64,192,149711,1,0,0:0:0:0:
64,192,149822,1,0,0:0:0:0:
320,192,149933,1,0,0:0:0:0:
448,192,149933,1,0,0:0:0:0:
448,192,150044,1,0,0:0:0:0:
448,192,150155,1,0,0:0:0:0:
192,192,150266,1,0,0:0:0:0:
64,192,150266,1,0,0:0:0:0:
64,192,150377,1,0,0:0:0:0:
64,192,150488,1,0,0:0:0:0:
320,192,150600,1,0,0:0:0:0:
448,192,150600,1,0,0:0:0:0:
448,192,150711,1,0,0:0:0:0:
448,192,150822,1,0,0:0:0:0:
448,192,150933,1,0,0:0:0:0:
320,192,150933,1,0,0:0:0:0:
192,192,151016,1,0,0:0:0:0:
64,192,151100,1,0,0:0:0:0:
448,192,151183,1,0,0:0:0:0:
320,192,151183,1,0,0:0:0:0:
192,192,151266,1,0,0:0:0:0:
64,192,151350,1,0,0:0:0:0:
448,192,151433,1,0,0:0:0:0:
320,192,151433,1,0,0:0:0:0:
64,192,151600,1,0,0:0:0:0:
64,192,151680,1,0,0:0:0:0:
64,192,151775,1,0,0:0:0:0:
64,192,151870,1,0,0:0:0:0:
64,192,151965,1,0,0:0:0:0:
64,192,152060,1,0,0:0:0:0:
64,192,152156,1,0,0:0:0:0:
64,192,152251,1,0,0:0:0:0:
320,192,152270,1,0,0:0:0:0:
320,192,152365,1,0,0:0:0:0:
320,192,152460,1,0,0:0:0:0:
320,192,152555,1,0,0:0:0:0:
320,192,152650,1,0,0:0:0:0:
320,192,152746,1,0,0:0:0:0:
320,192,152841,1,0,0:0:0:0:
320,192,152936,1,0,0:0:0:0:
320,192,153031,1,0,0:0:0:0:
320,192,153127,1,0,0:0:0:0:
192,192,153127,1,0,0:0:0:0:
192,192,153222,1,0,0:0:0:0:
192,192,153317,1,0,0:0:0:0:
192,192,153412,1,0,0:0:0:0:
192,192,153508,1,0,0:0:0:0:
192,192,153603,1,0,0:0:0:0:
192,192,153698,1,0,0:0:0:0:
64,192,153698,1,0,0:0:0:0:
64,192,153793,1,0,0:0:0:0:
64,192,153889,1,0,0:0:0:0:
64,192,153984,1,0,0:0:0:0:
64,192,154079,1,0,0:0:0:0:
64,192,154174,1,0,0:0:0:0:
64,192,154270,1,0,0:0:0:0:
448,192,154270,1,0,0:0:0:0:
448,192,154365,1,0,0:0:0:0:
448,192,154460,1,0,0:0:0:0:
192,192,154500,1,0,0:0:0:0:
192,192,154595,1,0,0:0:0:0:
192,192,154690,1,0,0:0:0:0:
192,192,154785,1,0,0:0:0:0:
192,192,154880,1,0,0:0:0:0:
192,192,154976,1,0,0:0:0:0:
192,192,155071,1,0,0:0:0:0:
192,192,155166,1,0,0:0:0:0:
192,192,155261,1,0,0:0:0:0:
320,192,155357,1,0,0:0:0:0:
448,192,155357,1,0,0:0:0:0:
448,192,155452,1,0,0:0:0:0:
448,192,155547,1,0,0:0:0:0:
448,192,155642,1,0,0:0:0:0:
448,192,155738,1,0,0:0:0:0:
448,192,155833,1,0,0:0:0:0:
448,192,155928,1,0,0:0:0:0:
192,192,155928,1,0,0:0:0:0:
192,192,156023,1,0,0:0:0:0:
192,192,156119,1,0,0:0:0:0:
192,192,156214,1,0,0:0:0:0:
192,192,156309,1,0,0:0:0:0:
192,192,156404,1,0,0:0:0:0:
192,192,156500,1,0,0:0:0:0:
320,192,156500,1,0,0:0:0:0:
320,192,156595,1,0,0:0:0:0:
320,192,156690,1,0,0:0:0:0:
320,192,156775,1,0,0:0:0:0:
64,192,156775,1,0,0:0:0:0:
64,192,156870,1,0,0:0:0:0:
64,192,156965,1,0,0:0:0:0:
64,192,157060,1,0,0:0:0:0:
64,192,157155,1,0,0:0:0:0:
64,192,157251,1,0,0:0:0:0:
64,192,157346,1,0,0:0:0:0:
64,192,157441,1,0,0:0:0:0:
64,192,157536,1,0,0:0:0:0:
64,192,157632,1,0,0:0:0:0:
320,192,157632,1,0,0:0:0:0:
320,192,157727,1,0,0:0:0:0:
320,192,157822,1,0,0:0:0:0:
320,192,157917,1,0,0:0:0:0:
320,192,158013,1,0,0:0:0:0:
320,192,158108,1,0,0:0:0:0:
320,192,158203,1,0,0:0:0:0:
192,192,158203,1,0,0:0:0:0:
192,192,158298,1,0,0:0:0:0:
192,192,158394,1,0,0:0:0:0:
192,192,158489,1,0,0:0:0:0:
192,192,158584,1,0,0:0:0:0:
192,192,158679,1,0,0:0:0:0:
192,192,158775,1,0,0:0:0:0:
320,192,158775,1,0,0:0:0:0:
192,192,158870,1,0,0:0:0:0:
320,192,158870,1,0,0:0:0:0:
192,192,158965,1,0,0:0:0:0:
320,192,158965,1,0,0:0:0:0:
448,192,159025,1,0,0:0:0:0:
448,192,159120,1,0,0:0:0:0:
448,192,159215,1,0,0:0:0:0:
448,192,159310,1,0,0:0:0:0:
448,192,159405,1,0,0:0:0:0:
448,192,159501,1,0,0:0:0:0:
448,192,159596,1,0,0:0:0:0:
448,192,159691,1,0,0:0:0:0:
448,192,159786,1,0,0:0:0:0:
448,192,159882,1,0,0:0:0:0:
192,192,159882,1,0,0:0:0:0:
192,192,159977,1,0,0:0:0:0:
192,192,160072,1,0,0:0:0:0:
192,192,160167,1,0,0:0:0:0:
192,192,160263,1,0,0:0:0:0:
192,192,160358,1,0,0:0:0:0:
192,192,160453,1,0,0:0:0:0:
320,192,160453,1,0,0:0:0:0:
320,192,160548,1,0,0:0:0:0:
320,192,160644,1,0,0:0:0:0:
320,192,160739,1,0,0:0:0:0:
320,192,160834,1,0,0:0:0:0:
320,192,160929,1,0,0:0:0:0:
320,192,161025,1,0,0:0:0:0:
64,192,161025,1,0,0:0:0:0:
64,192,161120,1,0,0:0:0:0:
64,192,161215,1,0,0:0:0:0:
64,192,161310,1,0,0:0:0:0:
192,192,161310,1,0,0:0:0:0:
192,192,161405,1,0,0:0:0:0:
192,192,161501,1,0,0:0:0:0:
192,192,161596,1,0,0:0:0:0:
192,192,161691,1,0,0:0:0:0:
192,192,161786,1,0,0:0:0:0:
192,192,161882,1,0,0:0:0:0:
192,192,161977,1,0,0:0:0:0:
192,192,162072,1,0,0:0:0:0:
192,192,162167,1,0,0:0:0:0:
448,192,162167,1,0,0:0:0:0:
448,192,162263,1,0,0:0:0:0:
448,192,162358,1,0,0:0:0:0:
448,192,162453,1,0,0:0:0:0:
448,192,162548,1,0,0:0:0:0:
448,192,162644,1,0,0:0:0:0:
448,192,162739,1,0,0:0:0:0:
320,192,162739,1,0,0:0:0:0:
192,192,162739,1,0,0:0:0:0:
320,192,162834,1,0,0:0:0:0:
192,192,162834,1,0,0:0:0:0:
320,192,162929,1,0,0:0:0:0:
192,192,162929,1,0,0:0:0:0:
192,192,163025,1,0,0:0:0:0:
320,192,163025,1,0,0:0:0:0:
320,192,163120,1,0,0:0:0:0:
192,192,163120,1,0,0:0:0:0:
320,192,163215,1,0,0:0:0:0:
192,192,163215,1,0,0:0:0:0:
192,192,163310,1,0,0:0:0:0:
320,192,163310,1,0,0:0:0:0:
448,192,163310,1,0,0:0:0:0:
448,192,163405,1,0,0:0:0:0:
448,192,163501,1,0,0:0:0:0:
448,192,163596,1,0,0:0:0:0:
64,192,163596,1,0,0:0:0:0:
64,192,163691,1,0,0:0:0:0:
448,192,163691,1,0,0:0:0:0:
448,192,163786,1,0,0:0:0:0:
64,192,163786,1,0,0:0:0:0:
64,192,163882,1,0,0:0:0:0:
448,192,163882,1,0,0:0:0:0:
448,192,163977,1,0,0:0:0:0:
64,192,163977,1,0,0:0:0:0:
448,192,164072,1,0,0:0:0:0:
64,192,164072,1,0,0:0:0:0:
448,192,164167,1,0,0:0:0:0:
64,192,164167,1,0,0:0:0:0:
64,192,164263,1,0,0:0:0:0:
448,192,164263,1,0,0:0:0:0:
64,192,164358,1,0,0:0:0:0:
448,192,164358,1,0,0:0:0:0:
64,192,164453,1,0,0:0:0:0:
448,192,164453,1,0,0:0:0:0:
192,192,164453,1,0,0:0:0:0:
320,192,164453,1,0,0:0:0:0:
320,192,164548,1,0,0:0:0:0:
192,192,164548,1,0,0:0:0:0:
192,192,164644,1,0,0:0:0:0:
320,192,164644,1,0,0:0:0:0:
320,192,164739,1,0,0:0:0:0:
192,192,164739,1,0,0:0:0:0:
192,192,164834,1,0,0:0:0:0:
320,192,164834,1,0,0:0:0:0:
320,192,164929,1,0,0:0:0:0:
192,192,164929,1,0,0:0:0:0:
320,192,165025,1,0,0:0:0:0:
192,192,165025,1,0,0:0:0:0:
64,192,165025,1,0,0:0:0:0:
64,192,165120,1,0,0:0:0:0:
64,192,165215,1,0,0:0:0:0:
64,192,165310,1,0,0:0:0:0:
64,192,165405,1,0,0:0:0:0:
64,192,165501,1,0,0:0:0:0:
64,192,165596,1,0,0:0:0:0:
448,192,165596,1,0,0:0:0:0:
448,192,165691,1,0,0:0:0:0:
448,192,165786,1,0,0:0:0:0:
448,192,165882,1,0,0:0:0:0:
64,192,165882,1,0,0:0:0:0:
192,192,165977,1,0,0:0:0:0:
320,192,166072,1,0,0:0:0:0:
448,192,166167,1,0,0:0:0:0:
64,192,166453,1,0,0:0:0:0:
192,192,166548,1,0,0:0:0:0:
320,192,166644,1,0,0:0:0:0:
448,192,166739,1,0,0:0:0:0:
64,192,167025,1,0,0:0:0:0:
192,192,167120,1,0,0:0:0:0:
320,192,167215,1,0,0:0:0:0:
448,192,167310,1,0,0:0:0:0:
64,192,167596,1,0,0:0:0:0:
192,192,167691,1,0,0:0:0:0:
320,192,167786,1,0,0:0:0:0:
448,192,167882,1,0,0:0:0:0:
192,192,168072,1,0,0:0:0:0:
64,192,168167,1,0,0:0:0:0:
448,192,168167,1,0,0:0:0:0:
320,192,168453,1,0,0:0:0:0:
192,192,168453,1,0,0:0:0:0:
320,192,168596,1,0,0:0:0:0:
192,192,168596,1,0,0:0:0:0:
192,192,168739,1,0,0:0:0:0:
320,192,168739,1,0,0:0:0:0:
320,192,168882,1,0,0:0:0:0:
192,192,168882,1,0,0:0:0:0:
320,192,169167,1,0,0:0:0:0:
64,192,169310,1,0,0:0:0:0:
192,192,169310,1,0,0:0:0:0:
448,192,169310,1,0,0:0:0:0:
320,192,169524,1,0,0:0:0:0:
448,192,169631,1,0,0:0:0:0:
192,192,169738,1,0,0:0:0:0:
64,192,169738,1,0,0:0:0:0:
320,192,170167,1,0,0:0:0:0:
192,192,170167,1,0,0:0:0:0:
64,192,170615,1,0,0:0:0:0:
192,192,170615,1,0,0:0:0:0:
448,192,170615,1,0,0:0:0:0:
320,192,170615,1,0,0:0:0:0:
64,192,170722,1,0,0:0:0:0:
320,192,170722,1,0,0:0:0:0:
448,192,170722,1,0,0:0:0:0:
192,192,170748,1,0,0:0:0:0:
448,192,170829,1,0,0:0:0:0:
320,192,170829,1,0,0:0:0:0:
64,192,170829,1,0,0:0:0:0:
192,192,170856,1,0,0:0:0:0:
64,192,170936,1,0,0:0:0:0:
320,192,170936,1,0,0:0:0:0:
448,192,170936,1,0,0:0:0:0:
192,192,170963,1,0,0:0:0:0:
64,192,171043,1,0,0:0:0:0:
320,192,171043,1,0,0:0:0:0:
448,192,171043,1,0,0:0:0:0:
192,192,171070,1,0,0:0:0:0:
64,192,171150,1,0,0:0:0:0:
320,192,171150,1,0,0:0:0:0:
448,192,171150,1,0,0:0:0:0:
192,192,171177,1,0,0:0:0:0:
64,192,171257,1,0,0:0:0:0:
320,192,171257,1,0,0:0:0:0:
448,192,171257,1,0,0:0:0:0:
192,192,171284,1,0,0:0:0:0:
64,192,171365,1,0,0:0:0:0:
192,192,171365,1,0,0:0:0:0:
320,192,171365,1,0,0:0:0:0:
448,192,171391,1,0,0:0:0:0:
64,192,171472,1,0,0:0:0:0:
192,192,171472,1,0,0:0:0:0:
320,192,171472,1,0,0:0:0:0:
448,192,171498,1,0,0:0:0:0:
64,192,171579,1,0,0:0:0:0:
192,192,171579,1,0,0:0:0:0:
320,192,171579,1,0,0:0:0:0:
448,192,171606,1,0,0:0:0:0:
64,192,171686,1,0,0:0:0:0:
192,192,171686,1,0,0:0:0:0:
320,192,171686,1,0,0:0:0:0:
448,192,171713,1,0,0:0:0:0:
64,192,171793,1,0,0:0:0:0:
192,192,171793,1,0,0:0:0:0:
320,192,171793,1,0,0:0:0:0:
448,192,171820,1,0,0:0:0:0:
64,192,171900,1,0,0:0:0:0:
192,192,171900,1,0,0:0:0:0:
320,192,171900,1,0,0:0:0:0:
448,192,171927,1,0,0:0:0:0:
64,192,172007,1,0,0:0:0:0:
192,192,172007,1,0,0:0:0:0:
320,192,172007,1,0,0:0:0:0:
448,192,172034,1,0,0:0:0:0:
64,192,172115,1,0,0:0:0:0:
192,192,172115,1,0,0:0:0:0:
320,192,172115,1,0,0:0:0:0:
448,192,172141,1,0,0:0:0:0:
64,192,172222,1,0,0:0:0:0:
192,192,172222,1,0,0:0:0:0:
320,192,172222,1,0,0:0:0:0:
448,192,172222,1,0,0:0:0:0:
448,192,172329,1,0,0:0:0:0:
320,192,172329,1,0,0:0:0:0:
192,192,172329,1,0,0:0:0:0:
64,192,172329,1,0,0:0:0:0:
64,192,172436,1,0,0:0:0:0:
192,192,172436,1,0,0:0:0:0:
320,192,172436,1,0,0:0:0:0:
448,192,172436,1,0,0:0:0:0:
448,192,172543,1,0,0:0:0:0:
64,192,172543,1,0,0:0:0:0:
320,192,172543,1,0,0:0:0:0:
192,192,172543,1,0,0:0:0:0:
64,192,172650,1,0,0:0:0:0:
192,192,172650,1,0,0:0:0:0:
320,192,172650,1,0,0:0:0:0:
448,192,172650,1,0,0:0:0:0:
448,192,172757,1,0,0:0:0:0:
320,192,172757,1,0,0:0:0:0:
192,192,172757,1,0,0:0:0:0:
64,192,172757,1,0,0:0:0:0:
64,192,172865,1,0,0:0:0:0:
192,192,172865,1,0,0:0:0:0:
320,192,172891,1,0,0:0:0:0:
448,192,172891,1,0,0:0:0:0:
64,192,172972,1,0,0:0:0:0:
192,192,172972,1,0,0:0:0:0:
320,192,172998,1,0,0:0:0:0:
448,192,172998,1,0,0:0:0:0:
192,192,173079,1,0,0:0:0:0:
64,192,173079,1,0,0:0:0:0:
320,192,173106,1,0,0:0:0:0:
448,192,173106,1,0,0:0:0:0:
192,192,173186,1,0,0:0:0:0:
64,192,173186,1,0,0:0:0:0:
320,192,173213,1,0,0:0:0:0:
448,192,173213,1,0,0:0:0:0:
64,192,173293,1,0,0:0:0:0:
192,192,173320,1,0,0:0:0:0:
320,192,173347,1,0,0:0:0:0:
448,192,173347,1,0,0:0:0:0:
64,192,173400,1,0,0:0:0:0:
192,192,173427,1,0,0:0:0:0:
320,192,173454,1,0,0:0:0:0:
448,192,173454,1,0,0:0:0:0:
64,192,173507,1,0,0:0:0:0:
192,192,173534,1,0,0:0:0:0:
320,192,173561,1,0,0:0:0:0:
448,192,173561,1,0,0:0:0:0:
64,192,173615,1,0,0:0:0:0:
192,192,173641,1,0,0:0:0:0:
320,192,173668,1,0,0:0:0:0:
448,192,173668,1,0,0:0:0:0:
64,192,173722,1,0,0:0:0:0:
192,192,173748,1,0,0:0:0:0:
320,192,173775,1,0,0:0:0:0:
448,192,173775,1,0,0:0:0:0:
64,192,173829,1,0,0:0:0:0:
192,192,173856,1,0,0:0:0:0:
320,192,173882,1,0,0:0:0:0:
448,192,173882,1,0,0:0:0:0:
64,192,173936,1,0,0:0:0:0:
192,192,173963,1,0,0:0:0:0:
320,192,173990,1,0,0:0:0:0:
448,192,173990,1,0,0:0:0:0:
320,192,174043,1,0,0:0:0:0:
448,192,174043,1,0,0:0:0:0:
192,192,174070,1,0,0:0:0:0:
64,192,174097,1,0,0:0:0:0:
320,192,174150,1,0,0:0:0:0:
448,192,174150,1,0,0:0:0:0:
192,192,174177,1,0,0:0:0:0:
64,192,174204,1,0,0:0:0:0:
320,192,174257,1,0,0:0:0:0:
448,192,174257,1,0,0:0:0:0:
192,192,174284,1,0,0:0:0:0:
64,192,174311,1,0,0:0:0:0:
320,192,174365,1,0,0:0:0:0:
448,192,174365,1,0,0:0:0:0:
192,192,174391,1,0,0:0:0:0:
64,192,174418,1,0,0:0:0:0:
320,192,174472,1,0,0:0:0:0:
448,192,174472,1,0,0:0:0:0:
192,192,174498,1,0,0:0:0:0:
64,192,174525,1,0,0:0:0:0:
448,192,174579,1,0,0:0:0:0:
320,192,174579,1,0,0:0:0:0:
192,192,174579,1,0,0:0:0:0:
64,192,174579,1,0,0:0:0:0:
64,192,174686,1,0,0:0:0:0:
192,192,174686,1,0,0:0:0:0:
320,192,174686,1,0,0:0:0:0:
448,192,174686,1,0,0:0:0:0:
448,192,174793,1,0,0:0:0:0:
320,192,174793,1,0,0:0:0:0:
192,192,174793,1,0,0:0:0:0:
64,192,174820,1,0,0:0:0:0:
192,192,174900,1,0,0:0:0:0:
448,192,174900,1,0,0:0:0:0:
320,192,174900,1,0,0:0:0:0:
64,192,174927,1,0,0:0:0:0:
192,192,175007,1,0,0:0:0:0:
320,192,175007,1,0,0:0:0:0:
448,192,175007,1,0,0:0:0:0:
64,192,175034,1,0,0:0:0:0:
192,192,175115,1,0,0:0:0:0:
320,192,175115,1,0,0:0:0:0:
448,192,175115,1,0,0:0:0:0:
64,192,175141,1,0,0:0:0:0:
192,192,175222,1,0,0:0:0:0:
320,192,175222,1,0,0:0:0:0:
448,192,175222,1,0,0:0:0:0:
64,192,175248,1,0,0:0:0:0:
192,192,175329,1,0,0:0:0:0:
320,192,175329,1,0,0:0:0:0:
448,192,175329,1,0,0:0:0:0:
64,192,175356,1,0,0:0:0:0:
192,192,175436,1,0,0:0:0:0:
320,192,175436,1,0,0:0:0:0:
448,192,175436,1,0,0:0:0:0:
64,192,175463,1,0,0:0:0:0:
192,192,175543,1,0,0:0:0:0:
320,192,175543,1,0,0:0:0:0:
448,192,175543,1,0,0:0:0:0:
64,192,175570,1,0,0:0:0:0:
192,192,175650,1,0,0:0:0:0:
320,192,175650,1,0,0:0:0:0:
448,192,175650,1,0,0:0:0:0:
64,192,175677,1,0,0:0:0:0:
192,192,175757,1,0,0:0:0:0:
320,192,175757,1,0,0:0:0:0:
448,192,175757,1,0,0:0:0:0:
64,192,175757,1,0,0:0:0:0:
320,192,175865,1,0,0:0:0:0:
448,192,175865,1,0,0:0:0:0:
448,192,175972,1,0,0:0:0:0:
320,192,175972,1,0,0:0:0:0:
320,192,176079,1,0,0:0:0:0:
448,192,176079,1,0,0:0:0:0:
448,192,176186,1,0,0:0:0:0:
320,192,176186,1,0,0:0:0:0:
320,192,176293,1,0,0:0:0:0:
448,192,176293,1,0,0:0:0:0:
320,192,176400,1,0,0:0:0:0:
448,192,176400,1,0,0:0:0:0:
448,192,176507,1,0,0:0:0:0:
320,192,176507,1,0,0:0:0:0:
320,192,176615,1,0,0:0:0:0:
448,192,176615,1,0,0:0:0:0:
320,192,176722,1,0,0:0:0:0:
448,192,176722,1,0,0:0:0:0:
320,192,176829,1,0,0:0:0:0:
448,192,176829,1,0,0:0:0:0:
448,192,176936,1,0,0:0:0:0:
320,192,176936,1,0,0:0:0:0:
448,192,177043,1,0,0:0:0:0:
448,192,177150,1,0,0:0:0:0:
448,192,177257,1,0,0:0:0:0:
448,192,177365,1,0,0:0:0:0:
64,192,177686,1,0,0:0:0:0:
192,192,177713,1,0,0:0:0:0:
320,192,177713,1,0,0:0:0:0:
448,192,177740,1,0,0:0:0:0:
64,192,177793,1,0,0:0:0:0:
192,192,177820,1,0,0:0:0:0:
320,192,177820,1,0,0:0:0:0:
448,192,177847,1,0,0:0:0:0:
64,192,177900,1,0,0:0:0:0:
192,192,177927,1,0,0:0:0:0:
320,192,177927,1,0,0:0:0:0:
448,192,177954,1,0,0:0:0:0:
64,192,178007,1,0,0:0:0:0:
192,192,178034,1,0,0:0:0:0:
320,192,178034,1,0,0:0:0:0:
448,192,178061,1,0,0:0:0:0:
64,192,178115,1,0,0:0:0:0:
192,192,178141,1,0,0:0:0:0:
320,192,178141,1,0,0:0:0:0:
448,192,178168,1,0,0:0:0:0:
64,192,178222,1,0,0:0:0:0:
192,192,178248,1,0,0:0:0:0:
320,192,178248,1,0,0:0:0:0:
448,192,178275,1,0,0:0:0:0:
64,192,178329,1,0,0:0:0:0:
192,192,178356,1,0,0:0:0:0:
320,192,178356,1,0,0:0:0:0:
448,192,178382,1,0,0:0:0:0:
64,192,178436,1,0,0:0:0:0:
192,192,178436,1,0,0:0:0:0:
320,192,178463,1,0,0:0:0:0:
448,192,178490,1,0,0:0:0:0:
64,192,178543,1,0,0:0:0:0:
192,192,178543,1,0,0:0:0:0:
320,192,178570,1,0,0:0:0:0:
448,192,178597,1,0,0:0:0:0:
64,192,178650,1,0,0:0:0:0:
192,192,178650,1,0,0:0:0:0:
320,192,178677,1,0,0:0:0:0:
448,192,178704,1,0,0:0:0:0:
64,192,178757,1,0,0:0:0:0:
192,192,178757,1,0,0:0:0:0:
320,192,178784,1,0,0:0:0:0:
448,192,178811,1,0,0:0:0:0:
64,192,178865,1,0,0:0:0:0:
192,192,178865,1,0,0:0:0:0:
320,192,178891,1,0,0:0:0:0:
448,192,178918,1,0,0:0:0:0:
64,192,178972,1,0,0:0:0:0:
192,192,178972,1,0,0:0:0:0:
320,192,178998,1,0,0:0:0:0:
448,192,179025,1,0,0:0:0:0:
64,192,179079,1,0,0:0:0:0:
192,192,179079,1,0,0:0:0:0:
320,192,179079,1,0,0:0:0:0:
448,192,179106,1,0,0:0:0:0:
64,192,179186,1,0,0:0:0:0:
320,192,179186,1,0,0:0:0:0:
192,192,179186,1,0,0:0:0:0:
448,192,179213,1,0,0:0:0:0:
64,192,179293,1,0,0:0:0:0:
192,192,179293,1,0,0:0:0:0:
320,192,179293,1,0,0:0:0:0:
448,192,179320,1,0,0:0:0:0:
64,192,179400,1,0,0:0:0:0:
192,192,179400,1,0,0:0:0:0:
320,192,179400,1,0,0:0:0:0:
448,192,179427,1,0,0:0:0:0:
64,192,179507,1,0,0:0:0:0:
192,192,179507,1,0,0:0:0:0:
320,192,179507,1,0,0:0:0:0:
448,192,179534,1,0,0:0:0:0:
64,192,179615,1,0,0:0:0:0:
192,192,179722,1,0,0:0:0:0:
320,192,179829,1,0,0:0:0:0:
448,192,179936,1,0,0:0:0:0:
320,192,180043,1,0,0:0:0:0:
192,192,180150,1,0,0:0:0:0:
64,192,180257,1,0,0:0:0:0:
448,192,180365,1,0,0:0:0:0:
320,192,180472,1,0,0:0:0:0:
192,192,180579,1,0,0:0:0:0:
448,192,180579,128,0,181007:0:0:0:0:
64,192,180686,1,0,0:0:0:0:
64,192,181115,1,0,0:0:0:0:
448,192,181115,1,0,0:0:0:0:
320,192,181115,1,0,0:0:0:0:
192,192,181141,1,0,0:0:0:0:
448,192,181222,1,0,0:0:0:0:
192,192,181222,1,0,0:0:0:0:
64,192,181222,1,0,0:0:0:0:
320,192,181248,1,0,0:0:0:0:
64,192,181329,1,0,0:0:0:0:
320,192,181329,1,0,0:0:0:0:
192,192,181356,1,0,0:0:0:0:
448,192,181356,1,0,0:0:0:0:
64,192,181436,1,0,0:0:0:0:
320,192,181436,1,0,0:0:0:0:
192,192,181463,1,0,0:0:0:0:
448,192,181463,1,0,0:0:0:0:
64,192,181543,1,0,0:0:0:0:
448,192,181543,1,0,0:0:0:0:
192,192,181570,1,0,0:0:0:0:
320,192,181597,1,0,0:0:0:0:
64,192,181650,1,0,0:0:0:0:
448,192,181650,1,0,0:0:0:0:
192,192,181677,1,0,0:0:0:0:
320,192,181677,1,0,0:0:0:0:
64,192,181757,1,0,0:0:0:0:
448,192,181757,1,0,0:0:0:0:
320,192,181757,1,0,0:0:0:0:
192,192,181784,1,0,0:0:0:0:
192,192,181865,1,0,0:0:0:0:
320,192,181865,1,0,0:0:0:0:
448,192,181865,1,0,0:0:0:0:
64,192,181891,1,0,0:0:0:0:
64,192,181972,1,0,0:0:0:0:
192,192,181972,1,0,0:0:0:0:
320,192,181998,1,0,0:0:0:0:
448,192,181998,1,0,0:0:0:0:
64,192,182079,1,0,0:0:0:0:
192,192,182079,1,0,0:0:0:0:
448,192,182079,1,0,0:0:0:0:
320,192,182079,1,0,0:0:0:0:
64,192,182186,1,0,0:0:0:0:
192,192,182186,1,0,0:0:0:0:
448,192,182186,1,0,0:0:0:0:
320,192,182186,1,0,0:0:0:0:
448,192,182293,1,0,0:0:0:0:
320,192,182293,1,0,0:0:0:0:
192,192,182293,1,0,0:0:0:0:
64,192,182293,1,0,0:0:0:0:
64,192,182400,1,0,0:0:0:0:
192,192,182400,1,0,0:0:0:0:
320,192,182400,1,0,0:0:0:0:
448,192,182400,1,0,0:0:0:0:
448,192,182507,1,0,0:0:0:0:
320,192,182507,1,0,0:0:0:0:
192,192,182507,1,0,0:0:0:0:
64,192,182507,1,0,0:0:0:0:
64,192,182615,1,0,0:0:0:0:
192,192,182615,1,0,0:0:0:0:
320,192,182615,1,0,0:0:0:0:
448,192,182615,1,0,0:0:0:0:
64,192,182722,128,0,182802:0:0:0:0:
192,192,182722,128,0,182802:0:0:0:0:
320,192,182722,128,0,182802:0:0:0:0:
448,192,182722,128,0,182802:0:0:0:0:
64,192,182829,128,0,182909:0:0:0:0:
192,192,182829,128,0,182909:0:0:0:0:
320,192,182829,128,0,182909:0:0:0:0:
448,192,182829,128,0,182909:0:0:0:0:
64,192,182936,128,0,183016:0:0:0:0:
192,192,182936,128,0,183016:0:0:0:0:
320,192,182936,128,0,183016:0:0:0:0:
448,192,182936,128,0,183016:0:0:0:0:
64,192,183043,128,0,183097:0:0:0:0:
192,192,183043,128,0,183123:0:0:0:0:
320,192,183043,128,0,183097:0:0:0:0:
448,192,183043,128,0,183123:0:0:0:0:
320,192,183150,128,0,183204:0:0:0:0:
64,192,183150,128,0,183204:0:0:0:0:
192,192,183150,128,0,183231:0:0:0:0:
448,192,183150,128,0,183231:0:0:0:0:
64,192,183257,128,0,183311:0:0:0:0:
192,192,183257,128,0,183338:0:0:0:0:
320,192,183257,128,0,183311:0:0:0:0:
448,192,183257,128,0,183338:0:0:0:0:
64,192,183365,128,0,183445:0:0:0:0:
192,192,183365,128,0,183391:0:0:0:0:
320,192,183365,128,0,183418:0:0:0:0:
448,192,183365,128,0,183445:0:0:0:0:
64,192,183472,128,0,183498:0:0:0:0:
192,192,183472,128,0,183525:0:0:0:0:
320,192,183472,128,0,183525:0:0:0:0:
448,192,183472,128,0,183552:0:0:0:0:
320,192,183579,128,0,183659:0:0:0:0:
192,192,183579,128,0,183659:0:0:0:0:
64,192,183579,128,0,183659:0:0:0:0:
448,192,183579,128,0,183659:0:0:0:0:
64,192,183686,1,0,0:0:0:0:
192,192,183686,1,0,0:0:0:0:
320,192,183686,1,0,0:0:0:0:
448,192,183686,1,0,0:0:0:0:
448,192,183793,1,0,0:0:0:0:
320,192,183793,1,0,0:0:0:0:
192,192,183793,1,0,0:0:0:0:
64,192,183793,1,0,0:0:0:0:
64,192,183900,1,0,0:0:0:0:
192,192,183900,1,0,0:0:0:0:
320,192,183900,1,0,0:0:0:0:
448,192,183900,1,0,0:0:0:0:
448,192,184007,1,0,0:0:0:0:
320,192,184007,1,0,0:0:0:0:
192,192,184007,1,0,0:0:0:0:
64,192,184007,1,0,0:0:0:0:
320,192,184088,1,0,0:0:0:0:
64,192,184115,1,0,0:0:0:0:
448,192,184115,1,0,0:0:0:0:
192,192,184115,1,0,0:0:0:0:
64,192,184222,1,0,0:0:0:0:
192,192,184222,1,0,0:0:0:0:
320,192,184222,1,0,0:0:0:0:
448,192,184222,1,0,0:0:0:0:
64,192,184326,1,0,0:0:0:0:
192,192,184326,1,0,0:0:0:0:
320,192,184326,1,0,0:0:0:0:
448,192,184341,1,0,0:0:0:0:
64,192,184416,1,0,0:0:0:0:
192,192,184536,1,0,0:0:0:0:
320,192,184656,1,0,0:0:0:0:
448,192,184776,1,0,0:0:0:0:
320,192,184896,1,0,0:0:0:0:
192,192,185016,1,0,0:0:0:0:
64,192,185136,1,0,0:0:0:0:
192,192,185256,1,0,0:0:0:0:
320,192,185376,1,0,0:0:0:0:
448,192,185496,1,0,0:0:0:0:
320,192,185616,1,0,0:0:0:0:
192,192,185736,1,0,0:0:0:0:
64,192,185856,1,0,0:0:0:0:
192,192,185976,1,0,0:0:0:0:
64,192,186096,1,0,0:0:0:0:
448,192,186216,1,0,0:0:0:0:
320,192,186216,1,0,0:0:0:0:
192,192,186336,1,0,0:0:0:0:
64,192,186456,1,0,0:0:0:0:
192,192,186576,1,0,0:0:0:0:
64,192,186576,1,0,0:0:0:0:
320,192,186696,1,0,0:0:0:0:
192,192,186816,1,0,0:0:0:0:
64,192,186936,1,0,0:0:0:0:
192,192,187056,1,0,0:0:0:0:
448,192,187176,1,0,0:0:0:0:
64,192,187176,1,0,0:0:0:0:
320,192,187296,1,0,0:0:0:0:
192,192,187416,1,0,0:0:0:0:
64,192,187536,1,0,0:0:0:0:
448,192,187656,1,0,0:0:0:0:
320,192,187776,1,0,0:0:0:0:
64,192,187896,1,0,0:0:0:0:
192,192,188016,1,0,0:0:0:0:
448,192,188076,1,0,0:0:0:0:
320,192,188136,1,0,0:0:0:0:
64,192,188136,1,0,0:0:0:0:
192,192,188256,1,0,0:0:0:0:
320,192,188376,1,0,0:0:0:0:
448,192,188496,1,0,0:0:0:0:
192,192,188496,1,0,0:0:0:0:
64,192,188616,128,0,190056:0:0:0:0:
192,192,188736,1,0,0:0:0:0:
320,192,188856,1,0,0:0:0:0:
448,192,188976,1,0,0:0:0:0:
320,192,189096,1,0,0:0:0:0:
192,192,189216,1,0,0:0:0:0:
320,192,189336,1,0,0:0:0:0:
448,192,189456,1,0,0:0:0:0:
192,192,189576,1,0,0:0:0:0:
320,192,189696,1,0,0:0:0:0:
448,192,189816,1,0,0:0:0:0:
192,192,189936,1,0,0:0:0:0:
320,192,189996,1,0,0:0:0:0:
192,192,190056,128,0,190416:0:0:0:0:
448,192,190056,1,0,0:0:0:0:
320,192,190416,128,0,190776:0:0:0:0:
448,192,190776,128,0,191136:0:0:0:0:
320,192,191136,128,0,191496:0:0:0:0:
192,192,191496,128,0,191736:0:0:0:0:
64,192,191736,128,0,191856:0:0:0:0:
192,192,191856,1,0,0:0:0:0:
320,192,191916,1,0,0:0:0:0:
448,192,191976,1,0,0:0:0:0:
64,192,191976,1,0,0:0:0:0:
320,192,192396,128,0,192456:0:0:0:0:
64,192,192456,1,0,0:0:0:0:
192,192,192456,1,0,0:0:0:0:
320,192,192576,1,0,0:0:0:0:
448,192,192576,1,0,0:0:0:0:
192,192,192636,1,0,0:0:0:0:
64,192,192636,1,0,0:0:0:0:
320,192,192696,1,0,0:0:0:0:
448,192,192696,1,0,0:0:0:0:
192,192,192756,1,0,0:0:0:0:
64,192,192756,1,0,0:0:0:0:
320,192,192816,1,0,0:0:0:0:
448,192,192816,1,0,0:0:0:0:
192,192,192876,1,0,0:0:0:0:
64,192,192876,1,0,0:0:0:0:
320,192,192936,1,0,0:0:0:0:
448,192,192945,1,0,0:0:0:0:
64,192,193005,1,0,0:0:0:0:
192,192,193065,1,0,0:0:0:0:
320,192,193125,1,0,0:0:0:0:
448,192,193185,1,0,0:0:0:0:
320,192,193245,1,0,0:0:0:0:
192,192,193305,1,0,0:0:0:0:
64,192,193365,1,0,0:0:0:0:
192,192,193425,1,0,0:0:0:0:
320,192,193485,1,0,0:0:0:0:
448,192,193545,1,0,0:0:0:0:
64,192,193605,1,0,0:0:0:0:
192,192,193665,1,0,0:0:0:0:
320,192,193725,1,0,0:0:0:0:
448,192,193785,1,0,0:0:0:0:
320,192,193845,1,0,0:0:0:0:
192,192,193905,1,0,0:0:0:0:
64,192,193965,1,0,0:0:0:0:
192,192,194025,1,0,0:0:0:0:
320,192,194085,1,0,0:0:0:0:
448,192,194145,1,0,0:0:0:0:
320,192,194205,1,0,0:0:0:0:
192,192,194265,1,0,0:0:0:0:
64,192,194325,1,0,0:0:0:0:
192,192,194385,1,0,0:0:0:0:
320,192,194445,1,0,0:0:0:0:
448,192,194505,1,0,0:0:0:0:
64,192,194565,1,0,0:0:0:0:
192,192,194625,1,0,0:0:0:0:
320,192,194685,1,0,0:0:0:0:
448,192,194745,1,0,0:0:0:0:
64,192,194805,1,0,0:0:0:0:
448,192,194865,1,0,0:0:0:0:
320,192,194925,1,0,0:0:0:0:
192,192,194985,1,0,0:0:0:0:
64,192,195045,1,0,0:0:0:0:
192,192,195105,1,0,0:0:0:0:
320,192,195165,1,0,0:0:0:0:
448,192,195225,1,0,0:0:0:0:
64,192,195285,1,0,0:0:0:0:
192,192,195345,1,0,0:0:0:0:
320,192,195405,1,0,0:0:0:0:
448,192,195465,1,0,0:0:0:0:
320,192,195525,1,0,0:0:0:0:
192,192,195585,1,0,0:0:0:0:
64,192,195645,1,0,0:0:0:0:
192,192,195705,1,0,0:0:0:0:
320,192,195765,1,0,0:0:0:0:
448,192,195825,1,0,0:0:0:0:
320,192,195885,1,0,0:0:0:0:
64,192,195945,1,0,0:0:0:0:
192,192,196005,1,0,0:0:0:0:
448,192,196065,1,0,0:0:0:0:
320,192,196125,1,0,0:0:0:0:
64,192,196185,1,0,0:0:0:0:
192,192,196245,1,0,0:0:0:0:
448,192,196305,1,0,0:0:0:0:
320,192,196365,1,0,0:0:0:0:
64,192,196425,1,0,0:0:0:0:
192,192,196485,1,0,0:0:0:0:
448,192,196545,1,0,0:0:0:0:
320,192,196605,1,0,0:0:0:0:
192,192,196665,1,0,0:0:0:0:
320,192,196725,1,0,0:0:0:0:
64,192,196785,1,0,0:0:0:0:
192,192,196845,1,0,0:0:0:0:
320,192,196905,1,0,0:0:0:0:
448,192,196965,1,0,0:0:0:0:
64,192,197025,1,0,0:0:0:0:
192,192,197085,1,0,0:0:0:0:
320,192,197145,1,0,0:0:0:0:
448,192,197205,1,0,0:0:0:0:
320,192,197265,1,0,0:0:0:0:
192,192,197325,1,0,0:0:0:0:
64,192,197385,1,0,0:0:0:0:
192,192,197445,1,0,0:0:0:0:
320,192,197505,1,0,0:0:0:0:
448,192,197565,1,0,0:0:0:0:
320,192,197625,1,0,0:0:0:0:
192,192,197685,1,0,0:0:0:0:
64,192,197745,1,0,0:0:0:0:
448,192,197805,1,0,0:0:0:0:
320,192,197865,1,0,0:0:0:0:
192,192,197925,1,0,0:0:0:0:
64,192,197985,1,0,0:0:0:0:
192,192,198045,1,0,0:0:0:0:
320,192,198105,1,0,0:0:0:0:
448,192,198165,1,0,0:0:0:0:
64,192,198225,1,0,0:0:0:0:
192,192,198285,1,0,0:0:0:0:
320,192,198345,1,0,0:0:0:0:
448,192,198405,1,0,0:0:0:0:
64,192,198465,1,0,0:0:0:0:
192,192,198525,1,0,0:0:0:0:
320,192,198585,1,0,0:0:0:0:
448,192,198645,1,0,0:0:0:0:
64,192,198705,1,0,0:0:0:0:
192,192,198705,1,0,0:0:0:0:
448,192,198765,1,0,0:0:0:0:
320,192,198825,1,0,0:0:0:0:
192,192,198885,1,0,0:0:0:0:
64,192,198945,1,0,0:0:0:0:
192,192,199005,1,0,0:0:0:0:
320,192,199065,1,0,0:0:0:0:
448,192,199125,1,0,0:0:0:0:
64,192,199185,1,0,0:0:0:0:
192,192,199245,1,0,0:0:0:0:
320,192,199305,1,0,0:0:0:0:
448,192,199365,1,0,0:0:0:0:
320,192,199425,1,0,0:0:0:0:
192,192,199485,1,0,0:0:0:0:
64,192,199545,1,0,0:0:0:0:
192,192,199605,1,0,0:0:0:0:
320,192,199665,1,0,0:0:0:0:
448,192,199725,1,0,0:0:0:0:
320,192,199785,1,0,0:0:0:0:
192,192,199845,1,0,0:0:0:0:
64,192,199905,1,0,0:0:0:0:
192,192,199965,1,0,0:0:0:0:
320,192,200025,1,0,0:0:0:0:
448,192,200085,1,0,0:0:0:0:
320,192,200145,1,0,0:0:0:0:
192,192,200205,1,0,0:0:0:0:
64,192,200265,1,0,0:0:0:0:
192,192,200325,1,0,0:0:0:0:
320,192,200385,1,0,0:0:0:0:
448,192,200445,1,0,0:0:0:0:
320,192,200505,1,0,0:0:0:0:
192,192,200565,1,0,0:0:0:0:
320,192,200645,1,0,0:0:0:0:
448,192,200645,1,0,0:0:0:0:
192,192,200765,1,0,0:0:0:0:
64,192,200765,1,0,0:0:0:0:
320,192,200885,1,0,0:0:0:0:
448,192,200885,1,0,0:0:0:0:
192,192,201005,1,0,0:0:0:0:
64,192,201005,1,0,0:0:0:0:
320,192,201125,1,0,0:0:0:0:
448,192,201125,1,0,0:0:0:0:
192,192,201245,1,0,0:0:0:0:
320,192,201365,1,0,0:0:0:0:
448,192,201485,1,0,0:0:0:0:
192,192,201605,1,0,0:0:0:0:
64,192,201605,1,0,0:0:0:0:
320,192,201605,128,0,201725:0:0:0:0:
448,192,201725,1,0,0:0:0:0:
192,192,201845,1,0,0:0:0:0:
64,192,201845,1,0,0:0:0:0:
320,192,201845,128,0,201965:0:0:0:0:
448,192,201965,1,0,0:0:0:0:
64,192,202085,1,0,0:0:0:0:
192,192,202085,1,0,0:0:0:0:
320,192,202085,128,0,202205:0:0:0:0:
448,192,202205,1,0,0:0:0:0:
192,192,202325,1,0,0:0:0:0:
64,192,202325,1,0,0:0:0:0:
320,192,202325,128,0,202445:0:0:0:0:
448,192,202445,1,0,0:0:0:0:
192,192,202565,1,0,0:0:0:0:
320,192,202685,1,0,0:0:0:0:
448,192,202685,1,0,0:0:0:0:
192,192,202805,1,0,0:0:0:0:
64,192,202805,1,0,0:0:0:0:
448,192,202925,1,0,0:0:0:0:
192,192,203045,1,0,0:0:0:0:
320,192,203045,1,0,0:0:0:0:
64,192,203165,1,0,0:0:0:0:
192,192,203285,1,0,0:0:0:0:
320,192,203285,1,0,0:0:0:0:
320,192,203405,1,0,0:0:0:0:
192,192,203405,1,0,0:0:0:0:
448,192,203525,1,0,0:0:0:0:
64,192,203525,1,0,0:0:0:0:
192,192,203525,128,0,203645:0:0:0:0:
320,192,203645,1,0,0:0:0:0:
64,192,203765,1,0,0:0:0:0:
448,192,203765,1,0,0:0:0:0:
192,192,203765,128,0,203885:0:0:0:0:
320,192,203885,1,0,0:0:0:0:
448,192,204005,1,0,0:0:0:0:
64,192,204005,1,0,0:0:0:0:
192,192,204005,128,0,204125:0:0:0:0:
320,192,204125,1,0,0:0:0:0:
64,192,204245,1,0,0:0:0:0:
192,192,204365,1,0,0:0:0:0:
320,192,204485,1,0,0:0:0:0:
448,192,204485,1,0,0:0:0:0:
192,192,204605,1,0,0:0:0:0:
320,192,204725,1,0,0:0:0:0:
448,192,204845,1,0,0:0:0:0:
192,192,204965,1,0,0:0:0:0:
320,192,205085,1,0,0:0:0:0:
448,192,205205,1,0,0:0:0:0:
320,192,205325,1,0,0:0:0:0:
320,192,205445,1,0,0:0:0:0:
448,192,205445,1,0,0:0:0:0:
64,192,205445,128,0,205565:0:0:0:0:
192,192,205565,1,0,0:0:0:0:
320,192,205685,1,0,0:0:0:0:
448,192,205685,1,0,0:0:0:0:
64,192,205685,128,0,205805:0:0:0:0:
192,192,205805,1,0,0:0:0:0:
320,192,205925,1,0,0:0:0:0:
448,192,205925,1,0,0:0:0:0:
64,192,205925,128,0,206045:0:0:0:0:
192,192,206045,1,0,0:0:0:0:
320,192,206165,1,0,0:0:0:0:
448,192,206165,1,0,0:0:0:0:
192,192,206285,1,0,0:0:0:0:
64,192,206285,1,0,0:0:0:0:
320,192,206405,1,0,0:0:0:0:
192,192,206465,1,0,0:0:0:0:
320,192,206525,1,0,0:0:0:0:
192,192,206585,1,0,0:0:0:0:
320,192,206645,1,0,0:0:0:0:
192,192,206705,1,0,0:0:0:0:
64,192,206765,1,0,0:0:0:0:
192,192,206825,1,0,0:0:0:0:
320,192,206885,1,0,0:0:0:0:
448,192,206945,1,0,0:0:0:0:
320,192,207005,1,0,0:0:0:0:
192,192,207065,1,0,0:0:0:0:
64,192,207125,1,0,0:0:0:0:
192,192,207185,1,0,0:0:0:0:
320,192,207245,1,0,0:0:0:0:
448,192,207305,1,0,0:0:0:0:
64,192,207365,1,0,0:0:0:0:
192,192,207425,1,0,0:0:0:0:
320,192,207485,1,0,0:0:0:0:
448,192,207545,1,0,0:0:0:0:
64,192,207605,1,0,0:0:0:0:
192,192,207665,1,0,0:0:0:0:
320,192,207725,1,0,0:0:0:0:
448,192,207785,1,0,0:0:0:0:
64,192,207845,1,0,0:0:0:0:
192,192,207905,1,0,0:0:0:0:
320,192,207965,1,0,0:0:0:0:
448,192,208025,1,0,0:0:0:0:
64,192,208085,1,0,0:0:0:0:
192,192,208145,1,0,0:0:0:0:
320,192,208205,1,0,0:0:0:0:
448,192,208265,1,0,0:0:0:0:
64,192,208325,1,0,0:0:0:0:
192,192,208385,1,0,0:0:0:0:
448,192,208445,1,0,0:0:0:0:
320,192,208505,1,0,0:0:0:0:
64,192,208565,1,0,0:0:0:0:
192,192,208625,1,0,0:0:0:0:
448,192,208685,1,0,0:0:0:0:
320,192,208745,1,0,0:0:0:0:
64,192,208805,1,0,0:0:0:0:
192,192,208865,1,0,0:0:0:0:
448,192,208925,1,0,0:0:0:0:
320,192,208985,1,0,0:0:0:0:
64,192,209045,1,0,0:0:0:0:
192,192,209105,1,0,0:0:0:0:
448,192,209165,1,0,0:0:0:0:
320,192,209225,1,0,0:0:0:0:
64,192,209285,1,0,0:0:0:0:
192,192,209345,1,0,0:0:0:0:
320,192,209405,1,0,0:0:0:0:
448,192,209465,1,0,0:0:0:0:
64,192,209525,1,0,0:0:0:0:
192,192,209585,1,0,0:0:0:0:
320,192,209645,1,0,0:0:0:0:
448,192,209705,1,0,0:0:0:0:
64,192,209765,1,0,0:0:0:0:
192,192,209825,1,0,0:0:0:0:
320,192,209885,1,0,0:0:0:0:
448,192,209945,1,0,0:0:0:0:
64,192,210005,1,0,0:0:0:0:
192,192,210065,1,0,0:0:0:0:
320,192,210125,1,0,0:0:0:0:
448,192,210185,1,0,0:0:0:0:
64,192,210245,1,0,0:0:0:0:
192,192,210305,1,0,0:0:0:0:
448,192,210365,1,0,0:0:0:0:
320,192,210425,1,0,0:0:0:0:
64,192,210485,1,0,0:0:0:0:
192,192,210545,1,0,0:0:0:0:
448,192,210605,1,0,0:0:0:0:
320,192,210665,1,0,0:0:0:0:
64,192,210725,1,0,0:0:0:0:
192,192,210785,1,0,0:0:0:0:
448,192,210845,1,0,0:0:0:0:
320,192,210905,1,0,0:0:0:0:
64,192,210965,1,0,0:0:0:0:
192,192,211025,1,0,0:0:0:0:
448,192,211085,1,0,0:0:0:0:
320,192,211145,1,0,0:0:0:0:
64,192,211205,1,0,0:0:0:0:
192,192,211265,1,0,0:0:0:0:
320,192,211325,1,0,0:0:0:0:
448,192,211385,1,0,0:0:0:0:
320,192,211445,1,0,0:0:0:0:
192,192,211505,1,0,0:0:0:0:
64,192,211565,1,0,0:0:0:0:
448,192,211625,1,0,0:0:0:0:
320,192,211685,1,0,0:0:0:0:
64,192,211745,1,0,0:0:0:0:
192,192,211805,1,0,0:0:0:0:
448,192,211865,1,0,0:0:0:0:
320,192,211925,1,0,0:0:0:0:
64,192,211985,1,0,0:0:0:0:
192,192,212045,1,0,0:0:0:0:
448,192,212105,1,0,0:0:0:0:
320,192,212165,1,0,0:0:0:0:
64,192,212225,1,0,0:0:0:0:
192,192,212285,1,0,0:0:0:0:
320,192,212345,1,0,0:0:0:0:
448,192,212405,1,0,0:0:0:0:
320,192,212465,1,0,0:0:0:0:
192,192,212525,1,0,0:0:0:0:
64,192,212585,1,0,0:0:0:0:
192,192,212645,1,0,0:0:0:0:
320,192,212705,1,0,0:0:0:0:
448,192,212765,1,0,0:0:0:0:
320,192,212825,1,0,0:0:0:0:
192,192,212885,1,0,0:0:0:0:
64,192,212945,1,0,0:0:0:0:
448,192,213005,1,0,0:0:0:0:
320,192,213065,1,0,0:0:0:0:
64,192,213125,1,0,0:0:0:0:
192,192,213185,1,0,0:0:0:0:
448,192,213245,1,0,0:0:0:0:
320,192,213305,1,0,0:0:0:0:
64,192,213365,1,0,0:0:0:0:
192,192,213425,1,0,0:0:0:0:
448,192,213485,1,0,0:0:0:0:
320,192,213545,1,0,0:0:0:0:
192,192,213605,1,0,0:0:0:0:
64,192,213665,1,0,0:0:0:0:
320,192,213725,1,0,0:0:0:0:
448,192,213785,1,0,0:0:0:0:
64,192,213845,1,0,0:0:0:0:
192,192,213905,1,0,0:0:0:0:
448,192,213965,1,0,0:0:0:0:
320,192,214025,1,0,0:0:0:0:
64,192,214085,1,0,0:0:0:0:
192,192,214145,1,0,0:0:0:0:
320,192,214205,128,0,214265:0:0:0:0:
448,192,214265,128,0,214325:0:0:0:0:
64,192,214325,128,0,214385:0:0:0:0:
192,192,214385,128,0,214445:0:0:0:0:
448,192,214445,128,0,214505:0:0:0:0:
320,192,214505,128,0,214565:0:0:0:0:
64,192,214565,128,0,214625:0:0:0:0:
192,192,214625,128,0,214685:0:0:0:0:
448,192,214685,128,0,214745:0:0:0:0:
320,192,214745,128,0,214805:0:0:0:0:
64,192,214805,128,0,214865:0:0:0:0:
192,192,214865,128,0,214925:0:0:0:0:
448,192,214925,128,0,214985:0:0:0:0:
320,192,214985,128,0,215045:0:0:0:0:
64,192,215045,128,0,215105:0:0:0:0:
192,192,215105,128,0,215165:0:0:0:0:
320,192,215165,128,0,215225:0:0:0:0:
448,192,215225,128,0,215285:0:0:0:0:
64,192,215285,128,0,215345:0:0:0:0:
192,192,215345,128,0,215405:0:0:0:0:
448,192,215405,128,0,215465:0:0:0:0:
320,192,215465,128,0,215525:0:0:0:0:
64,192,215525,128,0,215585:0:0:0:0:
192,192,215585,128,0,215645:0:0:0:0:
448,192,215645,128,0,215705:0:0:0:0:
320,192,215705,128,0,215765:0:0:0:0:
64,192,215765,128,0,215825:0:0:0:0:
192,192,215825,128,0,215885:0:0:0:0:
448,192,215885,128,0,215945:0:0:0:0:
320,192,215945,128,0,216005:0:0:0:0:
64,192,216005,1,0,0:0:0:0:
192,192,216065,1,0,0:0:0:0:
320,192,216125,1,0,0:0:0:0:
448,192,216185,1,0,0:0:0:0:
320,192,216245,1,0,0:0:0:0:
192,192,216305,1,0,0:0:0:0:
64,192,216365,1,0,0:0:0:0:
192,192,216425,1,0,0:0:0:0:
320,192,216485,1,0,0:0:0:0:
448,192,216545,1,0,0:0:0:0:
320,192,216605,1,0,0:0:0:0:
192,192,216665,1,0,0:0:0:0:
64,192,216725,1,0,0:0:0:0:
192,192,216785,1,0,0:0:0:0:
320,192,216845,1,0,0:0:0:0:
448,192,216905,1,0,0:0:0:0:
64,192,216965,1,0,0:0:0:0:
192,192,217025,1,0,0:0:0:0:
320,192,217085,1,0,0:0:0:0:
448,192,217145,1,0,0:0:0:0:
64,192,217205,1,0,0:0:0:0:
192,192,217265,1,0,0:0:0:0:
320,192,217325,1,0,0:0:0:0:
448,192,217385,1,0,0:0:0:0:
64,192,217445,1,0,0:0:0:0:
192,192,217505,1,0,0:0:0:0:
320,192,217565,1,0,0:0:0:0:
448,192,217625,1,0,0:0:0:0:
64,192,217685,1,0,0:0:0:0:
192,192,217745,1,0,0:0:0:0:
320,192,217805,1,0,0:0:0:0:
448,192,217865,1,0,0:0:0:0:
320,192,217925,1,0,0:0:0:0:
192,192,217985,1,0,0:0:0:0:
64,192,218045,1,0,0:0:0:0:
448,192,218105,1,0,0:0:0:0:
320,192,218165,1,0,0:0:0:0:
192,192,218225,1,0,0:0:0:0:
64,192,218285,1,0,0:0:0:0:
448,192,218345,1,0,0:0:0:0:
320,192,218405,1,0,0:0:0:0:
192,192,218465,1,0,0:0:0:0:
64,192,218525,1,0,0:0:0:0:
448,192,218585,1,0,0:0:0:0:
320,192,218645,1,0,0:0:0:0:
192,192,218705,1,0,0:0:0:0:
64,192,218765,1,0,0:0:0:0:
192,192,218825,1,0,0:0:0:0:
320,192,218885,1,0,0:0:0:0:
64,192,218945,1,0,0:0:0:0:
192,192,219005,1,0,0:0:0:0:
320,192,219065,1,0,0:0:0:0:
448,192,219125,1,0,0:0:0:0:
320,192,219185,1,0,0:0:0:0:
64,192,219245,1,0,0:0:0:0:
192,192,219305,1,0,0:0:0:0:
320,192,219365,1,0,0:0:0:0:
448,192,219425,1,0,0:0:0:0:
320,192,219485,1,0,0:0:0:0:
192,192,219545,1,0,0:0:0:0:
64,192,219605,1,0,0:0:0:0:
448,192,219665,1,0,0:0:0:0:
320,192,219725,1,0,0:0:0:0:
192,192,219785,1,0,0:0:0:0:
64,192,219845,1,0,0:0:0:0:
192,192,219905,1,0,0:0:0:0:
320,192,219965,1,0,0:0:0:0:
448,192,220025,1,0,0:0:0:0:
320,192,220085,1,0,0:0:0:0:
192,192,220145,1,0,0:0:0:0:
64,192,220205,1,0,0:0:0:0:
448,192,220265,1,0,0:0:0:0:
320,192,220325,1,0,0:0:0:0:
192,192,220385,1,0,0:0:0:0:
64,192,220445,1,0,0:0:0:0:
192,192,220505,1,0,0:0:0:0:
320,192,220565,1,0,0:0:0:0:
448,192,220625,1,0,0:0:0:0:
64,192,220685,1,0,0:0:0:0:
192,192,220745,1,0,0:0:0:0:
320,192,220805,1,0,0:0:0:0:
448,192,220865,1,0,0:0:0:0:
192,192,220925,1,0,0:0:0:0:
64,192,220985,1,0,0:0:0:0:
448,192,221045,1,0,0:0:0:0:
320,192,221105,1,0,0:0:0:0:
192,192,221165,1,0,0:0:0:0:
64,192,221225,1,0,0:0:0:0:
448,192,221285,1,0,0:0:0:0:
320,192,221345,1,0,0:0:0:0:
192,192,221405,1,0,0:0:0:0:
64,192,221465,1,0,0:0:0:0:
192,192,221525,1,0,0:0:0:0:
320,192,221585,1,0,0:0:0:0:
448,192,221645,1,0,0:0:0:0:
320,192,221705,1,0,0:0:0:0:
192,192,221765,1,0,0:0:0:0:
64,192,221765,1,0,0:0:0:0:
448,192,221825,1,0,0:0:0:0:
320,192,221885,1,0,0:0:0:0:
192,192,221945,1,0,0:0:0:0:
64,192,222005,1,0,0:0:0:0:
448,192,222065,1,0,0:0:0:0:
320,192,222125,1,0,0:0:0:0:
192,192,222185,1,0,0:0:0:0:
64,192,222245,1,0,0:0:0:0:
448,192,222305,1,0,0:0:0:0:
320,192,222365,1,0,0:0:0:0:
192,192,222425,1,0,0:0:0:0:
64,192,222485,1,0,0:0:0:0:
448,192,222545,1,0,0:0:0:0:
320,192,222605,1,0,0:0:0:0:
192,192,222665,1,0,0:0:0:0:
64,192,222725,1,0,0:0:0:0:
448,192,222725,1,0,0:0:0:0:
320,192,222785,1,0,0:0:0:0:
192,192,222845,1,0,0:0:0:0:
64,192,222905,1,0,0:0:0:0:
192,192,222965,1,0,0:0:0:0:
320,192,223025,1,0,0:0:0:0:
448,192,223085,1,0,0:0:0:0:
64,192,223145,1,0,0:0:0:0:
192,192,223205,1,0,0:0:0:0:
320,192,223265,1,0,0:0:0:0:
448,192,223325,1,0,0:0:0:0:
320,192,223385,1,0,0:0:0:0:
192,192,223445,128,0,223685:0:0:0:0:
64,192,223505,1,0,0:0:0:0:
320,192,223565,1,0,0:0:0:0:
448,192,223625,1,0,0:0:0:0:
64,192,223685,1,0,0:0:0:0:
192,192,225343,1,0,0:0:0:0:
320,192,225343,1,0,0:0:0:0:
448,192,225343,1,0,0:0:0:0:
64,192,225343,1,0,0:0:0:0:
320,192,225450,1,0,0:0:0:0:
192,192,225450,1,0,0:0:0:0:
64,192,225450,1,0,0:0:0:0:
448,192,225450,1,0,0:0:0:0:
320,192,225664,1,0,0:0:0:0:
192,192,225664,1,0,0:0:0:0:
64,192,225664,1,0,0:0:0:0:
448,192,225664,1,0,0:0:0:0:
192,192,225878,1,0,0:0:0:0:
64,192,225878,1,0,0:0:0:0:
320,192,225878,1,0,0:0:0:0:
448,192,225878,1,0,0:0:0:0:
320,192,226093,1,0,0:0:0:0:
192,192,226093,1,0,0:0:0:0:
64,192,226093,1,0,0:0:0:0:
448,192,226093,1,0,0:0:0:0:
448,192,226307,1,0,0:0:0:0:
320,192,226307,1,0,0:0:0:0:
192,192,226414,1,0,0:0:0:0:
64,192,226414,1,0,0:0:0:0:
320,192,226521,1,0,0:0:0:0:
448,192,226521,1,0,0:0:0:0:
192,192,226628,1,0,0:0:0:0:
64,192,226628,1,0,0:0:0:0:
320,192,226843,1,0,0:0:0:0:
192,192,226843,1,0,0:0:0:0:
64,192,226843,1,0,0:0:0:0:
448,192,226843,1,0,0:0:0:0:
64,192,227030,1,0,0:0:0:0:
192,192,227088,1,0,0:0:0:0:
320,192,227147,1,0,0:0:0:0:
448,192,227205,1,0,0:0:0:0:
320,192,227264,1,0,0:0:0:0:
192,192,227322,1,0,0:0:0:0:
64,192,227381,1,0,0:0:0:0:
192,192,227440,1,0,0:0:0:0:
320,192,227498,1,0,0:0:0:0:
448,192,227557,1,0,0:0:0:0:
320,192,227615,1,0,0:0:0:0:
192,192,227674,1,0,0:0:0:0:
64,192,227733,1,0,0:0:0:0:
448,192,227791,1,0,0:0:0:0:
320,192,227850,1,0,0:0:0:0:
192,192,227908,1,0,0:0:0:0:
64,192,227967,1,0,0:0:0:0:
192,192,228026,1,0,0:0:0:0:
320,192,228084,1,0,0:0:0:0:
448,192,228143,1,0,0:0:0:0:
64,192,228201,1,0,0:0:0:0:
192,192,228260,1,0,0:0:0:0:
320,192,228319,1,0,0:0:0:0:
448,192,228377,1,0,0:0:0:0:
64,192,228436,1,0,0:0:0:0:
192,192,228494,1,0,0:0:0:0:
320,192,228553,1,0,0:0:0:0:
448,192,228612,1,0,0:0:0:0:
320,192,228670,1,0,0:0:0:0:
192,192,228729,1,0,0:0:0:0:
64,192,228787,1,0,0:0:0:0:
192,192,228846,1,0,0:0:0:0:
320,192,228880,1,0,0:0:0:0:
448,192,228880,1,0,0:0:0:0:
192,192,229094,1,0,0:0:0:0:
64,192,229094,1,0,0:0:0:0:
320,192,229165,1,0,0:0:0:0:
448,192,229165,1,0,0:0:0:0:
192,192,229380,1,0,0:0:0:0:
64,192,229380,1,0,0:0:0:0:
320,192,229451,1,0,0:0:0:0:
448,192,229451,1,0,0:0:0:0:
