osu file format v14

[General]
AudioFilename: audio.mp3
AudioLeadIn: 0
PreviewTime: 225335
Countdown: 0
SampleSet: None
StackLeniency: 0.7
Mode: 3
LetterboxInBreaks: 0
SpecialStyle: 0
WidescreenStoryboard: 1

[Editor]
DistanceSpacing: 1.1
BeatDivisor: 4
GridSize: 8
TimelineZoom: 2.999999

[Metadata]
Title:FULL MEME NIGHT
TitleUnicode:FULL MEME NIGHT
Artist:DJ UNDERJOY vs his recorder
ArtistUnicode:DJ UNDERJOY vs his recorder
Creator:_underjoy
Version:4K OwO
Source:who?
Tags:hi youtube omg 70kps nanahira
BeatmapID:1178252
BeatmapSetID:556800

[Difficulty]
HPDrainRate:7
CircleSize:4
OverallDifficulty:7
ApproachRate:5
SliderMultiplier:1.4
SliderTickRate:1

[Events]
//Background and Video events
0,0,"background.jpg",0,0
//Break Periods
2,65848,74244
//Storyboard Layer 0 (Background)
//Storyboard Layer 1 (Fail)
//Storyboard Layer 2 (Pass)
//Storyboard Layer 3 (Foreground)
//Storyboard Sound Samples

[TimingPoints]
649,300,4,2,1,20,1,0
1105,300,4,2,1,20,1,0
13081,300,4,2,1,20,1,0
13359,300,4,2,1,20,1,0
17859,300,4,2,1,20,1,0
18080,300,4,2,1,20,1,0
27345,300,4,2,1,20,1,0
36923,300,4,2,1,20,1,0
46523,300,4,2,1,20,1,0
47648,300,4,2,1,20,1,0
65650,352.941176470588,4,2,1,20,1,0
65650,-85.4700854700855,4,2,1,20,0,0
76560,352.941176470588,4,2,1,20,1,0
76560,-85.4700854700855,4,2,1,20,0,0
99129,311.688311688312,4,2,1,20,1,0
99129,-133.333333333333,4,2,1,20,0,0
119030,352.941176470588,4,2,1,20,1,0
119030,-85.4700854700855,4,2,1,20,0,0
130350,352.941176470588,4,2,1,20,1,0
130350,-85.4700854700855,4,2,1,20,0,0
141600,333.333333333333,4,2,1,20,1,0
141600,-90.0900900900901,4,2,1,20,0,0
151680,285.714285714286,4,2,1,20,1,0
151680,-105.263157894737,4,2,1,20,0,0
152270,285.714285714286,4,2,1,20,1,0
152270,-105.263157894737,4,2,1,20,0,0
154500,285.714285714286,4,2,1,20,1,0
154500,-105.263157894737,4,2,1,20,0,0
156775,285.714285714286,4,2,1,20,1,0
156775,-105.263157894737,4,2,1,20,0,0
159025,285.714285714286,4,2,1,20,1,0
159025,-105.263157894737,4,2,1,20,0,0
169310,428.571428571429,4,2,1,20,1,1
169310,-70.4225352112676,4,2,1,20,0,1
170615,428.571428571429,4,2,1,20,1,1
170615,-70.4225352112676,4,2,1,20,0,1
184296,240,4,2,1,20,1,0
184296,-125,4,2,1,20,0,0
192945,240,4,2,1,20,1,0
192945,-125,4,2,1,20,0,0
200645,240,4,2,1,20,1,0
200645,-125,4,2,1,20,0,0
225343,214.285714285714,4,2,1,20,1,0
225343,-140.845070422535,4,2,1,20,0,0
225450,-1000,4,2,1,20,0,0
225610,-33.3333333333333,4,2,1,20,0,0
225664,-1000,4,2,1,20,0,0
225825,-33.3333333333333,4,2,1,20,0,0
225878,-1000,4,2,1,20,0,0
226039,-33.3333333333333,4,2,1,20,0,0
226093,-1000,4,2,1,20,0,0
226253,-33.3333333333333,4,2,1,20,0,0
226307,-1000,4,2,1,20,0,0
226360,-50,4,2,1,20,0,0
226414,-1000,4,2,1,20,0,0
226468,-50,4,2,1,20,0,0
226521,-1000,4,2,1,20,0,0
226575,-50,4,2,1,20,0,0
226628,-1000,4,2,1,20,0,0
226789,-33.3333333333333,4,2,1,20,0,0
226843,-1000,4,2,1,20,0,0
227003,-33.3333333333333,4,2,1,20,0,0
227030,234.375,4,2,1,20,1,0
227030,-125,4,2,1,20,0,0
228880,285.714285714286,4,2,1,20,1,0
228880,-105.263157894737,4,2,1,20,0,0

[HitObjects]
320,192,649,5,0,0:0:0:0:
320,192,799,1,0,0:0:0:0:
448,192,949,1,0,0:0:0:0:
192,192,1105,1,0,0:0:0:0:
448,192,1105,1,0,0:0:0:0:
64,192,1405,1,0,0:0:0:0:
192,192,1555,1,0,0:0:0:0:
320,192,1630,1,0,0:0:0:0:
448,192,1705,1,0,0:0:0:0:
64,192,1705,1,0,0:0:0:0:
320,192,1855,1,0,0:0:0:0:
448,192,1930,1,0,0:0:0:0:
320,192,2005,1,0,0:0:0:0:
64,192,2005,1,0,0:0:0:0:
192,192,2155,1,0,0:0:0:0:
64,192,2305,128,0,2905:0:0:0:0:
448,192,2305,128,0,2905:0:0:0:0:
192,192,3055,1,0,0:0:0:0:
192,192,3205,1,0,0:0:0:0:
320,192,3355,1,0,0:0:0:0:
320,192,3505,1,0,0:0:0:0:
64,192,3505,1,0,0:0:0:0:
192,192,3805,1,0,0:0:0:0:
320,192,3955,1,0,0:0:0:0:
64,192,4030,1,0,0:0:0:0:
320,192,4105,1,0,0:0:0:0:
448,192,4105,1,0,0:0:0:0:
192,192,4255,1,0,0:0:0:0:
448,192,4405,1,0,0:0:0:0:
64,192,4405,1,0,0:0:0:0:
320,192,4555,1,0,0:0:0:0:
192,192,4705,1,0,0:0:0:0:
64,192,4705,1,0,0:0:0:0:
192,192,5005,1,0,0:0:0:0:
320,192,5005,1,0,0:0:0:0:
448,192,5267,1,0,0:0:0:0:
320,192,5286,1,0,0:0:0:0:
64,192,5305,1,0,0:0:0:0:
192,192,5605,1,0,0:0:0:0:
64,192,5605,1,0,0:0:0:0:
448,192,5605,1,0,0:0:0:0:
64,192,5905,1,0,0:0:0:0:
192,192,5905,1,0,0:0:0:0:
320,192,5905,1,0,0:0:0:0:
448,192,5905,1,0,0:0:0:0:
448,192,6205,1,0,0:0:0:0:
320,192,6205,1,0,0:0:0:0:
64,192,6305,1,0,0:0:0:0:
64,192,6405,1,0,0:0:0:0:
448,192,6505,1,0,0:0:0:0:
320,192,6505,1,0,0:0:0:0:
192,192,6605,1,0,0:0:0:0:
192,192,6705,1,0,0:0:0:0:
64,192,6805,1,0,0:0:0:0:
448,192,6805,1,0,0:0:0:0:
320,192,6905,1,0,0:0:0:0:
320,192,7005,1,0,0:0:0:0:
64,192,7105,1,0,0:0:0:0:
192,192,7105,1,0,0:0:0:0:
448,192,7205,1,0,0:0:0:0:
448,192,7305,1,0,0:0:0:0:
64,192,7405,1,0,0:0:0:0:
192,192,7405,1,0,0:0:0:0:
64,192,7505,1,0,0:0:0:0:
192,192,7505,1,0,0:0:0:0:
64,192,7605,1,0,0:0:0:0:
192,192,7605,1,0,0:0:0:0:
320,192,7705,1,0,0:0:0:0:
448,192,7705,1,0,0:0:0:0:
320,192,7805,1,0,0:0:0:0:
448,192,7805,1,0,0:0:0:0:
320,192,7905,1,0,0:0:0:0:
448,192,7905,1,0,0:0:0:0:
448,192,8005,1,0,0:0:0:0:
64,192,8005,1,0,0:0:0:0:
64,192,8305,1,0,0:0:0:0:
192,192,8305,1,0,0:0:0:0:
448,192,8305,1,0,0:0:0:0:
320,192,8380,1,0,0:0:0:0:
192,192,8455,1,0,0:0:0:0:
320,192,8530,1,0,0:0:0:0:
448,192,8605,1,0,0:0:0:0:
64,192,8605,1,0,0:0:0:0:
192,192,8605,1,0,0:0:0:0:
320,192,8680,1,0,0:0:0:0:
448,192,8755,1,0,0:0:0:0:
64,192,8830,1,0,0:0:0:0:
192,192,8830,1,0,0:0:0:0:
320,192,8905,1,0,0:0:0:0:
448,192,8905,1,0,0:0:0:0:
64,192,8980,1,0,0:0:0:0:
192,192,9055,1,0,0:0:0:0:
448,192,9055,1,0,0:0:0:0:
320,192,9130,1,0,0:0:0:0:
448,192,9205,1,0,0:0:0:0:
64,192,9205,1,0,0:0:0:0:
192,192,9205,1,0,0:0:0:0:
320,192,9280,1,0,0:0:0:0:
64,192,9355,1,0,0:0:0:0:
192,192,9430,1,0,0:0:0:0:
320,192,9505,1,0,0:0:0:0:
64,192,9505,1,0,0:0:0:0:
448,192,9580,1,0,0:0:0:0:
192,192,9655,1,0,0:0:0:0:
320,192,9730,1,0,0:0:0:0:
448,192,9730,1,0,0:0:0:0:
192,192,9805,1,0,0:0:0:0:
64,192,9805,1,0,0:0:0:0:
320,192,9805,1,0,0:0:0:0:
448,192,9880,1,0,0:0:0:0:
192,192,9955,1,0,0:0:0:0:
320,192,10030,1,0,0:0:0:0:
64,192,10030,1,0,0:0:0:0:
192,192,10105,1,0,0:0:0:0:
448,192,10105,1,0,0:0:0:0:
320,192,10180,1,0,0:0:0:0:
192,192,10255,1,0,0:0:0:0:
64,192,10255,1,0,0:0:0:0:
448,192,10330,1,0,0:0:0:0:
192,192,10405,1,0,0:0:0:0:
64,192,10405,1,0,0:0:0:0:
320,192,10405,1,0,0:0:0:0:
448,192,10480,1,0,0:0:0:0:
64,192,10555,1,0,0:0:0:0:
192,192,10630,1,0,0:0:0:0:
448,192,10705,1,0,0:0:0:0:
320,192,10705,1,0,0:0:0:0:
192,192,10780,1,0,0:0:0:0:
320,192,10855,1,0,0:0:0:0:
448,192,10930,1,0,0:0:0:0:
192,192,11005,1,0,0:0:0:0:
64,192,11005,1,0,0:0:0:0:
320,192,11005,1,0,0:0:0:0:
448,192,11080,1,0,0:0:0:0:
64,192,11155,1,0,0:0:0:0:
320,192,11230,1,0,0:0:0:0:
192,192,11230,1,0,0:0:0:0:
448,192,11305,1,0,0:0:0:0:
64,192,11305,1,0,0:0:0:0:
320,192,11380,1,0,0:0:0:0:
192,192,11455,1,0,0:0:0:0:
448,192,11455,1,0,0:0:0:0:
64,192,11530,1,0,0:0:0:0:
320,192,11605,1,0,0:0:0:0:
192,192,11605,1,0,0:0:0:0:
448,192,11605,1,0,0:0:0:0:
64,192,11680,1,0,0:0:0:0:
320,192,11755,1,0,0:0:0:0:
192,192,11830,1,0,0:0:0:0:
448,192,11905,1,0,0:0:0:0:
320,192,11905,1,0,0:0:0:0:
64,192,11980,1,0,0:0:0:0:
192,192,12055,1,0,0:0:0:0:
320,192,12130,1,0,0:0:0:0:
448,192,12130,1,0,0:0:0:0:
64,192,12205,1,0,0:0:0:0:
192,192,12205,1,0,0:0:0:0:
448,192,12205,1,0,0:0:0:0:
320,192,12280,1,0,0:0:0:0:
64,192,12355,1,0,0:0:0:0:
192,192,12430,1,0,0:0:0:0:
448,192,12430,1,0,0:0:0:0:
320,192,12505,1,0,0:0:0:0:
64,192,12505,1,0,0:0:0:0:
192,192,12580,1,0,0:0:0:0:
320,192,12655,1,0,0:0:0:0:
448,192,12655,1,0,0:0:0:0:
64,192,12730,1,0,0:0:0:0:
320,192,12805,1,0,0:0:0:0:
192,192,12805,1,0,0:0:0:0:
448,192,12805,1,0,0:0:0:0:
64,192,12880,1,0,0:0:0:0:
448,192,12955,1,0,0:0:0:0:
64,192,13030,1,0,0:0:0:0:
192,192,13081,1,0,0:0:0:0:
320,192,13081,1,0,0:0:0:0:
448,192,13081,128,0,13359:0:0:0:0:
320,192,13359,1,0,0:0:0:0:
64,192,13359,1,0,0:0:0:0:
192,192,13509,1,0,0:0:0:0:
320,192,13584,1,0,0:0:0:0:
448,192,13659,1,0,0:0:0:0:
192,192,13734,1,0,0:0:0:0:
320,192,13809,1,0,0:0:0:0:
448,192,13809,1,0,0:0:0:0:
64,192,13884,1,0,0:0:0:0:
192,192,13959,1,0,0:0:0:0:
448,192,13959,1,0,0:0:0:0:
320,192,13959,1,0,0:0:0:0:
64,192,14034,1,0,0:0:0:0:
192,192,14109,1,0,0:0:0:0:
320,192,14109,1,0,0:0:0:0:
448,192,14184,1,0,0:0:0:0:
192,192,14259,128,0,14559:0:0:0:0:
64,192,14259,1,0,0:0:0:0:
320,192,14334,1,0,0:0:0:0:
64,192,14409,1,0,0:0:0:0:
448,192,14409,1,0,0:0:0:0:
448,192,14559,1,0,0:0:0:0:
320,192,14559,1,0,0:0:0:0:
192,192,14709,1,0,0:0:0:0:
320,192,14709,1,0,0:0:0:0:
64,192,14859,1,0,0:0:0:0:
320,192,14859,1,0,0:0:0:0:
192,192,14934,1,0,0:0:0:0:
64,192,15009,1,0,0:0:0:0:
448,192,15009,1,0,0:0:0:0:
320,192,15159,1,0,0:0:0:0:
448,192,15159,1,0,0:0:0:0:
192,192,15159,128,0,15309:0:0:0:0:
64,192,15234,1,0,0:0:0:0:
320,192,15309,128,0,15459:0:0:0:0:
448,192,15309,1,0,0:0:0:0:
64,192,15459,128,0,15534:0:0:0:0:
448,192,15459,1,0,0:0:0:0:
192,192,15534,128,0,15609:0:0:0:0:
320,192,15609,128,0,15684:0:0:0:0:
448,192,15684,128,0,15759:0:0:0:0:
64,192,15759,128,0,15834:0:0:0:0:
320,192,15759,1,0,0:0:0:0:
192,192,15834,128,0,15909:0:0:0:0:
320,192,15909,128,0,15984:0:0:0:0:
448,192,15984,128,0,16059:0:0:0:0:
64,192,16059,128,0,16359:0:0:0:0:
320,192,16059,1,0,0:0:0:0:
192,192,16134,1,0,0:0:0:0:
320,192,16209,1,0,0:0:0:0:
192,192,16284,1,0,0:0:0:0:
448,192,16359,128,0,16584:0:0:0:0:
320,192,16359,1,0,0:0:0:0:
64,192,16434,1,0,0:0:0:0:
192,192,16509,1,0,0:0:0:0:
64,192,16584,1,0,0:0:0:0:
448,192,16659,1,0,0:0:0:0:
192,192,16659,1,0,0:0:0:0:
320,192,16734,1,0,0:0:0:0:
448,192,16809,1,0,0:0:0:0:
192,192,16884,1,0,0:0:0:0:
448,192,16959,1,0,0:0:0:0:
64,192,17034,1,0,0:0:0:0:
448,192,17109,1,0,0:0:0:0:
192,192,17184,1,0,0:0:0:0:
448,192,17259,1,0,0:0:0:0:
64,192,17259,1,0,0:0:0:0:
192,192,17334,1,0,0:0:0:0:
320,192,17334,1,0,0:0:0:0:
64,192,17409,1,0,0:0:0:0:
448,192,17409,1,0,0:0:0:0:
320,192,17484,1,0,0:0:0:0:
192,192,17559,1,0,0:0:0:0:
64,192,17559,1,0,0:0:0:0:
320,192,17634,1,0,0:0:0:0:
448,192,17634,1,0,0:0:0:0:
192,192,17709,1,0,0:0:0:0:
64,192,17709,1,0,0:0:0:0:
320,192,17784,1,0,0:0:0:0:
448,192,17784,1,0,0:0:0:0:
64,192,17859,1,0,0:0:0:0:
192,192,17859,1,0,0:0:0:0:
320,192,17934,1,0,0:0:0:0:
64,192,18009,1,0,0:0:0:0:
448,192,18080,1,0,0:0:0:0:
320,192,18080,1,0,0:0:0:0:
192,192,18080,1,0,0:0:0:0:
64,192,18155,1,0,0:0:0:0:
448,192,18230,1,0,0:0:0:0:
320,192,18230,1,0,0:0:0:0:
192,192,18305,1,0,0:0:0:0:
320,192,18380,1,0,0:0:0:0:
448,192,18455,1,0,0:0:0:0:
192,192,18530,1,0,0:0:0:0:
64,192,18530,1,0,0:0:0:0:
320,192,18605,1,0,0:0:0:0:
64,192,18680,1,0,0:0:0:0:
448,192,18680,1,0,0:0:0:0:
192,192,18680,1,0,0:0:0:0:
320,192,18755,1,0,0:0:0:0:
448,192,18830,1,0,0:0:0:0:
192,192,18830,1,0,0:0:0:0:
64,192,18905,1,0,0:0:0:0:
320,192,18980,1,0,0:0:0:0:
192,192,19055,1,0,0:0:0:0:
64,192,19055,1,0,0:0:0:0:
320,192,19130,1,0,0:0:0:0:
64,192,19205,1,0,0:0:0:0:
192,192,19205,1,0,0:0:0:0:
320,192,19280,1,0,0:0:0:0:
448,192,19280,1,0,0:0:0:0:
64,192,19355,1,0,0:0:0:0:
448,192,19430,1,0,0:0:0:0:
192,192,19430,1,0,0:0:0:0:
320,192,19505,1,0,0:0:0:0:
64,192,19580,1,0,0:0:0:0:
320,192,19655,1,0,0:0:0:0:
192,192,19730,1,0,0:0:0:0:
64,192,19730,1,0,0:0:0:0:
448,192,19805,1,0,0:0:0:0:
64,192,19880,1,0,0:0:0:0:
320,192,19880,1,0,0:0:0:0:
192,192,19880,1,0,0:0:0:0:
448,192,19955,1,0,0:0:0:0:
64,192,20030,1,0,0:0:0:0:
320,192,20030,1,0,0:0:0:0:
192,192,20105,1,0,0:0:0:0:
64,192,20180,1,0,0:0:0:0:
448,192,20180,1,0,0:0:0:0:
320,192,20255,1,0,0:0:0:0:
192,192,20255,1,0,0:0:0:0:
448,192,20330,1,0,0:0:0:0:
320,192,20405,1,0,0:0:0:0:
192,192,20405,1,0,0:0:0:0:
64,192,20480,1,0,0:0:0:0:
448,192,20480,1,0,0:0:0:0:
192,192,20555,1,0,0:0:0:0:
448,192,20630,1,0,0:0:0:0:
320,192,20630,1,0,0:0:0:0:
192,192,20705,1,0,0:0:0:0:
64,192,20705,1,0,0:0:0:0:
320,192,20780,1,0,0:0:0:0:
64,192,20855,1,0,0:0:0:0:
448,192,20930,1,0,0:0:0:0:
192,192,20930,1,0,0:0:0:0:
320,192,21005,1,0,0:0:0:0:
64,192,21080,1,0,0:0:0:0:
448,192,21080,1,0,0:0:0:0:
192,192,21080,1,0,0:0:0:0:
320,192,21155,1,0,0:0:0:0:
64,192,21230,1,0,0:0:0:0:
448,192,21230,1,0,0:0:0:0:
192,192,21305,1,0,0:0:0:0:
320,192,21380,1,0,0:0:0:0:
192,192,21455,1,0,0:0:0:0:
64,192,21455,1,0,0:0:0:0:
320,192,21530,1,0,0:0:0:0:
64,192,21605,1,0,0:0:0:0:
192,192,21605,1,0,0:0:0:0:
448,192,21680,1,0,0:0:0:0:
320,192,21680,1,0,0:0:0:0:
64,192,21755,1,0,0:0:0:0:
192,192,21830,1,0,0:0:0:0:
448,192,21830,1,0,0:0:0:0:
320,192,21905,1,0,0:0:0:0:
64,192,21980,1,0,0:0:0:0:
192,192,22055,1,0,0:0:0:0:
320,192,22130,1,0,0:0:0:0:
448,192,22130,1,0,0:0:0:0:
192,192,22205,1,0,0:0:0:0:
64,192,22280,1,0,0:0:0:0:
320,192,22280,1,0,0:0:0:0:
448,192,22280,1,0,0:0:0:0:
192,192,22355,1,0,0:0:0:0:
64,192,22430,1,0,0:0:0:0:
320,192,22430,1,0,0:0:0:0:
448,192,22505,1,0,0:0:0:0:
64,192,22580,1,0,0:0:0:0:
192,192,22580,1,0,0:0:0:0:
320,192,22655,1,0,0:0:0:0:
448,192,22730,1,0,0:0:0:0:
192,192,22730,1,0,0:0:0:0:
64,192,22805,1,0,0:0:0:0:
320,192,22880,1,0,0:0:0:0:
448,192,22880,1,0,0:0:0:0:
192,192,22880,1,0,0:0:0:0:
64,192,22955,1,0,0:0:0:0:
448,192,23030,1,0,0:0:0:0:
320,192,23030,1,0,0:0:0:0:
64,192,23105,1,0,0:0:0:0:
192,192,23105,1,0,0:0:0:0:
320,192,23180,1,0,0:0:0:0:
192,192,23255,1,0,0:0:0:0:
64,192,23330,1,0,0:0:0:0:
448,192,23330,1,0,0:0:0:0:
320,192,23405,1,0,0:0:0:0:
64,192,23480,1,0,0:0:0:0:
192,192,23480,1,0,0:0:0:0:
448,192,23480,1,0,0:0:0:0:
320,192,23555,1,0,0:0:0:0:
64,192,23630,1,0,0:0:0:0:
192,192,23630,1,0,0:0:0:0:
320,192,23705,1,0,0:0:0:0:
448,192,23780,1,0,0:0:0:0:
192,192,23855,1,0,0:0:0:0:
64,192,23855,1,0,0:0:0:0:
320,192,23930,1,0,0:0:0:0:
192,192,24005,1,0,0:0:0:0:
64,192,24005,1,0,0:0:0:0:
320,192,24080,1,0,0:0:0:0:
448,192,24080,1,0,0:0:0:0:
192,192,24155,1,0,0:0:0:0:
64,192,24230,1,0,0:0:0:0:
448,192,24230,1,0,0:0:0:0:
320,192,24305,1,0,0:0:0:0:
192,192,24380,1,0,0:0:0:0:
320,192,24455,1,0,0:0:0:0:
64,192,24530,1,0,0:0:0:0:
448,192,24530,1,0,0:0:0:0:
192,192,24605,1,0,0:0:0:0:
320,192,24680,1,0,0:0:0:0:
448,192,24680,1,0,0:0:0:0:
64,192,24680,1,0,0:0:0:0:
192,192,24755,1,0,0:0:0:0:
320,192,24830,1,0,0:0:0:0:
448,192,24830,1,0,0:0:0:0:
64,192,24905,1,0,0:0:0:0:
192,192,24980,1,0,0:0:0:0:
448,192,24980,1,0,0:0:0:0:
320,192,25055,1,0,0:0:0:0:
64,192,25055,1,0,0:0:0:0:
192,192,25130,1,0,0:0:0:0:
320,192,25205,1,0,0:0:0:0:
448,192,25205,1,0,0:0:0:0:
64,192,25280,1,0,0:0:0:0:
192,192,25280,1,0,0:0:0:0:
448,192,25355,1,0,0:0:0:0:
320,192,25430,1,0,0:0:0:0:
64,192,25430,1,0,0:0:0:0:
192,192,25505,1,0,0:0:0:0:
448,192,25505,1,0,0:0:0:0:
64,192,25580,1,0,0:0:0:0:
192,192,25655,1,0,0:0:0:0:
448,192,25730,1,0,0:0:0:0:
320,192,25730,1,0,0:0:0:0:
64,192,25805,1,0,0:0:0:0:
192,192,25880,1,0,0:0:0:0:
448,192,25880,1,0,0:0:0:0:
320,192,25880,1,0,0:0:0:0:
64,192,25955,1,0,0:0:0:0:
192,192,26030,1,0,0:0:0:0:
448,192,26030,1,0,0:0:0:0:
320,192,26105,1,0,0:0:0:0:
64,192,26180,1,0,0:0:0:0:
448,192,26180,1,0,0:0:0:0:
320,192,26255,1,0,0:0:0:0:
192,192,26255,1,0,0:0:0:0:
64,192,26330,1,0,0:0:0:0:
448,192,26330,1,0,0:0:0:0:
192,192,26405,1,0,0:0:0:0:
448,192,26480,1,0,0:0:0:0:
64,192,26480,1,0,0:0:0:0:
320,192,26480,1,0,0:0:0:0:
192,192,26555,1,0,0:0:0:0:
320,192,26630,1,0,0:0:0:0:
64,192,26630,1,0,0:0:0:0:
448,192,26705,1,0,0:0:0:0:
192,192,26780,1,0,0:0:0:0:
320,192,26855,1,0,0:0:0:0:
64,192,26930,1,0,0:0:0:0:
448,192,26930,1,0,0:0:0:0:
192,192,27005,1,0,0:0:0:0:
320,192,27080,1,0,0:0:0:0:
448,192,27080,1,0,0:0:0:0:
64,192,27080,1,0,0:0:0:0:
192,192,27155,1,0,0:0:0:0:
448,192,27230,1,0,0:0:0:0:
64,192,27230,1,0,0:0:0:0:
320,192,27305,1,0,0:0:0:0:
192,192,27345,1,0,0:0:0:0:
64,192,27345,1,0,0:0:0:0:
448,192,27345,1,0,0:0:0:0:
320,192,27420,1,0,0:0:0:0:
64,192,27495,1,0,0:0:0:0:
192,192,27495,1,0,0:0:0:0:
448,192,27570,1,0,0:0:0:0:
320,192,27645,1,0,0:0:0:0:
64,192,27645,1,0,0:0:0:0:
192,192,27720,1,0,0:0:0:0:
448,192,27795,1,0,0:0:0:0:
320,192,27795,1,0,0:0:0:0:
64,192,27870,1,0,0:0:0:0:
192,192,27945,1,0,0:0:0:0:
448,192,27945,1,0,0:0:0:0:
320,192,28020,1,0,0:0:0:0:
64,192,28095,1,0,0:0:0:0:
448,192,28095,1,0,0:0:0:0:
192,192,28170,1,0,0:0:0:0:
320,192,28245,1,0,0:0:0:0:
448,192,28245,1,0,0:0:0:0:
192,192,28320,1,0,0:0:0:0:
64,192,28395,1,0,0:0:0:0:
320,192,28395,1,0,0:0:0:0:
448,192,28470,1,0,0:0:0:0:
192,192,28545,1,0,0:0:0:0:
64,192,28545,1,0,0:0:0:0:
320,192,28620,1,0,0:0:0:0:
448,192,28695,1,0,0:0:0:0:
192,192,28695,1,0,0:0:0:0:
64,192,28770,1,0,0:0:0:0:
320,192,28845,1,0,0:0:0:0:
448,192,28845,1,0,0:0:0:0:
192,192,28920,1,0,0:0:0:0:
64,192,28995,1,0,0:0:0:0:
448,192,28995,1,0,0:0:0:0:
320,192,29070,1,0,0:0:0:0:
192,192,29145,1,0,0:0:0:0:
64,192,29145,1,0,0:0:0:0:
320,192,29220,1,0,0:0:0:0:
64,192,29295,1,0,0:0:0:0:
448,192,29295,1,0,0:0:0:0:
192,192,29370,1,0,0:0:0:0:
320,192,29445,1,0,0:0:0:0:
448,192,29445,1,0,0:0:0:0:
64,192,29520,1,0,0:0:0:0:
192,192,29595,1,0,0:0:0:0:
448,192,29595,1,0,0:0:0:0:
64,192,29670,1,0,0:0:0:0:
320,192,29745,1,0,0:0:0:0:
192,192,29745,1,0,0:0:0:0:
448,192,29820,1,0,0:0:0:0:
64,192,29895,1,0,0:0:0:0:
192,192,29895,1,0,0:0:0:0:
320,192,29970,1,0,0:0:0:0:
448,192,30045,1,0,0:0:0:0:
64,192,30045,1,0,0:0:0:0:
192,192,30120,1,0,0:0:0:0:
320,192,30195,1,0,0:0:0:0:
64,192,30195,1,0,0:0:0:0:
448,192,30270,1,0,0:0:0:0:
320,192,30345,1,0,0:0:0:0:
192,192,30345,1,0,0:0:0:0:
64,192,30420,1,0,0:0:0:0:
448,192,30495,1,0,0:0:0:0:
320,192,30495,1,0,0:0:0:0:
192,192,30570,1,0,0:0:0:0:
64,192,30645,1,0,0:0:0:0:
448,192,30645,1,0,0:0:0:0:
320,192,30720,1,0,0:0:0:0:
192,192,30795,1,0,0:0:0:0:
64,192,30795,1,0,0:0:0:0:
320,192,30870,1,0,0:0:0:0:
64,192,30945,1,0,0:0:0:0:
448,192,30945,1,0,0:0:0:0:
192,192,31020,1,0,0:0:0:0:
320,192,31095,1,0,0:0:0:0:
448,192,31095,1,0,0:0:0:0:
64,192,31170,1,0,0:0:0:0:
192,192,31245,1,0,0:0:0:0:
320,192,31245,1,0,0:0:0:0:
64,192,31320,1,0,0:0:0:0:
448,192,31395,1,0,0:0:0:0:
192,192,31395,1,0,0:0:0:0:
320,192,31470,1,0,0:0:0:0:
64,192,31545,1,0,0:0:0:0:
448,192,31545,1,0,0:0:0:0:
192,192,31620,1,0,0:0:0:0:
320,192,31695,1,0,0:0:0:0:
448,192,31695,1,0,0:0:0:0:
192,192,31770,1,0,0:0:0:0:
64,192,31845,1,0,0:0:0:0:
320,192,31845,1,0,0:0:0:0:
448,192,31920,1,0,0:0:0:0:
192,192,31995,1,0,0:0:0:0:
64,192,31995,1,0,0:0:0:0:
320,192,32070,1,0,0:0:0:0:
192,192,32145,1,0,0:0:0:0:
448,192,32145,1,0,0:0:0:0:
64,192,32145,1,0,0:0:0:0:
320,192,32220,1,0,0:0:0:0:
448,192,32295,1,0,0:0:0:0:
192,192,32295,1,0,0:0:0:0:
64,192,32370,1,0,0:0:0:0:
320,192,32445,1,0,0:0:0:0:
448,192,32445,1,0,0:0:0:0:
192,192,32520,1,0,0:0:0:0:
64,192,32595,1,0,0:0:0:0:
320,192,32595,1,0,0:0:0:0:
448,192,32670,1,0,0:0:0:0:
64,192,32745,1,0,0:0:0:0:
192,192,32745,1,0,0:0:0:0:
448,192,32820,1,0,0:0:0:0:
320,192,32895,1,0,0:0:0:0:
64,192,32895,1,0,0:0:0:0:
192,192,32970,1,0,0:0:0:0:
448,192,33045,1,0,0:0:0:0:
320,192,33045,1,0,0:0:0:0:
64,192,33120,1,0,0:0:0:0:
192,192,33195,1,0,0:0:0:0:
448,192,33195,1,0,0:0:0:0:
320,192,33270,1,0,0:0:0:0:
448,192,33345,1,0,0:0:0:0:
64,192,33345,1,0,0:0:0:0:
192,192,33420,1,0,0:0:0:0:
320,192,33495,1,0,0:0:0:0:
64,192,33495,1,0,0:0:0:0:
448,192,33570,1,0,0:0:0:0:
192,192,33645,1,0,0:0:0:0:
64,192,33645,1,0,0:0:0:0:
320,192,33720,1,0,0:0:0:0:
448,192,33795,1,0,0:0:0:0:
64,192,33795,1,0,0:0:0:0:
192,192,33870,1,0,0:0:0:0:
320,192,33945,1,0,0:0:0:0:
448,192,33945,1,0,0:0:0:0:
192,192,34020,1,0,0:0:0:0:
64,192,34095,1,0,0:0:0:0:
448,192,34095,1,0,0:0:0:0:
320,192,34170,1,0,0:0:0:0:
64,192,34245,1,0,0:0:0:0:
192,192,34245,1,0,0:0:0:0:
320,192,34320,1,0,0:0:0:0:
448,192,34395,1,0,0:0:0:0:
192,192,34395,1,0,0:0:0:0:
64,192,34470,1,0,0:0:0:0:
320,192,34545,1,0,0:0:0:0:
448,192,34545,1,0,0:0:0:0:
192,192,34620,1,0,0:0:0:0:
64,192,34695,1,0,0:0:0:0:
320,192,34695,1,0,0:0:0:0:
192,192,34770,1,0,0:0:0:0:
64,192,34845,1,0,0:0:0:0:
448,192,34845,1,0,0:0:0:0:
320,192,34920,1,0,0:0:0:0:
192,192,34995,1,0,0:0:0:0:
448,192,34995,1,0,0:0:0:0:
320,192,35070,1,0,0:0:0:0:
64,192,35145,1,0,0:0:0:0:
448,192,35145,1,0,0:0:0:0:
192,192,35220,1,0,0:0:0:0:
320,192,35295,1,0,0:0:0:0:
448,192,35295,1,0,0:0:0:0:
192,192,35370,1,0,0:0:0:0:
64,192,35445,1,0,0:0:0:0:
320,192,35445,1,0,0:0:0:0:
192,192,35520,1,0,0:0:0:0:
64,192,35595,1,0,0:0:0:0:
320,192,35595,1,0,0:0:0:0:
448,192,35595,1,0,0:0:0:0:
192,192,35670,1,0,0:0:0:0:
448,192,35745,1,0,0:0:0:0:
320,192,35745,1,0,0:0:0:0:
64,192,35820,1,0,0:0:0:0:
192,192,35895,1,0,0:0:0:0:
448,192,35895,1,0,0:0:0:0:
64,192,35970,1,0,0:0:0:0:
320,192,36045,1,0,0:0:0:0:
448,192,36045,1,0,0:0:0:0:
192,192,36120,1,0,0:0:0:0:
64,192,36195,1,0,0:0:0:0:
320,192,36195,1,0,0:0:0:0:
448,192,36270,1,0,0:0:0:0:
64,192,36345,1,0,0:0:0:0:
192,192,36345,1,0,0:0:0:0:
448,192,36495,1,0,0:0:0:0:
320,192,36495,1,0,0:0:0:0:
64,192,36495,1,0,0:0:0:0:
64,192,36645,1,0,0:0:0:0:
320,192,36645,1,0,0:0:0:0:
448,192,36645,1,0,0:0:0:0:
192,192,36795,1,0,0:0:0:0:
320,192,36870,1,0,0:0:0:0:
64,192,36923,1,0,0:0:0:0:
448,192,36923,1,0,0:0:0:0:
192,192,36998,1,0,0:0:0:0:
320,192,37073,1,0,0:0:0:0:
448,192,37073,1,0,0:0:0:0:
64,192,37148,1,0,0:0:0:0:
192,192,37223,1,0,0:0:0:0:
448,192,37223,1,0,0:0:0:0:
320,192,37298,1,0,0:0:0:0:
64,192,37373,1,0,0:0:0:0:
192,192,37373,1,0,0:0:0:0:
448,192,37448,1,0,0:0:0:0:
64,192,37523,1,0,0:0:0:0:
320,192,37523,1,0,0:0:0:0:
192,192,37598,1,0,0:0:0:0:
64,192,37673,1,0,0:0:0:0:
448,192,37673,1,0,0:0:0:0:
192,192,37748,1,0,0:0:0:0:
64,192,37823,1,0,0:0:0:0:
448,192,37823,1,0,0:0:0:0:
192,192,37898,1,0,0:0:0:0:
320,192,37973,1,0,0:0:0:0:
448,192,37973,1,0,0:0:0:0:
64,192,38048,1,0,0:0:0:0:
192,192,38123,1,0,0:0:0:0:
448,192,38123,1,0,0:0:0:0:
320,192,38198,1,0,0:0:0:0:
64,192,38273,1,0,0:0:0:0:
192,192,38273,1,0,0:0:0:0:
448,192,38348,1,0,0:0:0:0:
64,192,38423,1,0,0:0:0:0:
192,192,38423,1,0,0:0:0:0:
320,192,38498,1,0,0:0:0:0:
64,192,38573,1,0,0:0:0:0:
448,192,38573,1,0,0:0:0:0:
192,192,38648,1,0,0:0:0:0:
320,192,38723,1,0,0:0:0:0:
448,192,38723,1,0,0:0:0:0:
64,192,38798,1,0,0:0:0:0:
320,192,38873,1,0,0:0:0:0:
192,192,38873,1,0,0:0:0:0:
64,192,38948,1,0,0:0:0:0:
320,192,39023,1,0,0:0:0:0:
448,192,39023,1,0,0:0:0:0:
64,192,39098,1,0,0:0:0:0:
192,192,39173,1,0,0:0:0:0:
448,192,39173,1,0,0:0:0:0:
320,192,39248,1,0,0:0:0:0:
64,192,39323,1,0,0:0:0:0:
448,192,39323,1,0,0:0:0:0:
192,192,39398,1,0,0:0:0:0:
320,192,39473,1,0,0:0:0:0:
64,192,39473,1,0,0:0:0:0:
448,192,39548,1,0,0:0:0:0:
192,192,39623,1,0,0:0:0:0:
320,192,39623,1,0,0:0:0:0:
64,192,39698,1,0,0:0:0:0:
192,192,39773,1,0,0:0:0:0:
448,192,39773,1,0,0:0:0:0:
320,192,39848,1,0,0:0:0:0:
64,192,39923,1,0,0:0:0:0:
448,192,39923,1,0,0:0:0:0:
192,192,39998,1,0,0:0:0:0:
64,192,40073,1,0,0:0:0:0:
320,192,40073,1,0,0:0:0:0:
448,192,40148,1,0,0:0:0:0:
192,192,40223,1,0,0:0:0:0:
320,192,40223,1,0,0:0:0:0:
64,192,40298,1,0,0:0:0:0:
448,192,40373,1,0,0:0:0:0:
192,192,40373,1,0,0:0:0:0:
320,192,40448,1,0,0:0:0:0:
64,192,40523,1,0,0:0:0:0:
448,192,40523,1,0,0:0:0:0:
192,192,40598,1,0,0:0:0:0:
320,192,40673,1,0,0:0:0:0:
448,192,40673,1,0,0:0:0:0:
64,192,40748,1,0,0:0:0:0:
320,192,40823,1,0,0:0:0:0:
448,192,40823,1,0,0:0:0:0:
64,192,40898,1,0,0:0:0:0:
192,192,40973,1,0,0:0:0:0:
320,192,40973,1,0,0:0:0:0:
448,192,41048,1,0,0:0:0:0:
64,192,41123,1,0,0:0:0:0:
192,192,41123,1,0,0:0:0:0:
448,192,41198,1,0,0:0:0:0:
320,192,41273,1,0,0:0:0:0:
64,192,41273,1,0,0:0:0:0:
192,192,41348,1,0,0:0:0:0:
64,192,41423,1,0,0:0:0:0:
448,192,41423,1,0,0:0:0:0:
320,192,41498,1,0,0:0:0:0:
192,192,41573,1,0,0:0:0:0:
448,192,41573,1,0,0:0:0:0:
64,192,41648,1,0,0:0:0:0:
320,192,41723,1,0,0:0:0:0:
448,192,41723,1,0,0:0:0:0:
192,192,41798,1,0,0:0:0:0:
448,192,41873,1,0,0:0:0:0:
64,192,41873,1,0,0:0:0:0:
320,192,41948,1,0,0:0:0:0:
64,192,42023,1,0,0:0:0:0:
192,192,42023,1,0,0:0:0:0:
320,192,42098,1,0,0:0:0:0:
448,192,42173,1,0,0:0:0:0:
192,192,42173,1,0,0:0:0:0:
64,192,42248,1,0,0:0:0:0:
448,192,42323,1,0,0:0:0:0:
192,192,42323,1,0,0:0:0:0:
320,192,42398,1,0,0:0:0:0:
448,192,42473,1,0,0:0:0:0:
64,192,42473,1,0,0:0:0:0:
320,192,42548,1,0,0:0:0:0:
448,192,42623,1,0,0:0:0:0:
64,192,42623,1,0,0:0:0:0:
320,192,42698,1,0,0:0:0:0:
192,192,42698,1,0,0:0:0:0:
64,192,42773,1,0,0:0:0:0:
448,192,42773,1,0,0:0:0:0:
192,192,42848,1,0,0:0:0:0:
320,192,42923,1,0,0:0:0:0:
448,192,42923,1,0,0:0:0:0:
64,192,42998,1,0,0:0:0:0:
192,192,43073,1,0,0:0:0:0:
320,192,43073,1,0,0:0:0:0:
448,192,43148,1,0,0:0:0:0:
192,192,43223,1,0,0:0:0:0:
320,192,43223,1,0,0:0:0:0:
64,192,43298,1,0,0:0:0:0:
448,192,43373,1,0,0:0:0:0:
192,192,43373,1,0,0:0:0:0:
320,192,43448,1,0,0:0:0:0:
64,192,43523,1,0,0:0:0:0:
448,192,43523,1,0,0:0:0:0:
320,192,43598,1,0,0:0:0:0:
64,192,43673,1,0,0:0:0:0:
192,192,43673,1,0,0:0:0:0:
320,192,43748,1,0,0:0:0:0:
64,192,43823,1,0,0:0:0:0:
448,192,43823,1,0,0:0:0:0:
320,192,43898,1,0,0:0:0:0:
64,192,43973,1,0,0:0:0:0:
192,192,43973,1,0,0:0:0:0:
448,192,44048,1,0,0:0:0:0:
320,192,44123,1,0,0:0:0:0:
64,192,44123,1,0,0:0:0:0:
192,192,44198,1,0,0:0:0:0:
448,192,44273,1,0,0:0:0:0:
320,192,44273,1,0,0:0:0:0:
64,192,44348,1,0,0:0:0:0:
192,192,44423,1,0,0:0:0:0:
448,192,44423,1,0,0:0:0:0:
320,192,44498,1,0,0:0:0:0:
64,192,44573,1,0,0:0:0:0:
448,192,44573,1,0,0:0:0:0:
192,192,44648,1,0,0:0:0:0:
64,192,44723,1,0,0:0:0:0:
320,192,44723,1,0,0:0:0:0:
448,192,44798,1,0,0:0:0:0:
320,192,44873,1,0,0:0:0:0:
192,192,44873,1,0,0:0:0:0:
64,192,44948,1,0,0:0:0:0:
192,192,45023,1,0,0:0:0:0:
448,192,45023,1,0,0:0:0:0:
320,192,45098,1,0,0:0:0:0:
64,192,45173,1,0,0:0:0:0:
448,192,45173,1,0,0:0:0:0:
192,192,45248,1,0,0:0:0:0:
320,192,45248,1,0,0:0:0:0:
64,192,45323,1,0,0:0:0:0:
448,192,45323,1,0,0:0:0:0:
192,192,45398,1,0,0:0:0:0:
448,192,45473,1,0,0:0:0:0:
64,192,45473,1,0,0:0:0:0:
320,192,45548,1,0,0:0:0:0:
64,192,45623,1,0,0:0:0:0:
448,192,45623,1,0,0:0:0:0:
192,192,45698,1,0,0:0:0:0:
64,192,45773,1,0,0:0:0:0:
448,192,45773,1,0,0:0:0:0:
320,192,45848,1,0,0:0:0:0:
64,192,45923,1,0,0:0:0:0:
192,192,45923,1,0,0:0:0:0:
320,192,45998,1,0,0:0:0:0:
448,192,45998,1,0,0:0:0:0:
64,192,46073,1,0,0:0:0:0:
192,192,46073,1,0,0:0:0:0:
320,192,46148,1,0,0:0:0:0:
448,192,46148,1,0,0:0:0:0:
192,192,46223,1,0,0:0:0:0:
64,192,46223,1,0,0:0:0:0:
320,192,46298,1,0,0:0:0:0:
448,192,46298,1,0,0:0:0:0:
192,192,46373,1,0,0:0:0:0:
64,192,46373,1,0,0:0:0:0:
320,192,46448,1,0,0:0:0:0:
64,192,46523,1,0,0:0:0:0:
448,192,46523,1,0,0:0:0:0:
192,192,46598,1,0,0:0:0:0:
320,192,46598,1,0,0:0:0:0:
64,192,46673,1,0,0:0:0:0:
192,192,46748,1,0,0:0:0:0:
448,192,46748,1,0,0:0:0:0:
64,192,46823,1,0,0:0:0:0:
320,192,46823,1,0,0:0:0:0:
448,192,46898,1,0,0:0:0:0:
192,192,46898,1,0,0:0:0:0:
320,192,46973,1,0,0:0:0:0:
448,192,47048,1,0,0:0:0:0:
64,192,47048,1,0,0:0:0:0:
192,192,47123,1,0,0:0:0:0:
320,192,47123,1,0,0:0:0:0:
64,192,47198,1,0,0:0:0:0:
448,192,47198,1,0,0:0:0:0:
192,192,47273,1,0,0:0:0:0:
64,192,47348,1,0,0:0:0:0:
320,192,47348,1,0,0:0:0:0:
448,192,47423,1,0,0:0:0:0:
192,192,47423,1,0,0:0:0:0:
320,192,47498,1,0,0:0:0:0:
64,192,47498,1,0,0:0:0:0:
448,192,47573,1,0,0:0:0:0:
320,192,47648,1,0,0:0:0:0:
192,192,47648,1,0,0:0:0:0:
64,192,47723,1,0,0:0:0:0:
448,192,47723,1,0,0:0:0:0:
320,192,47798,1,0,0:0:0:0:
192,192,47798,1,0,0:0:0:0:
64,192,47873,1,0,0:0:0:0:
448,192,47948,1,0,0:0:0:0:
192,192,47948,1,0,0:0:0:0:
64,192,48023,1,0,0:0:0:0:
320,192,48023,1,0,0:0:0:0:
448,192,48098,1,0,0:0:0:0:
192,192,48098,1,0,0:0:0:0:
320,192,48173,1,0,0:0:0:0:
64,192,48248,1,0,0:0:0:0:
448,192,48248,1,0,0:0:0:0:
320,192,48323,1,0,0:0:0:0:
192,192,48323,1,0,0:0:0:0:
64,192,48398,1,0,0:0:0:0:
448,192,48398,1,0,0:0:0:0:
192,192,48473,1,0,0:0:0:0:
320,192,48548,1,0,0:0:0:0:
64,192,48548,1,0,0:0:0:0:
192,192,48623,1,0,0:0:0:0:
448,192,48623,1,0,0:0:0:0:
64,192,48698,1,0,0:0:0:0:
320,192,48698,1,0,0:0:0:0:
448,192,48773,1,0,0:0:0:0:
192,192,48848,1,0,0:0:0:0:
320,192,48848,1,0,0:0:0:0:
64,192,48923,1,0,0:0:0:0:
448,192,48923,1,0,0:0:0:0:
320,192,48998,1,0,0:0:0:0:
192,192,48998,1,0,0:0:0:0:
64,192,49073,1,0,0:0:0:0:
192,192,49148,1,0,0:0:0:0:
448,192,49148,1,0,0:0:0:0:
320,192,49223,1,0,0:0:0:0:
64,192,49223,1,0,0:0:0:0:
192,192,49298,1,0,0:0:0:0:
448,192,49298,1,0,0:0:0:0:
320,192,49373,1,0,0:0:0:0:
64,192,49448,1,0,0:0:0:0:
448,192,49448,1,0,0:0:0:0:
192,192,49523,1,0,0:0:0:0:
320,192,49523,1,0,0:0:0:0:
64,192,49598,1,0,0:0:0:0:
448,192,49598,1,0,0:0:0:0:
192,192,49673,1,0,0:0:0:0:
320,192,49748,1,0,0:0:0:0:
64,192,49748,1,0,0:0:0:0:
448,192,49823,1,0,0:0:0:0:
192,192,49823,1,0,0:0:0:0:
320,192,49898,1,0,0:0:0:0:
64,192,49898,1,0,0:0:0:0:
448,192,49973,1,0,0:0:0:0:
192,192,50048,1,0,0:0:0:0:
320,192,50048,1,0,0:0:0:0:
64,192,50123,1,0,0:0:0:0:
448,192,50123,1,0,0:0:0:0:
192,192,50198,1,0,0:0:0:0:
320,192,50198,1,0,0:0:0:0:
64,192,50273,1,0,0:0:0:0:
192,192,50348,1,0,0:0:0:0:
448,192,50348,1,0,0:0:0:0:
320,192,50423,1,0,0:0:0:0:
64,192,50423,1,0,0:0:0:0:
192,192,50498,1,0,0:0:0:0:
448,192,50498,1,0,0:0:0:0:
320,192,50573,1,0,0:0:0:0:
64,192,50648,1,0,0:0:0:0:
192,192,50648,1,0,0:0:0:0:
448,192,50685,1,0,0:0:0:0:
320,192,50723,1,0,0:0:0:0:
192,192,50760,1,0,0:0:0:0:
64,192,50798,1,0,0:0:0:0:
448,192,50835,1,0,0:0:0:0:
320,192,50873,1,0,0:0:0:0:
64,192,50910,1,0,0:0:0:0:
192,192,50948,1,0,0:0:0:0:
320,192,50985,1,0,0:0:0:0:
448,192,51023,1,0,0:0:0:0:
64,192,51060,1,0,0:0:0:0:
192,192,51098,1,0,0:0:0:0:
448,192,51135,1,0,0:0:0:0:
320,192,51173,1,0,0:0:0:0:
192,192,51210,1,0,0:0:0:0:
64,192,51248,1,0,0:0:0:0:
448,192,51248,1,0,0:0:0:0:
320,192,51323,1,0,0:0:0:0:
192,192,51398,1,0,0:0:0:0:
64,192,51398,1,0,0:0:0:0:
320,192,51473,1,0,0:0:0:0:
448,192,51548,1,0,0:0:0:0:
192,192,51548,1,0,0:0:0:0:
320,192,51623,1,0,0:0:0:0:
192,192,51698,1,0,0:0:0:0:
64,192,51698,1,0,0:0:0:0:
320,192,51773,1,0,0:0:0:0:
448,192,51848,1,0,0:0:0:0:
64,192,51848,1,0,0:0:0:0:
320,192,51923,1,0,0:0:0:0:
192,192,51998,1,0,0:0:0:0:
64,192,51998,1,0,0:0:0:0:
320,192,52073,1,0,0:0:0:0:
448,192,52148,1,0,0:0:0:0:
64,192,52148,1,0,0:0:0:0:
192,192,52223,1,0,0:0:0:0:
64,192,52298,1,0,0:0:0:0:
320,192,52298,1,0,0:0:0:0:
192,192,52373,1,0,0:0:0:0:
448,192,52373,1,0,0:0:0:0:
64,192,52448,1,0,0:0:0:0:
320,192,52448,1,0,0:0:0:0:
192,192,52523,1,0,0:0:0:0:
320,192,52598,1,0,0:0:0:0:
448,192,52598,1,0,0:0:0:0:
192,192,52673,1,0,0:0:0:0:
64,192,52748,1,0,0:0:0:0:
448,192,52748,1,0,0:0:0:0:
192,192,52823,1,0,0:0:0:0:
320,192,52898,1,0,0:0:0:0:
448,192,52898,1,0,0:0:0:0:
192,192,52973,1,0,0:0:0:0:
64,192,53048,1,0,0:0:0:0:
320,192,53048,1,0,0:0:0:0:
192,192,53123,1,0,0:0:0:0:
320,192,53198,1,0,0:0:0:0:
448,192,53198,1,0,0:0:0:0:
192,192,53273,1,0,0:0:0:0:
64,192,53348,1,0,0:0:0:0:
448,192,53348,1,0,0:0:0:0:
192,192,53423,1,0,0:0:0:0:
320,192,53498,1,0,0:0:0:0:
64,192,53498,1,0,0:0:0:0:
448,192,53573,1,0,0:0:0:0:
192,192,53573,1,0,0:0:0:0:
64,192,53648,1,0,0:0:0:0:
320,192,53648,1,0,0:0:0:0:
192,192,53723,1,0,0:0:0:0:
320,192,53798,1,0,0:0:0:0:
448,192,53798,1,0,0:0:0:0:
192,192,53873,1,0,0:0:0:0:
64,192,53948,1,0,0:0:0:0:
320,192,53948,1,0,0:0:0:0:
192,192,54023,1,0,0:0:0:0:
320,192,54098,1,0,0:0:0:0:
448,192,54098,1,0,0:0:0:0:
192,192,54173,1,0,0:0:0:0:
64,192,54248,1,0,0:0:0:0:
320,192,54248,1,0,0:0:0:0:
448,192,54323,1,0,0:0:0:0:
64,192,54398,1,0,0:0:0:0:
192,192,54398,1,0,0:0:0:0:
448,192,54473,1,0,0:0:0:0:
64,192,54548,1,0,0:0:0:0:
320,192,54548,1,0,0:0:0:0:
448,192,54623,1,0,0:0:0:0:
64,192,54698,1,0,0:0:0:0:
192,192,54698,1,0,0:0:0:0:
320,192,54773,1,0,0:0:0:0:
64,192,54848,1,0,0:0:0:0:
448,192,54848,1,0,0:0:0:0:
192,192,54923,1,0,0:0:0:0:
320,192,54923,1,0,0:0:0:0:
64,192,54998,1,0,0:0:0:0:
448,192,54998,1,0,0:0:0:0:
192,192,55073,1,0,0:0:0:0:
64,192,55148,1,0,0:0:0:0:
320,192,55148,1,0,0:0:0:0:
192,192,55223,1,0,0:0:0:0:
448,192,55223,1,0,0:0:0:0:
64,192,55298,1,0,0:0:0:0:
320,192,55298,1,0,0:0:0:0:
192,192,55373,1,0,0:0:0:0:
64,192,55448,1,0,0:0:0:0:
448,192,55448,1,0,0:0:0:0:
320,192,55485,1,0,0:0:0:0:
192,192,55523,1,0,0:0:0:0:
448,192,55560,1,0,0:0:0:0:
64,192,55598,1,0,0:0:0:0:
320,192,55635,1,0,0:0:0:0:
192,192,55673,1,0,0:0:0:0:
448,192,55710,1,0,0:0:0:0:
64,192,55748,1,0,0:0:0:0:
320,192,55785,1,0,0:0:0:0:
192,192,55823,1,0,0:0:0:0:
448,192,55860,1,0,0:0:0:0:
64,192,55898,1,0,0:0:0:0:
320,192,55935,1,0,0:0:0:0:
192,192,55973,1,0,0:0:0:0:
448,192,56010,1,0,0:0:0:0:
64,192,56048,1,0,0:0:0:0:
320,192,56048,1,0,0:0:0:0:
192,192,56198,1,0,0:0:0:0:
448,192,56198,1,0,0:0:0:0:
320,192,56348,1,0,0:0:0:0:
448,192,56348,1,0,0:0:0:0:
192,192,56498,1,0,0:0:0:0:
320,192,56498,1,0,0:0:0:0:
64,192,56648,1,0,0:0:0:0:
192,192,56648,1,0,0:0:0:0:
448,192,56798,1,0,0:0:0:0:
64,192,56798,1,0,0:0:0:0:
192,192,56948,1,0,0:0:0:0:
448,192,56948,1,0,0:0:0:0:
320,192,57098,1,0,0:0:0:0:
64,192,57098,1,0,0:0:0:0:
448,192,57398,1,0,0:0:0:0:
192,192,57398,1,0,0:0:0:0:
448,192,57548,1,0,0:0:0:0:
320,192,57548,1,0,0:0:0:0:
320,192,57698,1,0,0:0:0:0:
192,192,57698,1,0,0:0:0:0:
192,192,57848,1,0,0:0:0:0:
64,192,57848,1,0,0:0:0:0:
64,192,57998,1,0,0:0:0:0:
448,192,57998,1,0,0:0:0:0:
448,192,58148,1,0,0:0:0:0:
192,192,58148,1,0,0:0:0:0:
64,192,58298,1,0,0:0:0:0:
320,192,58298,1,0,0:0:0:0:
448,192,58598,1,0,0:0:0:0:
192,192,58598,1,0,0:0:0:0:
448,192,58748,1,0,0:0:0:0:
320,192,58748,1,0,0:0:0:0:
320,192,58898,1,0,0:0:0:0:
192,192,58898,1,0,0:0:0:0:
192,192,59048,1,0,0:0:0:0:
64,192,59048,1,0,0:0:0:0:
64,192,59198,1,0,0:0:0:0:
448,192,59198,1,0,0:0:0:0:
448,192,59348,1,0,0:0:0:0:
192,192,59348,1,0,0:0:0:0:
64,192,59498,1,0,0:0:0:0:
320,192,59498,1,0,0:0:0:0:
192,192,59798,1,0,0:0:0:0:
448,192,59798,1,0,0:0:0:0:
320,192,59948,1,0,0:0:0:0:
448,192,59948,1,0,0:0:0:0:
192,192,60098,1,0,0:0:0:0:
320,192,60098,1,0,0:0:0:0:
64,192,60248,1,0,0:0:0:0:
192,192,60248,1,0,0:0:0:0:
448,192,60398,1,0,0:0:0:0:
64,192,60398,1,0,0:0:0:0:
192,192,60548,1,0,0:0:0:0:
448,192,60548,1,0,0:0:0:0:
320,192,60698,1,0,0:0:0:0:
64,192,60698,1,0,0:0:0:0:
448,192,60998,1,0,0:0:0:0:
192,192,60998,1,0,0:0:0:0:
448,192,61148,1,0,0:0:0:0:
320,192,61148,1,0,0:0:0:0:
320,192,61298,1,0,0:0:0:0:
192,192,61298,1,0,0:0:0:0:
192,192,61448,1,0,0:0:0:0:
64,192,61448,1,0,0:0:0:0:
64,192,61598,1,0,0:0:0:0:
448,192,61598,1,0,0:0:0:0:
448,192,61748,1,0,0:0:0:0:
192,192,61748,1,0,0:0:0:0:
64,192,61898,1,0,0:0:0:0:
320,192,61898,1,0,0:0:0:0:
192,192,62198,1,0,0:0:0:0:
448,192,62198,1,0,0:0:0:0:
320,192,62348,1,0,0:0:0:0:
448,192,62348,1,0,0:0:0:0:
192,192,62498,1,0,0:0:0:0:
320,192,62498,1,0,0:0:0:0:
64,192,62648,1,0,0:0:0:0:
192,192,62648,1,0,0:0:0:0:
448,192,62798,1,0,0:0:0:0:
64,192,62798,1,0,0:0:0:0:
192,192,62948,1,0,0:0:0:0:
448,192,62948,1,0,0:0:0:0:
320,192,63098,1,0,0:0:0:0:
64,192,63098,1,0,0:0:0:0:
448,192,63248,1,0,0:0:0:0:
320,192,63285,1,0,0:0:0:0:
64,192,63323,1,0,0:0:0:0:
192,192,63360,1,0,0:0:0:0:
448,192,63398,1,0,0:0:0:0:
320,192,63435,1,0,0:0:0:0:
64,192,63473,1,0,0:0:0:0:
192,192,63510,1,0,0:0:0:0:
448,192,63548,1,0,0:0:0:0:
320,192,63585,1,0,0:0:0:0:
64,192,63623,1,0,0:0:0:0:
192,192,63660,1,0,0:0:0:0:
448,192,63698,1,0,0:0:0:0:
320,192,63735,1,0,0:0:0:0:
64,192,63773,1,0,0:0:0:0:
192,192,63810,1,0,0:0:0:0:
448,192,63848,1,0,0:0:0:0:
320,192,63885,1,0,0:0:0:0:
64,192,63923,1,0,0:0:0:0:
192,192,63960,1,0,0:0:0:0:
448,192,63998,1,0,0:0:0:0:
320,192,64035,1,0,0:0:0:0:
64,192,64073,1,0,0:0:0:0:
192,192,64110,1,0,0:0:0:0:
448,192,64148,1,0,0:0:0:0:
320,192,64185,1,0,0:0:0:0:
64,192,64223,1,0,0:0:0:0:
192,192,64260,1,0,0:0:0:0:
448,192,64298,1,0,0:0:0:0:
320,192,64335,1,0,0:0:0:0:
64,192,64373,1,0,0:0:0:0:
192,192,64410,1,0,0:0:0:0:
448,192,64448,1,0,0:0:0:0:
320,192,64485,1,0,0:0:0:0:
64,192,64523,1,0,0:0:0:0:
192,192,64560,1,0,0:0:0:0:
448,192,64598,1,0,0:0:0:0:
320,192,64635,1,0,0:0:0:0:
64,192,64673,1,0,0:0:0:0:
192,192,64710,1,0,0:0:0:0:
448,192,64748,1,0,0:0:0:0:
320,192,64785,1,0,0:0:0:0:
64,192,64823,1,0,0:0:0:0:
192,192,64860,1,0,0:0:0:0:
448,192,64898,1,0,0:0:0:0:
320,192,64935,1,0,0:0:0:0:
64,192,64973,1,0,0:0:0:0:
192,192,65010,1,0,0:0:0:0:
448,192,65048,1,0,0:0:0:0:
320,192,65085,1,0,0:0:0:0:
64,192,65123,1,0,0:0:0:0:
192,192,65160,1,0,0:0:0:0:
448,192,65198,1,0,0:0:0:0:
320,192,65235,1,0,0:0:0:0:
64,192,65273,1,0,0:0:0:0:
192,192,65310,1,0,0:0:0:0:
448,192,65348,1,0,0:0:0:0:
320,192,65385,1,0,0:0:0:0:
64,192,65423,1,0,0:0:0:0:
192,192,65460,1,0,0:0:0:0:
448,192,65498,1,0,0:0:0:0:
320,192,65535,1,0,0:0:0:0:
64,192,65573,1,0,0:0:0:0:
192,192,65610,1,0,0:0:0:0:
320,192,65648,1,0,0:0:0:0:
448,192,65648,1,0,0:0:0:0:
64,192,75444,132,0,76502:0:0:0:0:
448,192,75444,128,0,76502:0:0:0:0:
320,192,75841,128,0,76502:0:0:0:0:
192,192,76238,128,0,76502:0:0:0:0:
64,192,76560,1,0,0:0:0:0:
448,192,76560,1,0,0:0:0:0:
192,192,76604,1,0,0:0:0:0:
320,192,76648,1,0,0:0:0:0:
64,192,76692,1,0,0:0:0:0:
192,192,76736,1,0,0:0:0:0:
448,192,76780,1,0,0:0:0:0:
320,192,76824,1,0,0:0:0:0:
64,192,76868,1,0,0:0:0:0:
448,192,76912,1,0,0:0:0:0:
192,192,76957,1,0,0:0:0:0:
320,192,77001,1,0,0:0:0:0:
64,192,77045,1,0,0:0:0:0:
192,192,77089,1,0,0:0:0:0:
64,192,77133,1,0,0:0:0:0:
448,192,77177,1,0,0:0:0:0:
192,192,77221,1,0,0:0:0:0:
320,192,77265,1,0,0:0:0:0:
64,192,77265,1,0,0:0:0:0:
448,192,77310,1,0,0:0:0:0:
192,192,77354,1,0,0:0:0:0:
320,192,77398,1,0,0:0:0:0:
64,192,77442,1,0,0:0:0:0:
448,192,77486,1,0,0:0:0:0:
192,192,77530,1,0,0:0:0:0:
320,192,77574,1,0,0:0:0:0:
448,192,77618,1,0,0:0:0:0:
64,192,77662,1,0,0:0:0:0:
320,192,77707,1,0,0:0:0:0:
192,192,77751,1,0,0:0:0:0:
448,192,77795,1,0,0:0:0:0:
320,192,77839,1,0,0:0:0:0:
448,192,77883,1,0,0:0:0:0:
192,192,77927,1,0,0:0:0:0:
64,192,77971,1,0,0:0:0:0:
320,192,77971,1,0,0:0:0:0:
448,192,78015,1,0,0:0:0:0:
192,192,78060,1,0,0:0:0:0:
64,192,78104,1,0,0:0:0:0:
320,192,78148,1,0,0:0:0:0:
192,192,78192,1,0,0:0:0:0:
448,192,78236,1,0,0:0:0:0:
64,192,78280,1,0,0:0:0:0:
320,192,78324,1,0,0:0:0:0:
192,192,78368,1,0,0:0:0:0:
320,192,78412,1,0,0:0:0:0:
448,192,78457,1,0,0:0:0:0:
64,192,78501,1,0,0:0:0:0:
192,192,78545,1,0,0:0:0:0:
64,192,78589,1,0,0:0:0:0:
320,192,78633,1,0,0:0:0:0:
192,192,78677,1,0,0:0:0:0:
448,192,78677,1,0,0:0:0:0:
64,192,78721,1,0,0:0:0:0:
320,192,78765,1,0,0:0:0:0:
448,192,78810,1,0,0:0:0:0:
320,192,78854,1,0,0:0:0:0:
192,192,78898,1,0,0:0:0:0:
64,192,78942,1,0,0:0:0:0:
448,192,78986,1,0,0:0:0:0:
192,192,79030,1,0,0:0:0:0:
320,192,79074,1,0,0:0:0:0:
64,192,79118,1,0,0:0:0:0:
192,192,79162,1,0,0:0:0:0:
448,192,79207,1,0,0:0:0:0:
64,192,79251,1,0,0:0:0:0:
192,192,79295,1,0,0:0:0:0:
320,192,79339,1,0,0:0:0:0:
448,192,79383,1,0,0:0:0:0:
64,192,79383,1,0,0:0:0:0:
192,192,79427,1,0,0:0:0:0:
320,192,79471,1,0,0:0:0:0:
64,192,79515,1,0,0:0:0:0:
448,192,79560,1,0,0:0:0:0:
192,192,79604,1,0,0:0:0:0:
320,192,79648,1,0,0:0:0:0:
64,192,79692,1,0,0:0:0:0:
448,192,79736,1,0,0:0:0:0:
192,192,79780,1,0,0:0:0:0:
320,192,79824,1,0,0:0:0:0:
192,192,79868,1,0,0:0:0:0:
448,192,79912,1,0,0:0:0:0:
320,192,79957,1,0,0:0:0:0:
192,192,80001,1,0,0:0:0:0:
64,192,80045,1,0,0:0:0:0:
320,192,80089,1,0,0:0:0:0:
448,192,80089,1,0,0:0:0:0:
192,192,80133,1,0,0:0:0:0:
64,192,80177,1,0,0:0:0:0:
320,192,80221,1,0,0:0:0:0:
448,192,80265,1,0,0:0:0:0:
192,192,80310,1,0,0:0:0:0:
320,192,80354,1,0,0:0:0:0:
64,192,80398,1,0,0:0:0:0:
192,192,80442,1,0,0:0:0:0:
448,192,80486,1,0,0:0:0:0:
320,192,80530,1,0,0:0:0:0:
64,192,80574,1,0,0:0:0:0:
448,192,80618,1,0,0:0:0:0:
192,192,80662,1,0,0:0:0:0:
320,192,80707,1,0,0:0:0:0:
64,192,80751,1,0,0:0:0:0:
192,192,80795,1,0,0:0:0:0:
448,192,80795,1,0,0:0:0:0:
320,192,80839,1,0,0:0:0:0:
64,192,80883,1,0,0:0:0:0:
448,192,80927,1,0,0:0:0:0:
320,192,80971,1,0,0:0:0:0:
448,192,81015,1,0,0:0:0:0:
192,192,81060,1,0,0:0:0:0:
320,192,81104,1,0,0:0:0:0:
64,192,81148,1,0,0:0:0:0:
192,192,81192,1,0,0:0:0:0:
448,192,81236,1,0,0:0:0:0:
320,192,81280,1,0,0:0:0:0:
64,192,81324,1,0,0:0:0:0:
192,192,81368,1,0,0:0:0:0:
64,192,81412,1,0,0:0:0:0:
320,192,81457,1,0,0:0:0:0:
192,192,81501,1,0,0:0:0:0:
448,192,81501,1,0,0:0:0:0:
64,192,81545,1,0,0:0:0:0:
320,192,81589,1,0,0:0:0:0:
192,192,81633,1,0,0:0:0:0:
448,192,81677,1,0,0:0:0:0:
64,192,81721,1,0,0:0:0:0:
320,192,81765,1,0,0:0:0:0:
192,192,81810,1,0,0:0:0:0:
448,192,81854,1,0,0:0:0:0:
64,192,81898,1,0,0:0:0:0:
320,192,81942,1,0,0:0:0:0:
192,192,81986,1,0,0:0:0:0:
64,192,82030,1,0,0:0:0:0:
448,192,82074,1,0,0:0:0:0:
320,192,82118,1,0,0:0:0:0:
192,192,82162,1,0,0:0:0:0:
64,192,82207,1,0,0:0:0:0:
448,192,82207,1,0,0:0:0:0:
320,192,82251,1,0,0:0:0:0:
64,192,82295,1,0,0:0:0:0:
320,192,82339,1,0,0:0:0:0:
192,192,82383,1,0,0:0:0:0:
448,192,82427,1,0,0:0:0:0:
192,192,82471,1,0,0:0:0:0:
448,192,82515,1,0,0:0:0:0:
64,192,82560,1,0,0:0:0:0:
192,192,82604,1,0,0:0:0:0:
320,192,82648,1,0,0:0:0:0:
448,192,82692,1,0,0:0:0:0:
64,192,82736,1,0,0:0:0:0:
320,192,82780,1,0,0:0:0:0:
64,192,82824,1,0,0:0:0:0:
320,192,82868,1,0,0:0:0:0:
192,192,82912,1,0,0:0:0:0:
64,192,82912,1,0,0:0:0:0:
448,192,82957,1,0,0:0:0:0:
192,192,83001,1,0,0:0:0:0:
448,192,83045,1,0,0:0:0:0:
192,192,83089,1,0,0:0:0:0:
448,192,83133,1,0,0:0:0:0:
192,192,83177,1,0,0:0:0:0:
448,192,83221,1,0,0:0:0:0:
64,192,83265,1,0,0:0:0:0:
320,192,83310,1,0,0:0:0:0:
64,192,83354,1,0,0:0:0:0:
320,192,83398,1,0,0:0:0:0:
64,192,83442,1,0,0:0:0:0:
320,192,83486,1,0,0:0:0:0:
64,192,83530,1,0,0:0:0:0:
320,192,83574,1,0,0:0:0:0:
192,192,83618,1,0,0:0:0:0:
64,192,83618,1,0,0:0:0:0:
320,192,83662,1,0,0:0:0:0:
192,192,83707,1,0,0:0:0:0:
320,192,83751,1,0,0:0:0:0:
192,192,83795,1,0,0:0:0:0:
320,192,83839,1,0,0:0:0:0:
192,192,83883,1,0,0:0:0:0:
320,192,83927,1,0,0:0:0:0:
64,192,83971,1,0,0:0:0:0:
448,192,84015,1,0,0:0:0:0:
64,192,84060,1,0,0:0:0:0:
448,192,84104,1,0,0:0:0:0:
192,192,84148,1,0,0:0:0:0:
320,192,84192,1,0,0:0:0:0:
192,192,84236,1,0,0:0:0:0:
320,192,84280,1,0,0:0:0:0:
64,192,84324,1,0,0:0:0:0:
192,192,84324,1,0,0:0:0:0:
320,192,84368,1,0,0:0:0:0:
64,192,84412,1,0,0:0:0:0:
320,192,84457,1,0,0:0:0:0:
192,192,84501,1,0,0:0:0:0:
448,192,84545,1,0,0:0:0:0:
192,192,84589,1,0,0:0:0:0:
448,192,84633,1,0,0:0:0:0:
64,192,84677,1,0,0:0:0:0:
320,192,84721,1,0,0:0:0:0:
64,192,84765,1,0,0:0:0:0:
320,192,84810,1,0,0:0:0:0:
64,192,84854,1,0,0:0:0:0:
320,192,84898,1,0,0:0:0:0:
64,192,84942,1,0,0:0:0:0:
320,192,84986,1,0,0:0:0:0:
192,192,85030,1,0,0:0:0:0:
448,192,85030,1,0,0:0:0:0:
64,192,85074,1,0,0:0:0:0:
320,192,85118,1,0,0:0:0:0:
192,192,85162,1,0,0:0:0:0:
448,192,85207,1,0,0:0:0:0:
64,192,85251,1,0,0:0:0:0:
320,192,85295,1,0,0:0:0:0:
192,192,85339,1,0,0:0:0:0:
448,192,85383,1,0,0:0:0:0:
64,192,85427,1,0,0:0:0:0:
320,192,85471,1,0,0:0:0:0:
192,192,85515,1,0,0:0:0:0:
448,192,85560,1,0,0:0:0:0:
64,192,85604,1,0,0:0:0:0:
320,192,85648,1,0,0:0:0:0:
192,192,85692,1,0,0:0:0:0:
64,192,85736,1,0,0:0:0:0:
320,192,85736,1,0,0:0:0:0:
448,192,85780,1,0,0:0:0:0:
192,192,85824,1,0,0:0:0:0:
320,192,85868,1,0,0:0:0:0:
64,192,85912,1,0,0:0:0:0:
448,192,85957,1,0,0:0:0:0:
192,192,86001,1,0,0:0:0:0:
320,192,86045,1,0,0:0:0:0:
64,192,86089,1,0,0:0:0:0:
448,192,86133,1,0,0:0:0:0:
192,192,86177,1,0,0:0:0:0:
320,192,86221,1,0,0:0:0:0:
64,192,86265,1,0,0:0:0:0:
448,192,86310,1,0,0:0:0:0:
192,192,86354,1,0,0:0:0:0:
320,192,86398,1,0,0:0:0:0:
64,192,86442,1,0,0:0:0:0:
448,192,86442,1,0,0:0:0:0:
192,192,86486,1,0,0:0:0:0:
448,192,86530,1,0,0:0:0:0:
192,192,86574,1,0,0:0:0:0:
448,192,86618,1,0,0:0:0:0:
192,192,86662,1,0,0:0:0:0:
448,192,86707,1,0,0:0:0:0:
192,192,86751,1,0,0:0:0:0:
320,192,86795,1,0,0:0:0:0:
64,192,86839,1,0,0:0:0:0:
320,192,86883,1,0,0:0:0:0:
64,192,86927,1,0,0:0:0:0:
320,192,86971,1,0,0:0:0:0:
64,192,87015,1,0,0:0:0:0:
320,192,87060,1,0,0:0:0:0:
64,192,87104,1,0,0:0:0:0:
192,192,87148,1,0,0:0:0:0:
448,192,87148,1,0,0:0:0:0:
320,192,87192,1,0,0:0:0:0:
192,192,87236,1,0,0:0:0:0:
320,192,87280,1,0,0:0:0:0:
192,192,87324,1,0,0:0:0:0:
320,192,87368,1,0,0:0:0:0:
192,192,87412,1,0,0:0:0:0:
320,192,87457,1,0,0:0:0:0:
64,192,87501,1,0,0:0:0:0:
448,192,87545,1,0,0:0:0:0:
64,192,87589,1,0,0:0:0:0:
448,192,87633,1,0,0:0:0:0:
64,192,87677,1,0,0:0:0:0:
448,192,87721,1,0,0:0:0:0:
64,192,87765,1,0,0:0:0:0:
448,192,87810,1,0,0:0:0:0:
64,192,87854,1,0,0:0:0:0:
320,192,87854,1,0,0:0:0:0:
192,192,87898,1,0,0:0:0:0:
448,192,87942,1,0,0:0:0:0:
320,192,87986,1,0,0:0:0:0:
64,192,88030,1,0,0:0:0:0:
192,192,88074,1,0,0:0:0:0:
320,192,88118,1,0,0:0:0:0:
64,192,88162,1,0,0:0:0:0:
192,192,88207,1,0,0:0:0:0:
448,192,88207,1,0,0:0:0:0:
320,192,88251,1,0,0:0:0:0:
64,192,88295,1,0,0:0:0:0:
448,192,88339,1,0,0:0:0:0:
192,192,88383,1,0,0:0:0:0:
320,192,88427,1,0,0:0:0:0:
448,192,88471,1,0,0:0:0:0:
192,192,88515,1,0,0:0:0:0:
320,192,88560,1,0,0:0:0:0:
64,192,88560,1,0,0:0:0:0:
448,192,88604,1,0,0:0:0:0:
192,192,88648,1,0,0:0:0:0:
320,192,88692,1,0,0:0:0:0:
64,192,88736,1,0,0:0:0:0:
448,192,88780,1,0,0:0:0:0:
192,192,88824,1,0,0:0:0:0:
320,192,88868,1,0,0:0:0:0:
64,192,88912,1,0,0:0:0:0:
448,192,88912,1,0,0:0:0:0:
192,192,88957,1,0,0:0:0:0:
320,192,89001,1,0,0:0:0:0:
64,192,89045,1,0,0:0:0:0:
448,192,89089,1,0,0:0:0:0:
192,192,89133,1,0,0:0:0:0:
320,192,89177,1,0,0:0:0:0:
64,192,89221,1,0,0:0:0:0:
448,192,89265,1,0,0:0:0:0:
192,192,89265,1,0,0:0:0:0:
320,192,89309,1,0,0:0:0:0:
64,192,89354,1,0,0:0:0:0:
448,192,89398,1,0,0:0:0:0:
192,192,89442,1,0,0:0:0:0:
320,192,89486,1,0,0:0:0:0:
64,192,89530,1,0,0:0:0:0:
192,192,89574,1,0,0:0:0:0:
320,192,89618,1,0,0:0:0:0:
448,192,89618,1,0,0:0:0:0:
64,192,89662,1,0,0:0:0:0:
192,192,89707,1,0,0:0:0:0:
448,192,89751,1,0,0:0:0:0:
320,192,89795,1,0,0:0:0:0:
64,192,89839,1,0,0:0:0:0:
448,192,89883,1,0,0:0:0:0:
192,192,89927,1,0,0:0:0:0:
320,192,89971,1,0,0:0:0:0:
64,192,89971,1,0,0:0:0:0:
448,192,90015,1,0,0:0:0:0:
192,192,90059,1,0,0:0:0:0:
320,192,90104,1,0,0:0:0:0:
64,192,90148,1,0,0:0:0:0:
448,192,90192,1,0,0:0:0:0:
320,192,90236,1,0,0:0:0:0:
192,192,90280,1,0,0:0:0:0:
64,192,90324,1,0,0:0:0:0:
448,192,90324,1,0,0:0:0:0:
320,192,90368,1,0,0:0:0:0:
192,192,90412,1,0,0:0:0:0:
448,192,90457,1,0,0:0:0:0:
64,192,90501,1,0,0:0:0:0:
320,192,90545,1,0,0:0:0:0:
192,192,90589,1,0,0:0:0:0:
448,192,90633,1,0,0:0:0:0:
64,192,90677,1,0,0:0:0:0:
320,192,90677,1,0,0:0:0:0:
192,192,90721,1,0,0:0:0:0:
448,192,90765,1,0,0:0:0:0:
64,192,90809,1,0,0:0:0:0:
192,192,90854,1,0,0:0:0:0:
320,192,90898,1,0,0:0:0:0:
64,192,90942,1,0,0:0:0:0:
192,192,90986,1,0,0:0:0:0:
320,192,91030,1,0,0:0:0:0:
448,192,91030,1,0,0:0:0:0:
64,192,91074,1,0,0:0:0:0:
192,192,91118,1,0,0:0:0:0:
448,192,91162,1,0,0:0:0:0:
320,192,91207,1,0,0:0:0:0:
64,192,91251,1,0,0:0:0:0:
448,192,91295,1,0,0:0:0:0:
192,192,91339,1,0,0:0:0:0:
320,192,91383,1,0,0:0:0:0:
64,192,91383,1,0,0:0:0:0:
448,192,91427,1,0,0:0:0:0:
192,192,91471,1,0,0:0:0:0:
320,192,91515,1,0,0:0:0:0:
64,192,91559,1,0,0:0:0:0:
448,192,91604,1,0,0:0:0:0:
320,192,91648,1,0,0:0:0:0:
192,192,91692,1,0,0:0:0:0:
64,192,91736,1,0,0:0:0:0:
448,192,91736,1,0,0:0:0:0:
320,192,91780,1,0,0:0:0:0:
192,192,91824,1,0,0:0:0:0:
448,192,91868,1,0,0:0:0:0:
320,192,91912,1,0,0:0:0:0:
64,192,91957,1,0,0:0:0:0:
192,192,92001,1,0,0:0:0:0:
448,192,92045,1,0,0:0:0:0:
320,192,92089,1,0,0:0:0:0:
64,192,92089,1,0,0:0:0:0:
192,192,92133,1,0,0:0:0:0:
448,192,92177,1,0,0:0:0:0:
320,192,92221,1,0,0:0:0:0:
64,192,92265,1,0,0:0:0:0:
192,192,92309,1,0,0:0:0:0:
448,192,92354,1,0,0:0:0:0:
320,192,92398,1,0,0:0:0:0:
64,192,92442,1,0,0:0:0:0:
192,192,92442,1,0,0:0:0:0:
448,192,92486,1,0,0:0:0:0:
320,192,92530,1,0,0:0:0:0:
192,192,92574,1,0,0:0:0:0:
448,192,92618,1,0,0:0:0:0:
64,192,92662,1,0,0:0:0:0:
192,192,92707,1,0,0:0:0:0:
320,192,92751,1,0,0:0:0:0:
64,192,92795,1,0,0:0:0:0:
192,192,92795,1,0,0:0:0:0:
448,192,92839,1,0,0:0:0:0:
320,192,92883,1,0,0:0:0:0:
64,192,92883,1,0,0:0:0:0:
192,192,92927,1,0,0:0:0:0:
320,192,92971,1,0,0:0:0:0:
448,192,92971,1,0,0:0:0:0:
64,192,93015,1,0,0:0:0:0:
192,192,93059,1,0,0:0:0:0:
448,192,93059,1,0,0:0:0:0:
320,192,93104,1,0,0:0:0:0:
64,192,93148,1,0,0:0:0:0:
192,192,93148,1,0,0:0:0:0:
448,192,93192,1,0,0:0:0:0:
320,192,93236,1,0,0:0:0:0:
192,192,93280,1,0,0:0:0:0:
64,192,93324,1,0,0:0:0:0:
448,192,93324,1,0,0:0:0:0:
320,192,93368,1,0,0:0:0:0:
192,192,93412,1,0,0:0:0:0:
64,192,93412,1,0,0:0:0:0:
320,192,93457,1,0,0:0:0:0:
448,192,93501,1,0,0:0:0:0:
192,192,93501,1,0,0:0:0:0:
64,192,93545,1,0,0:0:0:0:
320,192,93589,1,0,0:0:0:0:
192,192,93633,1,0,0:0:0:0:
448,192,93677,1,0,0:0:0:0:
64,192,93721,1,0,0:0:0:0:
192,192,93765,1,0,0:0:0:0:
320,192,93809,1,0,0:0:0:0:
448,192,93854,1,0,0:0:0:0:
64,192,93854,1,0,0:0:0:0:
192,192,93898,1,0,0:0:0:0:
320,192,93942,1,0,0:0:0:0:
64,192,93986,1,0,0:0:0:0:
448,192,94030,1,0,0:0:0:0:
320,192,94074,1,0,0:0:0:0:
192,192,94118,1,0,0:0:0:0:
448,192,94162,1,0,0:0:0:0:
320,192,94207,1,0,0:0:0:0:
64,192,94207,1,0,0:0:0:0:
192,192,94251,1,0,0:0:0:0:
448,192,94295,1,0,0:0:0:0:
64,192,94339,1,0,0:0:0:0:
320,192,94383,1,0,0:0:0:0:
192,192,94427,1,0,0:0:0:0:
64,192,94471,1,0,0:0:0:0:
320,192,94515,1,0,0:0:0:0:
192,192,94559,1,0,0:0:0:0:
448,192,94559,1,0,0:0:0:0:
64,192,94604,1,0,0:0:0:0:
320,192,94648,1,0,0:0:0:0:
448,192,94692,1,0,0:0:0:0:
192,192,94736,1,0,0:0:0:0:
320,192,94780,1,0,0:0:0:0:
64,192,94824,1,0,0:0:0:0:
192,192,94868,1,0,0:0:0:0:
320,192,94912,1,0,0:0:0:0:
448,192,94912,1,0,0:0:0:0:
64,192,94957,1,0,0:0:0:0:
192,192,95001,1,0,0:0:0:0:
320,192,95045,1,0,0:0:0:0:
448,192,95089,1,0,0:0:0:0:
192,192,95133,1,0,0:0:0:0:
320,192,95177,1,0,0:0:0:0:
64,192,95221,1,0,0:0:0:0:
192,192,95265,1,0,0:0:0:0:
448,192,95265,1,0,0:0:0:0:
320,192,95309,1,0,0:0:0:0:
64,192,95354,1,0,0:0:0:0:
448,192,95398,1,0,0:0:0:0:
192,192,95442,1,0,0:0:0:0:
320,192,95486,1,0,0:0:0:0:
64,192,95530,1,0,0:0:0:0:
192,192,95574,1,0,0:0:0:0:
320,192,95618,1,0,0:0:0:0:
448,192,95618,1,0,0:0:0:0:
64,192,95662,1,0,0:0:0:0:
192,192,95707,1,0,0:0:0:0:
448,192,95751,1,0,0:0:0:0:
320,192,95795,1,0,0:0:0:0:
192,192,95839,1,0,0:0:0:0:
448,192,95883,1,0,0:0:0:0:
320,192,95927,1,0,0:0:0:0:
192,192,95971,1,0,0:0:0:0:
64,192,95971,1,0,0:0:0:0:
448,192,96015,1,0,0:0:0:0:
320,192,96059,1,0,0:0:0:0:
64,192,96104,1,0,0:0:0:0:
192,192,96148,1,0,0:0:0:0:
448,192,96192,1,0,0:0:0:0:
64,192,96236,1,0,0:0:0:0:
320,192,96280,1,0,0:0:0:0:
192,192,96324,1,0,0:0:0:0:
448,192,96324,1,0,0:0:0:0:
64,192,96368,1,0,0:0:0:0:
320,192,96412,1,0,0:0:0:0:
192,192,96457,1,0,0:0:0:0:
448,192,96501,1,0,0:0:0:0:
320,192,96545,1,0,0:0:0:0:
64,192,96589,1,0,0:0:0:0:
192,192,96633,1,0,0:0:0:0:
448,192,96677,1,0,0:0:0:0:
320,192,96677,1,0,0:0:0:0:
64,192,96721,1,0,0:0:0:0:
192,192,96765,1,0,0:0:0:0:
448,192,96809,1,0,0:0:0:0:
320,192,96854,1,0,0:0:0:0:
192,192,96898,1,0,0:0:0:0:
448,192,96942,1,0,0:0:0:0:
320,192,96986,1,0,0:0:0:0:
192,192,97030,1,0,0:0:0:0:
64,192,97030,1,0,0:0:0:0:
448,192,97074,1,0,0:0:0:0:
320,192,97118,1,0,0:0:0:0:
64,192,97162,1,0,0:0:0:0:
192,192,97207,1,0,0:0:0:0:
320,192,97251,1,0,0:0:0:0:
64,192,97295,1,0,0:0:0:0:
192,192,97339,1,0,0:0:0:0:
320,192,97383,1,0,0:0:0:0:
448,192,97383,1,0,0:0:0:0:
64,192,97427,1,0,0:0:0:0:
192,192,97471,1,0,0:0:0:0:
448,192,97471,1,0,0:0:0:0:
320,192,97515,1,0,0:0:0:0:
64,192,97559,1,0,0:0:0:0:
192,192,97559,1,0,0:0:0:0:
448,192,97604,1,0,0:0:0:0:
320,192,97648,1,0,0:0:0:0:
64,192,97648,1,0,0:0:0:0:
192,192,97692,1,0,0:0:0:0:
448,192,97736,1,0,0:0:0:0:
320,192,97736,1,0,0:0:0:0:
64,192,97780,1,0,0:0:0:0:
320,192,97824,1,0,0:0:0:0:
448,192,97824,1,0,0:0:0:0:
64,192,97868,1,0,0:0:0:0:
320,192,97912,1,0,0:0:0:0:
448,192,97912,1,0,0:0:0:0:
64,192,98089,1,0,0:0:0:0:
192,192,98089,1,0,0:0:0:0:
448,192,98133,1,0,0:0:0:0:
64,192,98177,1,0,0:0:0:0:
192,192,98177,1,0,0:0:0:0:
448,192,98221,1,0,0:0:0:0:
64,192,98265,1,0,0:0:0:0:
192,192,98265,1,0,0:0:0:0:
320,192,98442,1,0,0:0:0:0:
448,192,98442,1,0,0:0:0:0:
192,192,98486,1,0,0:0:0:0:
64,192,98530,1,0,0:0:0:0:
448,192,98530,1,0,0:0:0:0:
320,192,98574,1,0,0:0:0:0:
64,192,98618,1,0,0:0:0:0:
192,192,98618,1,0,0:0:0:0:
320,192,98662,1,0,0:0:0:0:
64,192,98707,1,0,0:0:0:0:
448,192,98707,1,0,0:0:0:0:
192,192,98751,1,0,0:0:0:0:
320,192,98795,1,0,0:0:0:0:
448,192,98795,1,0,0:0:0:0:
192,192,98839,1,0,0:0:0:0:
64,192,98883,1,0,0:0:0:0:
448,192,98883,1,0,0:0:0:0:
320,192,98927,1,0,0:0:0:0:
192,192,98971,1,0,0:0:0:0:
64,192,98971,1,0,0:0:0:0:
320,192,99015,1,0,0:0:0:0:
64,192,99059,1,0,0:0:0:0:
448,192,99059,1,0,0:0:0:0:
192,192,99104,1,0,0:0:0:0:
448,192,99129,1,0,0:0:0:0:
320,192,99129,128,0,99440:0:0:0:0:
64,192,99206,1,0,0:0:0:0:
448,192,99284,1,0,0:0:0:0:
192,192,99362,1,0,0:0:0:0:
64,192,99440,128,0,99518:0:0:0:0:
192,192,99518,128,0,99596:0:0:0:0:
448,192,99596,128,0,100064:0:0:0:0:
64,192,99596,1,0,0:0:0:0:
320,192,99674,1,0,0:0:0:0:
192,192,99752,1,0,0:0:0:0:
64,192,99830,1,0,0:0:0:0:
320,192,99908,1,0,0:0:0:0:
192,192,99986,1,0,0:0:0:0:
320,192,100064,128,0,100141:0:0:0:0:
64,192,100064,1,0,0:0:0:0:
192,192,100141,128,0,100219:0:0:0:0:
64,192,100219,128,0,100297:0:0:0:0:
320,192,100297,128,0,100375:0:0:0:0:
192,192,100375,128,0,100453:0:0:0:0:
448,192,100453,128,0,100531:0:0:0:0:
64,192,100531,128,0,100609:0:0:0:0:
192,192,100609,128,0,100687:0:0:0:0:
320,192,100687,128,0,100765:0:0:0:0:
448,192,100765,128,0,100843:0:0:0:0:
64,192,100843,128,0,101622:0:0:0:0:
192,192,100843,1,0,0:0:0:0:
320,192,100921,1,0,0:0:0:0:
448,192,100999,1,0,0:0:0:0:
192,192,101077,1,0,0:0:0:0:
448,192,101154,1,0,0:0:0:0:
320,192,101232,1,0,0:0:0:0:
192,192,101310,1,0,0:0:0:0:
448,192,101388,1,0,0:0:0:0:
320,192,101466,1,0,0:0:0:0:
192,192,101544,1,0,0:0:0:0:
448,192,101622,128,0,101778:0:0:0:0:
320,192,101700,1,0,0:0:0:0:
192,192,101778,128,0,101934:0:0:0:0:
64,192,101856,1,0,0:0:0:0:
320,192,101934,128,0,102090:0:0:0:0:
448,192,102012,1,0,0:0:0:0:
64,192,102090,128,0,102401:0:0:0:0:
192,192,102090,1,0,0:0:0:0:
320,192,102167,1,0,0:0:0:0:
448,192,102245,1,0,0:0:0:0:
192,192,102323,1,0,0:0:0:0:
448,192,102401,128,0,102557:0:0:0:0:
320,192,102479,1,0,0:0:0:0:
192,192,102557,128,0,102869:0:0:0:0:
64,192,102635,1,0,0:0:0:0:
448,192,102713,1,0,0:0:0:0:
64,192,102791,1,0,0:0:0:0:
320,192,102869,128,0,103804:0:0:0:0:
448,192,102947,1,0,0:0:0:0:
64,192,103025,1,0,0:0:0:0:
192,192,103103,1,0,0:0:0:0:
448,192,103180,1,0,0:0:0:0:
192,192,103258,1,0,0:0:0:0:
64,192,103336,1,0,0:0:0:0:
448,192,103414,1,0,0:0:0:0:
192,192,103492,1,0,0:0:0:0:
64,192,103570,1,0,0:0:0:0:
192,192,103648,1,0,0:0:0:0:
448,192,103726,1,0,0:0:0:0:
64,192,103804,128,0,103882:0:0:0:0:
192,192,103882,128,0,103960:0:0:0:0:
320,192,103960,128,0,104038:0:0:0:0:
448,192,104038,128,0,104116:0:0:0:0:
64,192,104116,128,0,104193:0:0:0:0:
320,192,104193,128,0,104271:0:0:0:0:
192,192,104271,128,0,104349:0:0:0:0:
320,192,104349,128,0,104427:0:0:0:0:
64,192,104427,128,0,104505:0:0:0:0:
448,192,104505,128,0,104583:0:0:0:0:
192,192,104583,128,0,105051:0:0:0:0:
320,192,104583,1,0,0:0:0:0:
64,192,104661,1,0,0:0:0:0:
448,192,104739,1,0,0:0:0:0:
320,192,104817,1,0,0:0:0:0:
64,192,104895,1,0,0:0:0:0:
320,192,104973,1,0,0:0:0:0:
448,192,105051,128,0,105129:0:0:0:0:
320,192,105129,128,0,105206:0:0:0:0:
192,192,105206,128,0,105284:0:0:0:0:
64,192,105284,128,0,105362:0:0:0:0:
448,192,105362,128,0,105440:0:0:0:0:
192,192,105440,128,0,105518:0:0:0:0:
448,192,105518,128,0,105596:0:0:0:0:
64,192,105596,128,0,105674:0:0:0:0:
320,192,105674,128,0,105752:0:0:0:0:
64,192,105752,128,0,105830:0:0:0:0:
448,192,105830,128,0,106609:0:0:0:0:
192,192,105830,1,0,0:0:0:0:
320,192,105908,1,0,0:0:0:0:
64,192,105986,1,0,0:0:0:0:
192,192,106064,1,0,0:0:0:0:
320,192,106141,1,0,0:0:0:0:
192,192,106219,1,0,0:0:0:0:
64,192,106297,1,0,0:0:0:0:
320,192,106375,1,0,0:0:0:0:
64,192,106453,1,0,0:0:0:0:
320,192,106531,1,0,0:0:0:0:
192,192,106609,128,0,106765:0:0:0:0:
64,192,106687,1,0,0:0:0:0:
320,192,106765,128,0,106921:0:0:0:0:
192,192,106843,1,0,0:0:0:0:
64,192,106921,128,0,107077:0:0:0:0:
320,192,106999,1,0,0:0:0:0:
448,192,107077,128,0,107232:0:0:0:0:
192,192,107154,1,0,0:0:0:0:
64,192,107232,128,0,107388:0:0:0:0:
448,192,107310,1,0,0:0:0:0:
192,192,107388,128,0,107544:0:0:0:0:
320,192,107466,1,0,0:0:0:0:
448,192,107544,128,0,107700:0:0:0:0:
192,192,107622,1,0,0:0:0:0:
320,192,107700,128,0,107856:0:0:0:0:
448,192,107778,1,0,0:0:0:0:
64,192,107856,128,0,108791:0:0:0:0:
192,192,107856,1,0,0:0:0:0:
320,192,107934,1,0,0:0:0:0:
448,192,108012,1,0,0:0:0:0:
192,192,108090,1,0,0:0:0:0:
320,192,108167,1,0,0:0:0:0:
192,192,108245,1,0,0:0:0:0:
448,192,108323,1,0,0:0:0:0:
320,192,108401,1,0,0:0:0:0:
448,192,108479,1,0,0:0:0:0:
192,192,108557,1,0,0:0:0:0:
320,192,108635,1,0,0:0:0:0:
192,192,108713,1,0,0:0:0:0:
448,192,108791,128,0,108869:0:0:0:0:
192,192,108869,128,0,108947:0:0:0:0:
320,192,108947,128,0,109025:0:0:0:0:
64,192,109025,128,0,109103:0:0:0:0:
192,192,109103,128,0,109180:0:0:0:0:
448,192,109180,128,0,109258:0:0:0:0:
64,192,109258,128,0,109336:0:0:0:0:
320,192,109336,128,0,109414:0:0:0:0:
64,192,109414,128,0,110349:0:0:0:0:
192,192,109414,128,0,109492:0:0:0:0:
448,192,109492,128,0,109570:0:0:0:0:
320,192,109570,128,0,110038:0:0:0:0:
192,192,109570,1,0,0:0:0:0:
448,192,109648,1,0,0:0:0:0:
192,192,109726,1,0,0:0:0:0:
448,192,109804,1,0,0:0:0:0:
192,192,109882,1,0,0:0:0:0:
448,192,109960,1,0,0:0:0:0:
192,192,110038,128,0,110116:0:0:0:0:
448,192,110116,128,0,110193:0:0:0:0:
320,192,110193,128,0,110271:0:0:0:0:
448,192,110271,128,0,110349:0:0:0:0:
192,192,110349,128,0,110427:0:0:0:0:
320,192,110427,128,0,110505:0:0:0:0:
64,192,110505,128,0,110583:0:0:0:0:
448,192,110583,128,0,110661:0:0:0:0:
192,192,110661,128,0,110739:0:0:0:0:
320,192,110739,128,0,110817:0:0:0:0:
448,192,110817,128,0,111596:0:0:0:0:
64,192,110817,1,0,0:0:0:0:
192,192,110895,1,0,0:0:0:0:
320,192,110973,1,0,0:0:0:0:
64,192,111051,1,0,0:0:0:0:
192,192,111129,1,0,0:0:0:0:
64,192,111206,1,0,0:0:0:0:
320,192,111284,1,0,0:0:0:0:
192,192,111362,1,0,0:0:0:0:
64,192,111440,1,0,0:0:0:0:
192,192,111518,1,0,0:0:0:0:
64,192,111596,128,0,111908:0:0:0:0:
320,192,111596,128,0,111674:0:0:0:0:
192,192,111674,128,0,111752:0:0:0:0:
320,192,111752,128,0,111830:0:0:0:0:
448,192,111830,128,0,111908:0:0:0:0:
192,192,111908,128,0,111986:0:0:0:0:
320,192,111986,128,0,112064:0:0:0:0:
448,192,112064,128,0,112141:0:0:0:0:
64,192,112141,128,0,112375:0:0:0:0:
320,192,112141,1,0,0:0:0:0:
448,192,112219,128,0,112531:0:0:0:0:
192,192,112219,1,0,0:0:0:0:
320,192,112297,1,0,0:0:0:0:
192,192,112375,128,0,112531:0:0:0:0:
64,192,112453,1,0,0:0:0:0:
320,192,112531,128,0,112687:0:0:0:0:
192,192,112609,1,0,0:0:0:0:
64,192,112687,128,0,112843:0:0:0:0:
320,192,112765,1,0,0:0:0:0:
448,192,112843,128,0,113778:0:0:0:0:
192,192,112843,1,0,0:0:0:0:
320,192,112921,1,0,0:0:0:0:
64,192,112999,1,0,0:0:0:0:
192,192,113077,1,0,0:0:0:0:
64,192,113154,1,0,0:0:0:0:
320,192,113232,1,0,0:0:0:0:
192,192,113310,1,0,0:0:0:0:
64,192,113388,1,0,0:0:0:0:
320,192,113466,1,0,0:0:0:0:
192,192,113544,1,0,0:0:0:0:
64,192,113622,1,0,0:0:0:0:
320,192,113700,1,0,0:0:0:0:
192,192,113778,128,0,113856:0:0:0:0:
320,192,113856,128,0,113934:0:0:0:0:
64,192,113934,128,0,114012:0:0:0:0:
448,192,114012,128,0,114090:0:0:0:0:
192,192,114090,128,0,114167:0:0:0:0:
320,192,114167,128,0,114245:0:0:0:0:
192,192,114245,128,0,114323:0:0:0:0:
64,192,114323,128,0,114401:0:0:0:0:
448,192,114401,128,0,115336:0:0:0:0:
320,192,114401,128,0,114479:0:0:0:0:
192,192,114479,128,0,114557:0:0:0:0:
64,192,114557,128,0,115025:0:0:0:0:
320,192,114557,1,0,0:0:0:0:
192,192,114635,1,0,0:0:0:0:
320,192,114713,1,0,0:0:0:0:
192,192,114791,1,0,0:0:0:0:
320,192,114869,1,0,0:0:0:0:
192,192,114947,1,0,0:0:0:0:
320,192,115025,128,0,115103:0:0:0:0:
192,192,115103,128,0,115180:0:0:0:0:
64,192,115180,128,0,115258:0:0:0:0:
192,192,115258,128,0,115336:0:0:0:0:
320,192,115336,128,0,115414:0:0:0:0:
448,192,115414,128,0,115492:0:0:0:0:
64,192,115492,128,0,115570:0:0:0:0:
320,192,115570,128,0,115648:0:0:0:0:
192,192,115648,128,0,115726:0:0:0:0:
64,192,115726,128,0,115804:0:0:0:0:
320,192,115804,128,0,116116:0:0:0:0:
448,192,115804,1,0,0:0:0:0:
192,192,115882,1,0,0:0:0:0:
448,192,115960,1,0,0:0:0:0:
192,192,116038,1,0,0:0:0:0:
64,192,116116,128,0,116271:0:0:0:0:
320,192,116193,1,0,0:0:0:0:
448,192,116271,128,0,116427:0:0:0:0:
64,192,116349,1,0,0:0:0:0:
192,192,116427,128,0,116583:0:0:0:0:
448,192,116505,1,0,0:0:0:0:
320,192,116583,128,0,116895:0:0:0:0:
64,192,116583,128,0,118453:0:0:0:0:
192,192,116661,1,0,0:0:0:0:
448,192,116739,1,0,0:0:0:0:
192,192,116817,1,0,0:0:0:0:
448,192,116895,1,0,0:0:0:0:
320,192,116973,1,0,0:0:0:0:
192,192,117051,1,0,0:0:0:0:
448,192,117129,1,0,0:0:0:0:
320,192,117206,128,0,117518:0:0:0:0:
192,192,117206,1,0,0:0:0:0:
448,192,117284,1,0,0:0:0:0:
192,192,117362,1,0,0:0:0:0:
448,192,117440,1,0,0:0:0:0:
192,192,117518,1,0,0:0:0:0:
320,192,117596,1,0,0:0:0:0:
448,192,117674,1,0,0:0:0:0:
192,192,117752,1,0,0:0:0:0:
320,192,117830,128,0,118453:0:0:0:0:
448,192,117830,1,0,0:0:0:0:
192,192,117908,1,0,0:0:0:0:
448,192,117986,1,0,0:0:0:0:
192,192,118064,1,0,0:0:0:0:
448,192,118141,1,0,0:0:0:0:
192,192,118219,1,0,0:0:0:0:
448,192,118297,1,0,0:0:0:0:
192,192,118375,1,0,0:0:0:0:
448,192,118453,128,0,119030:0:0:0:0:
64,192,119030,1,0,0:0:0:0:
320,192,119030,1,0,0:0:0:0:
192,192,119030,1,0,0:0:0:0:
448,192,119118,1,0,0:0:0:0:
64,192,119206,1,0,0:0:0:0:
192,192,119206,1,0,0:0:0:0:
320,192,119294,1,0,0:0:0:0:
192,192,119382,1,0,0:0:0:0:
448,192,119382,1,0,0:0:0:0:
64,192,119382,1,0,0:0:0:0:
320,192,119471,1,0,0:0:0:0:
192,192,119559,1,0,0:0:0:0:
448,192,119559,1,0,0:0:0:0:
64,192,119647,1,0,0:0:0:0:
320,192,119735,1,0,0:0:0:0:
448,192,119735,1,0,0:0:0:0:
192,192,119735,1,0,0:0:0:0:
64,192,119824,1,0,0:0:0:0:
320,192,119912,1,0,0:0:0:0:
448,192,119912,1,0,0:0:0:0:
192,192,120000,1,0,0:0:0:0:
64,192,120088,1,0,0:0:0:0:
320,192,120088,1,0,0:0:0:0:
448,192,120088,1,0,0:0:0:0:
192,192,120177,1,0,0:0:0:0:
64,192,120265,1,0,0:0:0:0:
320,192,120265,1,0,0:0:0:0:
448,192,120353,1,0,0:0:0:0:
64,192,120441,1,0,0:0:0:0:
192,192,120441,1,0,0:0:0:0:
320,192,120441,1,0,0:0:0:0:
448,192,120530,1,0,0:0:0:0:
64,192,120618,1,0,0:0:0:0:
192,192,120618,1,0,0:0:0:0:
320,192,120706,1,0,0:0:0:0:
64,192,120794,1,0,0:0:0:0:
448,192,120794,1,0,0:0:0:0:
192,192,120794,1,0,0:0:0:0:
320,192,120882,1,0,0:0:0:0:
448,192,120971,1,0,0:0:0:0:
192,192,120971,1,0,0:0:0:0:
64,192,121059,1,0,0:0:0:0:
448,192,121147,1,0,0:0:0:0:
320,192,121147,1,0,0:0:0:0:
192,192,121147,1,0,0:0:0:0:
64,192,121235,1,0,0:0:0:0:
320,192,121324,1,0,0:0:0:0:
448,192,121324,1,0,0:0:0:0:
192,192,121412,1,0,0:0:0:0:
64,192,121500,1,0,0:0:0:0:
320,192,121500,1,0,0:0:0:0:
448,192,121500,1,0,0:0:0:0:
192,192,121588,1,0,0:0:0:0:
64,192,121677,1,0,0:0:0:0:
448,192,121677,1,0,0:0:0:0:
320,192,121765,1,0,0:0:0:0:
192,192,121853,1,0,0:0:0:0:
448,192,121853,1,0,0:0:0:0:
64,192,121853,1,0,0:0:0:0:
320,192,121941,1,0,0:0:0:0:
192,192,122030,1,0,0:0:0:0:
64,192,122030,1,0,0:0:0:0:
448,192,122118,1,0,0:0:0:0:
320,192,122206,1,0,0:0:0:0:
192,192,122206,1,0,0:0:0:0:
64,192,122206,1,0,0:0:0:0:
448,192,122294,1,0,0:0:0:0:
64,192,122382,1,0,0:0:0:0:
320,192,122382,1,0,0:0:0:0:
192,192,122471,1,0,0:0:0:0:
448,192,122559,1,0,0:0:0:0:
64,192,122559,1,0,0:0:0:0:
320,192,122559,1,0,0:0:0:0:
192,192,122647,1,0,0:0:0:0:
320,192,122735,1,0,0:0:0:0:
448,192,122735,1,0,0:0:0:0:
64,192,122824,1,0,0:0:0:0:
192,192,122912,1,0,0:0:0:0:
448,192,122912,1,0,0:0:0:0:
320,192,122912,1,0,0:0:0:0:
64,192,123000,1,0,0:0:0:0:
448,192,123088,1,0,0:0:0:0:
192,192,123088,1,0,0:0:0:0:
320,192,123177,1,0,0:0:0:0:
448,192,123265,1,0,0:0:0:0:
192,192,123265,1,0,0:0:0:0:
64,192,123265,1,0,0:0:0:0:
320,192,123353,1,0,0:0:0:0:
64,192,123441,1,0,0:0:0:0:
448,192,123441,1,0,0:0:0:0:
192,192,123530,1,0,0:0:0:0:
64,192,123618,1,0,0:0:0:0:
320,192,123618,1,0,0:0:0:0:
448,192,123618,1,0,0:0:0:0:
192,192,123706,1,0,0:0:0:0:
64,192,123794,1,0,0:0:0:0:
320,192,123794,1,0,0:0:0:0:
448,192,123882,1,0,0:0:0:0:
320,192,123971,1,0,0:0:0:0:
192,192,123971,1,0,0:0:0:0:
64,192,123971,1,0,0:0:0:0:
448,192,124059,1,0,0:0:0:0:
192,192,124147,1,0,0:0:0:0:
64,192,124147,1,0,0:0:0:0:
320,192,124235,1,0,0:0:0:0:
448,192,124324,1,0,0:0:0:0:
64,192,124324,1,0,0:0:0:0:
320,192,124412,1,0,0:0:0:0:
192,192,124412,1,0,0:0:0:0:
64,192,124500,1,0,0:0:0:0:
448,192,124500,1,0,0:0:0:0:
192,192,124588,1,0,0:0:0:0:
320,192,124588,1,0,0:0:0:0:
448,192,124677,128,0,125735:0:0:0:0:
64,192,124677,1,0,0:0:0:0:
192,192,124765,1,0,0:0:0:0:
320,192,124853,1,0,0:0:0:0:
192,192,124941,1,0,0:0:0:0:
64,192,125030,1,0,0:0:0:0:
320,192,125030,1,0,0:0:0:0:
192,192,125118,1,0,0:0:0:0:
64,192,125206,1,0,0:0:0:0:
320,192,125294,1,0,0:0:0:0:
192,192,125382,1,0,0:0:0:0:
64,192,125382,1,0,0:0:0:0:
320,192,125471,1,0,0:0:0:0:
192,192,125559,1,0,0:0:0:0:
64,192,125647,1,0,0:0:0:0:
320,192,125735,1,0,0:0:0:0:
192,192,125735,1,0,0:0:0:0:
64,192,125824,1,0,0:0:0:0:
448,192,125824,1,0,0:0:0:0:
192,192,125912,1,0,0:0:0:0:
320,192,125912,1,0,0:0:0:0:
448,192,126000,1,0,0:0:0:0:
64,192,126088,128,0,126618:0:0:0:0:
320,192,126088,1,0,0:0:0:0:
192,192,126177,1,0,0:0:0:0:
448,192,126265,1,0,0:0:0:0:
192,192,126353,1,0,0:0:0:0:
320,192,126441,1,0,0:0:0:0:
448,192,126441,1,0,0:0:0:0:
192,192,126530,1,0,0:0:0:0:
320,192,126618,128,0,127324:0:0:0:0:
448,192,126618,1,0,0:0:0:0:
64,192,126706,1,0,0:0:0:0:
192,192,126794,1,0,0:0:0:0:
448,192,126882,1,0,0:0:0:0:
192,192,126971,1,0,0:0:0:0:
64,192,126971,1,0,0:0:0:0:
448,192,127059,1,0,0:0:0:0:
192,192,127147,1,0,0:0:0:0:
64,192,127147,1,0,0:0:0:0:
448,192,127235,1,0,0:0:0:0:
64,192,127324,1,0,0:0:0:0:
192,192,127324,1,0,0:0:0:0:
320,192,127412,1,0,0:0:0:0:
448,192,127412,1,0,0:0:0:0:
192,192,127500,128,0,128559:0:0:0:0:
64,192,127500,1,0,0:0:0:0:
448,192,127588,1,0,0:0:0:0:
320,192,127677,1,0,0:0:0:0:
64,192,127765,1,0,0:0:0:0:
320,192,127853,1,0,0:0:0:0:
448,192,127853,1,0,0:0:0:0:
64,192,127941,1,0,0:0:0:0:
320,192,128030,1,0,0:0:0:0:
448,192,128118,1,0,0:0:0:0:
320,192,128206,1,0,0:0:0:0:
64,192,128206,1,0,0:0:0:0:
448,192,128294,1,0,0:0:0:0:
64,192,128382,1,0,0:0:0:0:
448,192,128471,1,0,0:0:0:0:
320,192,128559,1,0,0:0:0:0:
64,192,128559,1,0,0:0:0:0:
192,192,128647,1,0,0:0:0:0:
448,192,128735,128,0,129618:0:0:0:0:
64,192,128735,128,0,129618:0:0:0:0:
320,192,128735,1,0,0:0:0:0:
192,192,129088,1,0,0:0:0:0:
320,192,129088,1,0,0:0:0:0:
192,192,129265,1,0,0:0:0:0:
320,192,129265,1,0,0:0:0:0:
192,192,129441,1,0,0:0:0:0:
320,192,129441,1,0,0:0:0:0:
192,192,129618,1,0,0:0:0:0:
320,192,129618,1,0,0:0:0:0:
448,192,129706,1,0,0:0:0:0:
64,192,129794,1,0,0:0:0:0:
192,192,129794,1,0,0:0:0:0:
320,192,129882,1,0,0:0:0:0:
64,192,129971,1,0,0:0:0:0:
448,192,129971,1,0,0:0:0:0:
192,192,130059,1,0,0:0:0:0:
320,192,130147,1,0,0:0:0:0:
448,192,130147,1,0,0:0:0:0:
64,192,130235,1,0,0:0:0:0:
192,192,130350,128,0,130702:0:0:0:0:
320,192,130350,1,0,0:0:0:0:
448,192,130350,128,0,130438:0:0:0:0:
64,192,130438,128,0,130526:0:0:0:0:
320,192,130526,128,0,130614:0:0:0:0:
448,192,130614,128,0,130702:0:0:0:0:
320,192,130702,128,0,130879:0:0:0:0:
64,192,130702,128,0,130791:0:0:0:0:
448,192,130791,128,0,130879:0:0:0:0:
64,192,130879,128,0,130967:0:0:0:0:
192,192,130879,128,0,130967:0:0:0:0:
448,192,130967,128,0,131232:0:0:0:0:
320,192,130967,128,0,131055:0:0:0:0:
192,192,131055,128,0,131144:0:0:0:0:
64,192,131144,128,0,131232:0:0:0:0:
192,192,131232,128,0,131408:0:0:0:0:
320,192,131232,128,0,131320:0:0:0:0:
448,192,131320,128,0,131408:0:0:0:0:
320,192,131408,128,0,131585:0:0:0:0:
64,192,131408,128,0,131497:0:0:0:0:
192,192,131497,128,0,131585:0:0:0:0:
448,192,131585,128,0,131761:0:0:0:0:
64,192,131585,128,0,131673:0:0:0:0:
320,192,131673,128,0,131761:0:0:0:0:
64,192,131761,128,0,132202:0:0:0:0:
192,192,131761,1,0,0:0:0:0:
320,192,132026,128,0,132467:0:0:0:0:
192,192,132026,1,0,0:0:0:0:
192,192,132291,128,0,132644:0:0:0:0:
448,192,132291,1,0,0:0:0:0:
448,192,132467,128,0,132820:0:0:0:0:
64,192,132467,1,0,0:0:0:0:
192,192,132732,1,0,0:0:0:0:
64,192,132820,1,0,0:0:0:0:
320,192,132820,128,0,132908:0:0:0:0:
448,192,132997,1,0,0:0:0:0:
192,192,133173,128,0,133438:0:0:0:0:
320,192,133173,128,0,133261:0:0:0:0:
64,192,133261,128,0,133350:0:0:0:0:
448,192,133350,128,0,133438:0:0:0:0:
320,192,133438,128,0,133526:0:0:0:0:
192,192,133526,128,0,133791:0:0:0:0:
64,192,133526,128,0,133614:0:0:0:0:
448,192,133614,128,0,133702:0:0:0:0:
64,192,133702,128,0,133791:0:0:0:0:
448,192,133791,128,0,133879:0:0:0:0:
320,192,133791,128,0,133879:0:0:0:0:
192,192,133879,128,0,133967:0:0:0:0:
64,192,133879,128,0,133967:0:0:0:0:
448,192,133967,128,0,134055:0:0:0:0:
320,192,134055,128,0,134408:0:0:0:0:
64,192,134055,128,0,134144:0:0:0:0:
192,192,134144,128,0,134232:0:0:0:0:
64,192,134232,128,0,134585:0:0:0:0:
448,192,134232,1,0,0:0:0:0:
448,192,134408,128,0,134761:0:0:0:0:
192,192,134408,1,0,0:0:0:0:
192,192,134585,128,0,135114:0:0:0:0:
320,192,134585,128,0,134673:0:0:0:0:
64,192,134673,128,0,134761:0:0:0:0:
320,192,134761,128,0,134850:0:0:0:0:
64,192,134850,128,0,134938:0:0:0:0:
320,192,134938,128,0,135291:0:0:0:0:
448,192,134938,128,0,135026:0:0:0:0:
448,192,135114,128,0,135291:0:0:0:0:
64,192,135114,1,0,0:0:0:0:
64,192,135291,128,0,135644:0:0:0:0:
192,192,135291,128,0,135467:0:0:0:0:
448,192,135467,128,0,135644:0:0:0:0:
320,192,135467,1,0,0:0:0:0:
320,192,135644,128,0,135820:0:0:0:0:
192,192,135644,1,0,0:0:0:0:
192,192,135820,128,0,135908:0:0:0:0:
64,192,135820,128,0,135908:0:0:0:0:
320,192,135908,128,0,135997:0:0:0:0:
448,192,135908,128,0,136085:0:0:0:0:
64,192,135997,128,0,136261:0:0:0:0:
192,192,135997,128,0,136085:0:0:0:0:
320,192,136085,128,0,136173:0:0:0:0:
448,192,136173,128,0,136261:0:0:0:0:
192,192,136173,128,0,136350:0:0:0:0:
320,192,136261,128,0,136438:0:0:0:0:
64,192,136350,128,0,136614:0:0:0:0:
448,192,136350,128,0,136438:0:0:0:0:
192,192,136438,128,0,136526:0:0:0:0:
320,192,136526,128,0,136614:0:0:0:0:
448,192,136526,128,0,136702:0:0:0:0:
192,192,136614,128,0,136791:0:0:0:0:
64,192,136702,128,0,136791:0:0:0:0:
320,192,136702,128,0,136879:0:0:0:0:
448,192,136791,128,0,136967:0:0:0:0:
192,192,136879,128,0,136967:0:0:0:0:
64,192,136879,128,0,136967:0:0:0:0:
320,192,136967,128,0,137055:0:0:0:0:
64,192,137055,128,0,137320:0:0:0:0:
448,192,137055,128,0,137320:0:0:0:0:
192,192,137055,128,0,137144:0:0:0:0:
320,192,137144,128,0,137232:0:0:0:0:
192,192,137232,128,0,137320:0:0:0:0:
320,192,137320,128,0,137408:0:0:0:0:
64,192,137408,1,0,0:0:0:0:
192,192,137408,1,0,0:0:0:0:
448,192,137408,1,0,0:0:0:0:
320,192,137761,128,0,137850:0:0:0:0:
64,192,137761,1,0,0:0:0:0:
192,192,137850,128,0,137938:0:0:0:0:
448,192,137850,1,0,0:0:0:0:
64,192,137938,128,0,138026:0:0:0:0:
320,192,137938,1,0,0:0:0:0:
192,192,138026,128,0,138114:0:0:0:0:
448,192,138026,1,0,0:0:0:0:
320,192,138114,128,0,138202:0:0:0:0:
64,192,138114,1,0,0:0:0:0:
448,192,138202,128,0,138291:0:0:0:0:
192,192,138202,1,0,0:0:0:0:
320,192,138291,128,0,138379:0:0:0:0:
64,192,138291,1,0,0:0:0:0:
192,192,138379,128,0,138467:0:0:0:0:
448,192,138379,1,0,0:0:0:0:
64,192,138467,128,0,138555:0:0:0:0:
320,192,138467,128,0,138644:0:0:0:0:
192,192,138555,128,0,138732:0:0:0:0:
64,192,138644,128,0,138820:0:0:0:0:
448,192,138644,1,0,0:0:0:0:
320,192,138732,1,0,0:0:0:0:
448,192,138820,128,0,139129:0:0:0:0:
192,192,138820,128,0,138908:0:0:0:0:
320,192,138997,128,0,139305:0:0:0:0:
192,192,138997,128,0,139085:0:0:0:0:
64,192,139173,128,0,139482:0:0:0:0:
448,192,139173,128,0,139261:0:0:0:0:
192,192,139350,128,0,139658:0:0:0:0:
320,192,139350,128,0,139438:0:0:0:0:
448,192,139526,128,0,139835:0:0:0:0:
320,192,139526,128,0,139614:0:0:0:0:
192,192,139702,128,0,140011:0:0:0:0:
64,192,139702,128,0,139791:0:0:0:0:
448,192,139879,128,0,140188:0:0:0:0:
64,192,139879,128,0,139967:0:0:0:0:
192,192,140055,128,0,140232:0:0:0:0:
320,192,140055,128,0,140144:0:0:0:0:
64,192,140232,128,0,140320:0:0:0:0:
320,192,140232,128,0,140320:0:0:0:0:
448,192,140320,128,0,140408:0:0:0:0:
64,192,140408,128,0,140497:0:0:0:0:
192,192,140408,128,0,140497:0:0:0:0:
320,192,140497,128,0,140585:0:0:0:0:
448,192,140585,128,0,140673:0:0:0:0:
192,192,140585,128,0,140673:0:0:0:0:
64,192,140673,128,0,140761:0:0:0:0:
320,192,140761,128,0,140850:0:0:0:0:
448,192,140761,128,0,140850:0:0:0:0:
192,192,140850,128,0,140938:0:0:0:0:
448,192,140938,128,0,141026:0:0:0:0:
64,192,140938,128,0,140982:0:0:0:0:
320,192,141026,128,0,141114:0:0:0:0:
192,192,141026,128,0,141070:0:0:0:0:
64,192,141114,128,0,141202:0:0:0:0:
448,192,141114,128,0,141158:0:0:0:0:
192,192,141202,128,0,141291:0:0:0:0:
320,192,141202,128,0,141247:0:0:0:0:
448,192,141291,128,0,141379:0:0:0:0:
64,192,141291,128,0,141335:0:0:0:0:
192,192,141379,128,0,141423:0:0:0:0:
320,192,141379,128,0,141467:0:0:0:0:
448,192,141467,128,0,141511:0:0:0:0:
64,192,141467,128,0,141555:0:0:0:0:
192,192,141555,1,0,0:0:0:0:
64,192,141600,1,0,0:0:0:0:
448,192,141600,1,0,0:0:0:0:
320,192,141600,1,0,0:0:0:0:
192,192,141766,1,0,0:0:0:0:
320,192,141933,1,0,0:0:0:0:
448,192,142100,1,0,0:0:0:0:
192,192,142266,1,0,0:0:0:0:
320,192,142433,1,0,0:0:0:0:
64,192,142600,1,0,0:0:0:0:
192,192,142766,1,0,0:0:0:0:
320,192,142933,1,0,0:0:0:0:
448,192,143100,1,0,0:0:0:0:
320,192,143266,1,0,0:0:0:0:
192,192,143433,1,0,0:0:0:0:
448,192,143600,1,0,0:0:0:0:
64,192,143766,1,0,0:0:0:0:
320,192,143933,1,0,0:0:0:0:
192,192,144100,1,0,0:0:0:0:
320,192,144266,1,0,0:0:0:0:
64,192,144433,1,0,0:0:0:0:
192,192,144600,1,0,0:0:0:0:
448,192,144766,1,0,0:0:0:0:
320,192,144933,1,0,0:0:0:0:
192,192,145100,1,0,0:0:0:0:
64,192,145266,1,0,0:0:0:0:
320,192,145433,1,0,0:0:0:0:
192,192,145600,1,0,0:0:0:0:
448,192,145766,1,0,0:0:0:0:
192,192,145933,1,0,0:0:0:0:
64,192,146100,1,0,0:0:0:0:
448,192,146266,1,0,0:0:0:0:
320,192,146433,1,0,0:0:0:0:
192,192,146600,1,0,0:0:0:0:
64,192,146766,1,0,0:0:0:0:
320,192,146933,1,0,0:0:0:0:
192,192,147100,1,0,0:0:0:0:
320,192,147266,1,0,0:0:0:0:
448,192,147433,1,0,0:0:0:0:
192,192,147600,1,0,0:0:0:0:
320,192,147766,1,0,0:0:0:0:
64,192,147933,1,0,0:0:0:0:
192,192,148100,1,0,0:0:0:0:
320,192,148266,1,0,0:0:0:0:
448,192,148433,1,0,0:0:0:0:
192,192,148600,1,0,0:0:0:0:
320,192,148766,1,0,0:0:0:0:
192,192,148933,1,0,0:0:0:0:
64,192,149100,1,0,0:0:0:0:
448,192,149266,1,0,0:0:0:0:
64,192,149433,1,0,0:0:0:0:
448,192,149600,1,0,0:0:0:0:
192,192,149600,1,0,0:0:0:0:
448,192,149711,1,0,0:0:0:0:
448,192,149822,1,0,0:0:0:0:
320,192,149933,1,0,0:0:0:0:
64,192,149933,1,0,0:0:0:0:
64,192,150044,1,0,0:0:0:0:
64,192,150155,1,0,0:0:0:0:
448,192,150266,1,0,0:0:0:0:
320,192,150266,1,0,0:0:0:0:
320,192,150377,1,0,0:0:0:0:
320,192,150488,1,0,0:0:0:0:
64,192,150600,1,0,0:0:0:0:
192,192,150600,1,0,0:0:0:0:
192,192,150711,1,0,0:0:0:0:
192,192,150822,1,0,0:0:0:0:
448,192,150933,1,0,0:0:0:0:
64,192,150933,1,0,0:0:0:0:
320,192,151044,1,0,0:0:0:0:
320,192,151155,1,0,0:0:0:0:
64,192,151266,1,0,0:0:0:0:
448,192,151266,1,0,0:0:0:0:
192,192,151377,1,0,0:0:0:0:
192,192,151488,1,0,0:0:0:0:
448,192,151600,1,0,0:0:0:0:
320,192,151600,1,0,0:0:0:0:
64,192,151600,1,0,0:0:0:0:
448,192,151680,1,0,0:0:0:0:
320,192,151680,1,0,0:0:0:0:
64,192,151680,1,0,0:0:0:0:
320,192,151775,1,0,0:0:0:0:
448,192,151775,1,0,0:0:0:0:
64,192,151775,1,0,0:0:0:0:
64,192,151870,1,0,0:0:0:0:
320,192,151870,1,0,0:0:0:0:
448,192,151870,1,0,0:0:0:0:
448,192,151965,1,0,0:0:0:0:
320,192,151965,1,0,0:0:0:0:
64,192,151965,1,0,0:0:0:0:
448,192,152060,1,0,0:0:0:0:
320,192,152060,1,0,0:0:0:0:
64,192,152060,1,0,0:0:0:0:
448,192,152156,1,0,0:0:0:0:
320,192,152156,1,0,0:0:0:0:
64,192,152156,1,0,0:0:0:0:
192,192,152270,1,0,0:0:0:0:
192,192,152365,1,0,0:0:0:0:
192,192,152460,1,0,0:0:0:0:
192,192,152555,1,0,0:0:0:0:
192,192,152650,1,0,0:0:0:0:
192,192,152746,1,0,0:0:0:0:
192,192,152841,1,0,0:0:0:0:
192,192,152936,1,0,0:0:0:0:
192,192,153031,1,0,0:0:0:0:
320,192,153127,1,0,0:0:0:0:
320,192,153222,1,0,0:0:0:0:
320,192,153317,1,0,0:0:0:0:
320,192,153412,1,0,0:0:0:0:
320,192,153508,1,0,0:0:0:0:
320,192,153603,1,0,0:0:0:0:
192,192,153698,1,0,0:0:0:0:
192,192,153793,1,0,0:0:0:0:
192,192,153889,1,0,0:0:0:0:
192,192,153984,1,0,0:0:0:0:
192,192,154079,1,0,0:0:0:0:
192,192,154174,1,0,0:0:0:0:
64,192,154270,1,0,0:0:0:0:
64,192,154365,1,0,0:0:0:0:
64,192,154460,1,0,0:0:0:0:
320,192,154500,1,0,0:0:0:0:
320,192,154595,1,0,0:0:0:0:
320,192,154690,1,0,0:0:0:0:
320,192,154785,1,0,0:0:0:0:
320,192,154880,1,0,0:0:0:0:
320,192,154976,1,0,0:0:0:0:
320,192,155071,1,0,0:0:0:0:
320,192,155166,1,0,0:0:0:0:
320,192,155261,1,0,0:0:0:0:
192,192,155357,1,0,0:0:0:0:
192,192,155452,1,0,0:0:0:0:
192,192,155547,1,0,0:0:0:0:
192,192,155642,1,0,0:0:0:0:
192,192,155738,1,0,0:0:0:0:
192,192,155833,1,0,0:0:0:0:
320,192,155928,1,0,0:0:0:0:
320,192,156023,1,0,0:0:0:0:
320,192,156119,1,0,0:0:0:0:
320,192,156214,1,0,0:0:0:0:
320,192,156309,1,0,0:0:0:0:
320,192,156404,1,0,0:0:0:0:
448,192,156500,1,0,0:0:0:0:
448,192,156595,1,0,0:0:0:0:
448,192,156690,1,0,0:0:0:0:
192,192,156775,1,0,0:0:0:0:
192,192,156870,1,0,0:0:0:0:
192,192,156965,1,0,0:0:0:0:
192,192,157060,1,0,0:0:0:0:
192,192,157155,1,0,0:0:0:0:
192,192,157251,1,0,0:0:0:0:
192,192,157346,1,0,0:0:0:0:
192,192,157441,1,0,0:0:0:0:
192,192,157536,1,0,0:0:0:0:
320,192,157632,1,0,0:0:0:0:
320,192,157727,1,0,0:0:0:0:
320,192,157822,1,0,0:0:0:0:
320,192,157917,1,0,0:0:0:0:
320,192,158013,1,0,0:0:0:0:
320,192,158108,1,0,0:0:0:0:
192,192,158203,1,0,0:0:0:0:
192,192,158298,1,0,0:0:0:0:
192,192,158394,1,0,0:0:0:0:
192,192,158489,1,0,0:0:0:0:
192,192,158584,1,0,0:0:0:0:
192,192,158679,1,0,0:0:0:0:
64,192,158775,1,0,0:0:0:0:
64,192,158870,1,0,0:0:0:0:
64,192,158965,1,0,0:0:0:0:
320,192,159025,1,0,0:0:0:0:
320,192,159120,1,0,0:0:0:0:
320,192,159215,1,0,0:0:0:0:
320,192,159310,1,0,0:0:0:0:
320,192,159405,1,0,0:0:0:0:
320,192,159501,1,0,0:0:0:0:
320,192,159596,1,0,0:0:0:0:
320,192,159691,1,0,0:0:0:0:
320,192,159786,1,0,0:0:0:0:
192,192,159882,1,0,0:0:0:0:
192,192,159977,1,0,0:0:0:0:
192,192,160072,1,0,0:0:0:0:
192,192,160167,1,0,0:0:0:0:
192,192,160263,1,0,0:0:0:0:
192,192,160358,1,0,0:0:0:0:
320,192,160453,1,0,0:0:0:0:
320,192,160548,1,0,0:0:0:0:
320,192,160644,1,0,0:0:0:0:
320,192,160739,1,0,0:0:0:0:
320,192,160834,1,0,0:0:0:0:
320,192,160929,1,0,0:0:0:0:
448,192,161025,1,0,0:0:0:0:
448,192,161120,1,0,0:0:0:0:
448,192,161215,1,0,0:0:0:0:
192,192,161310,1,0,0:0:0:0:
192,192,161405,1,0,0:0:0:0:
192,192,161501,1,0,0:0:0:0:
192,192,161596,1,0,0:0:0:0:
192,192,161691,1,0,0:0:0:0:
192,192,161786,1,0,0:0:0:0:
192,192,161882,1,0,0:0:0:0:
192,192,161977,1,0,0:0:0:0:
192,192,162072,1,0,0:0:0:0:
320,192,162167,1,0,0:0:0:0:
320,192,162263,1,0,0:0:0:0:
320,192,162358,1,0,0:0:0:0:
320,192,162453,1,0,0:0:0:0:
320,192,162548,1,0,0:0:0:0:
320,192,162644,1,0,0:0:0:0:
192,192,162739,1,0,0:0:0:0:
192,192,162834,1,0,0:0:0:0:
192,192,162929,1,0,0:0:0:0:
192,192,163025,1,0,0:0:0:0:
192,192,163120,1,0,0:0:0:0:
192,192,163215,1,0,0:0:0:0:
448,192,163310,1,0,0:0:0:0:
448,192,163405,1,0,0:0:0:0:
448,192,163501,1,0,0:0:0:0:
64,192,163596,1,0,0:0:0:0:
64,192,163691,1,0,0:0:0:0:
64,192,163786,1,0,0:0:0:0:
64,192,163882,1,0,0:0:0:0:
64,192,163977,1,0,0:0:0:0:
64,192,164072,1,0,0:0:0:0:
64,192,164167,1,0,0:0:0:0:
64,192,164263,1,0,0:0:0:0:
64,192,164358,1,0,0:0:0:0:
320,192,164453,1,0,0:0:0:0:
320,192,164548,1,0,0:0:0:0:
320,192,164644,1,0,0:0:0:0:
320,192,164739,1,0,0:0:0:0:
320,192,164834,1,0,0:0:0:0:
320,192,164929,1,0,0:0:0:0:
192,192,165025,1,0,0:0:0:0:
192,192,165120,1,0,0:0:0:0:
192,192,165215,1,0,0:0:0:0:
192,192,165310,1,0,0:0:0:0:
448,192,165310,1,0,0:0:0:0:
192,192,165405,1,0,0:0:0:0:
320,192,165405,1,0,0:0:0:0:
192,192,165501,1,0,0:0:0:0:
448,192,165501,1,0,0:0:0:0:
64,192,165596,1,0,0:0:0:0:
320,192,165596,1,0,0:0:0:0:
64,192,165691,1,0,0:0:0:0:
448,192,165691,1,0,0:0:0:0:
64,192,165786,1,0,0:0:0:0:
320,192,165786,1,0,0:0:0:0:
192,192,165882,1,0,0:0:0:0:
448,192,165882,1,0,0:0:0:0:
64,192,165977,1,0,0:0:0:0:
192,192,166072,1,0,0:0:0:0:
320,192,166167,1,0,0:0:0:0:
448,192,166167,1,0,0:0:0:0:
64,192,166263,1,0,0:0:0:0:
64,192,166358,1,0,0:0:0:0:
192,192,166453,1,0,0:0:0:0:
448,192,166453,1,0,0:0:0:0:
64,192,166548,1,0,0:0:0:0:
192,192,166644,1,0,0:0:0:0:
448,192,166739,1,0,0:0:0:0:
64,192,166739,1,0,0:0:0:0:
320,192,166834,1,0,0:0:0:0:
320,192,166929,1,0,0:0:0:0:
192,192,167025,1,0,0:0:0:0:
448,192,167025,1,0,0:0:0:0:
64,192,167120,1,0,0:0:0:0:
320,192,167215,1,0,0:0:0:0:
64,192,167310,1,0,0:0:0:0:
448,192,167310,1,0,0:0:0:0:
192,192,167405,1,0,0:0:0:0:
192,192,167501,1,0,0:0:0:0:
64,192,167596,1,0,0:0:0:0:
320,192,167596,1,0,0:0:0:0:
448,192,167596,1,0,0:0:0:0:
192,192,167691,1,0,0:0:0:0:
320,192,167786,1,0,0:0:0:0:
64,192,167882,1,0,0:0:0:0:
192,192,167882,1,0,0:0:0:0:
448,192,167977,1,0,0:0:0:0:
448,192,168072,1,0,0:0:0:0:
64,192,168167,1,0,0:0:0:0:
320,192,168167,1,0,0:0:0:0:
192,192,168453,1,0,0:0:0:0:
192,192,168596,1,0,0:0:0:0:
192,192,168667,1,0,0:0:0:0:
192,192,168739,1,0,0:0:0:0:
192,192,168882,1,0,0:0:0:0:
192,192,169167,1,0,0:0:0:0:
448,192,169310,1,0,0:0:0:0:
320,192,169310,1,0,0:0:0:0:
192,192,169417,1,0,0:0:0:0:
448,192,169524,1,0,0:0:0:0:
64,192,169524,1,0,0:0:0:0:
192,192,169631,1,0,0:0:0:0:
320,192,169631,1,0,0:0:0:0:
64,192,170167,1,0,0:0:0:0:
448,192,170167,1,0,0:0:0:0:
448,192,170615,128,0,170668:0:0:0:0:
320,192,170615,128,0,170668:0:0:0:0:
192,192,170615,128,0,170668:0:0:0:0:
64,192,170615,128,0,170668:0:0:0:0:
448,192,170722,128,0,170793:0:0:0:0:
320,192,170722,1,0,0:0:0:0:
192,192,170722,1,0,0:0:0:0:
64,192,170722,1,0,0:0:0:0:
448,192,170829,128,0,170900:0:0:0:0:
64,192,170829,1,0,0:0:0:0:
192,192,170829,1,0,0:0:0:0:
320,192,170829,1,0,0:0:0:0:
448,192,170936,128,0,171007:0:0:0:0:
320,192,170936,1,0,0:0:0:0:
192,192,170936,1,0,0:0:0:0:
64,192,170936,1,0,0:0:0:0:
448,192,171043,128,0,171115:0:0:0:0:
320,192,171043,128,0,171115:0:0:0:0:
192,192,171043,128,0,171115:0:0:0:0:
64,192,171043,128,0,171115:0:0:0:0:
64,192,171150,128,0,171222:0:0:0:0:
192,192,171150,1,0,0:0:0:0:
320,192,171150,1,0,0:0:0:0:
448,192,171150,1,0,0:0:0:0:
64,192,171257,128,0,171329:0:0:0:0:
448,192,171257,1,0,0:0:0:0:
320,192,171257,1,0,0:0:0:0:
192,192,171257,1,0,0:0:0:0:
64,192,171365,128,0,171436:0:0:0:0:
192,192,171365,1,0,0:0:0:0:
320,192,171365,1,0,0:0:0:0:
448,192,171365,1,0,0:0:0:0:
64,192,171472,128,0,171543:0:0:0:0:
192,192,171472,128,0,171543:0:0:0:0:
320,192,171472,128,0,171543:0:0:0:0:
448,192,171472,128,0,171543:0:0:0:0:
448,192,171579,1,0,0:0:0:0:
320,192,171579,1,0,0:0:0:0:
192,192,171579,1,0,0:0:0:0:
64,192,171579,1,0,0:0:0:0:
64,192,171686,1,0,0:0:0:0:
192,192,171686,1,0,0:0:0:0:
320,192,171686,1,0,0:0:0:0:
448,192,171686,1,0,0:0:0:0:
448,192,171793,1,0,0:0:0:0:
320,192,171793,1,0,0:0:0:0:
192,192,171793,1,0,0:0:0:0:
64,192,171793,1,0,0:0:0:0:
192,192,171900,1,0,0:0:0:0:
64,192,171900,1,0,0:0:0:0:
320,192,171900,1,0,0:0:0:0:
448,192,171900,1,0,0:0:0:0:
448,192,172007,128,0,172079:0:0:0:0:
320,192,172007,128,0,172079:0:0:0:0:
192,192,172007,128,0,172079:0:0:0:0:
64,192,172007,128,0,172079:0:0:0:0:
64,192,172115,128,0,172186:0:0:0:0:
192,192,172115,1,0,0:0:0:0:
320,192,172115,1,0,0:0:0:0:
448,192,172115,1,0,0:0:0:0:
64,192,172222,128,0,172293:0:0:0:0:
192,192,172222,1,0,0:0:0:0:
320,192,172222,1,0,0:0:0:0:
448,192,172222,1,0,0:0:0:0:
64,192,172329,128,0,172400:0:0:0:0:
192,192,172329,1,0,0:0:0:0:
320,192,172329,1,0,0:0:0:0:
448,192,172329,1,0,0:0:0:0:
64,192,172436,128,0,172507:0:0:0:0:
192,192,172436,128,0,172507:0:0:0:0:
320,192,172436,128,0,172507:0:0:0:0:
448,192,172436,1,0,0:0:0:0:
64,192,172543,128,0,172615:0:0:0:0:
448,192,172543,1,0,0:0:0:0:
192,192,172543,1,0,0:0:0:0:
320,192,172543,1,0,0:0:0:0:
64,192,172650,128,0,172722:0:0:0:0:
192,192,172650,1,0,0:0:0:0:
320,192,172650,1,0,0:0:0:0:
448,192,172650,1,0,0:0:0:0:
64,192,172757,128,0,172829:0:0:0:0:
448,192,172757,1,0,0:0:0:0:
320,192,172757,1,0,0:0:0:0:
192,192,172757,1,0,0:0:0:0:
64,192,172865,128,0,172936:0:0:0:0:
192,192,172865,128,0,172936:0:0:0:0:
320,192,172865,128,0,172936:0:0:0:0:
448,192,172865,128,0,172936:0:0:0:0:
64,192,172972,1,0,0:0:0:0:
192,192,172972,1,0,0:0:0:0:
320,192,172972,1,0,0:0:0:0:
448,192,172972,1,0,0:0:0:0:
448,192,173079,1,0,0:0:0:0:
320,192,173079,1,0,0:0:0:0:
192,192,173079,1,0,0:0:0:0:
64,192,173079,1,0,0:0:0:0:
64,192,173186,1,0,0:0:0:0:
192,192,173186,1,0,0:0:0:0:
448,192,173186,1,0,0:0:0:0:
320,192,173186,1,0,0:0:0:0:
448,192,173293,1,0,0:0:0:0:
320,192,173293,1,0,0:0:0:0:
64,192,173293,1,0,0:0:0:0:
192,192,173293,1,0,0:0:0:0:
64,192,173400,128,0,173472:0:0:0:0:
448,192,173400,128,0,173472:0:0:0:0:
320,192,173400,128,0,173472:0:0:0:0:
192,192,173400,1,0,0:0:0:0:
64,192,173507,128,0,173579:0:0:0:0:
448,192,173507,128,0,173579:0:0:0:0:
320,192,173507,128,0,173579:0:0:0:0:
192,192,173507,1,0,0:0:0:0:
320,192,173615,128,0,173686:0:0:0:0:
448,192,173615,128,0,173686:0:0:0:0:
64,192,173615,128,0,173686:0:0:0:0:
192,192,173615,1,0,0:0:0:0:
64,192,173722,128,0,173793:0:0:0:0:
192,192,173722,128,0,173793:0:0:0:0:
448,192,173722,128,0,173793:0:0:0:0:
320,192,173722,1,0,0:0:0:0:
64,192,173829,128,0,173900:0:0:0:0:
448,192,173829,128,0,173900:0:0:0:0:
192,192,173829,128,0,173900:0:0:0:0:
320,192,173829,1,0,0:0:0:0:
192,192,173936,128,0,174007:0:0:0:0:
64,192,173936,128,0,174007:0:0:0:0:
448,192,173936,128,0,174007:0:0:0:0:
320,192,173936,1,0,0:0:0:0:
64,192,174043,1,0,0:0:0:0:
192,192,174043,1,0,0:0:0:0:
320,192,174043,1,0,0:0:0:0:
448,192,174043,1,0,0:0:0:0:
448,192,174150,1,0,0:0:0:0:
320,192,174150,1,0,0:0:0:0:
192,192,174150,1,0,0:0:0:0:
64,192,174150,1,0,0:0:0:0:
64,192,174257,1,0,0:0:0:0:
192,192,174257,1,0,0:0:0:0:
320,192,174257,1,0,0:0:0:0:
448,192,174257,1,0,0:0:0:0:
448,192,174365,1,0,0:0:0:0:
320,192,174365,1,0,0:0:0:0:
192,192,174365,1,0,0:0:0:0:
64,192,174365,1,0,0:0:0:0:
64,192,174472,1,0,0:0:0:0:
192,192,174472,1,0,0:0:0:0:
320,192,174472,1,0,0:0:0:0:
448,192,174472,1,0,0:0:0:0:
320,192,174579,128,0,174650:0:0:0:0:
192,192,174579,128,0,174650:0:0:0:0:
64,192,174579,128,0,174650:0:0:0:0:
448,192,174579,1,0,0:0:0:0:
448,192,174686,128,0,174757:0:0:0:0:
64,192,174686,128,0,174757:0:0:0:0:
320,192,174686,1,0,0:0:0:0:
192,192,174686,1,0,0:0:0:0:
64,192,174793,128,0,174865:0:0:0:0:
448,192,174793,128,0,174865:0:0:0:0:
192,192,174793,1,0,0:0:0:0:
320,192,174793,1,0,0:0:0:0:
64,192,174900,128,0,174972:0:0:0:0:
448,192,174900,128,0,174972:0:0:0:0:
192,192,174900,1,0,0:0:0:0:
320,192,174900,1,0,0:0:0:0:
64,192,175007,128,0,175079:0:0:0:0:
448,192,175007,128,0,175079:0:0:0:0:
192,192,175007,1,0,0:0:0:0:
320,192,175007,1,0,0:0:0:0:
64,192,175115,128,0,175186:0:0:0:0:
320,192,175115,128,0,175186:0:0:0:0:
192,192,175115,128,0,175186:0:0:0:0:
448,192,175115,1,0,0:0:0:0:
448,192,175222,1,0,0:0:0:0:
320,192,175222,1,0,0:0:0:0:
192,192,175222,1,0,0:0:0:0:
64,192,175222,1,0,0:0:0:0:
64,192,175329,1,0,0:0:0:0:
192,192,175329,1,0,0:0:0:0:
320,192,175329,1,0,0:0:0:0:
448,192,175329,1,0,0:0:0:0:
448,192,175436,1,0,0:0:0:0:
320,192,175436,1,0,0:0:0:0:
192,192,175436,1,0,0:0:0:0:
64,192,175436,1,0,0:0:0:0:
64,192,175543,1,0,0:0:0:0:
192,192,175543,1,0,0:0:0:0:
320,192,175543,1,0,0:0:0:0:
448,192,175543,1,0,0:0:0:0:
448,192,175650,1,0,0:0:0:0:
320,192,175650,1,0,0:0:0:0:
192,192,175650,1,0,0:0:0:0:
64,192,175650,1,0,0:0:0:0:
64,192,175731,1,0,0:0:0:0:
192,192,175757,1,0,0:0:0:0:
448,192,175757,1,0,0:0:0:0:
320,192,175784,1,0,0:0:0:0:
448,192,175838,1,0,0:0:0:0:
320,192,175865,1,0,0:0:0:0:
64,192,175865,1,0,0:0:0:0:
192,192,175891,1,0,0:0:0:0:
64,192,175945,1,0,0:0:0:0:
448,192,175972,1,0,0:0:0:0:
192,192,175972,1,0,0:0:0:0:
320,192,175998,1,0,0:0:0:0:
448,192,176052,1,0,0:0:0:0:
64,192,176079,1,0,0:0:0:0:
320,192,176079,1,0,0:0:0:0:
192,192,176106,1,0,0:0:0:0:
64,192,176159,1,0,0:0:0:0:
192,192,176186,1,0,0:0:0:0:
448,192,176186,1,0,0:0:0:0:
320,192,176213,1,0,0:0:0:0:
448,192,176266,1,0,0:0:0:0:
320,192,176293,1,0,0:0:0:0:
64,192,176293,1,0,0:0:0:0:
192,192,176320,1,0,0:0:0:0:
64,192,176373,1,0,0:0:0:0:
448,192,176400,1,0,0:0:0:0:
192,192,176400,1,0,0:0:0:0:
320,192,176427,1,0,0:0:0:0:
448,192,176481,1,0,0:0:0:0:
64,192,176507,1,0,0:0:0:0:
320,192,176507,1,0,0:0:0:0:
192,192,176534,1,0,0:0:0:0:
448,192,176588,1,0,0:0:0:0:
320,192,176615,1,0,0:0:0:0:
64,192,176615,1,0,0:0:0:0:
192,192,176641,1,0,0:0:0:0:
64,192,176722,128,0,176793:0:0:0:0:
320,192,176722,128,0,176793:0:0:0:0:
448,192,176722,128,0,176793:0:0:0:0:
192,192,176722,1,0,0:0:0:0:
64,192,176829,128,0,176900:0:0:0:0:
320,192,176829,128,0,176900:0:0:0:0:
448,192,176829,128,0,176900:0:0:0:0:
192,192,176829,1,0,0:0:0:0:
64,192,176936,128,0,177007:0:0:0:0:
320,192,176936,128,0,177007:0:0:0:0:
448,192,176936,128,0,177007:0:0:0:0:
192,192,176936,1,0,0:0:0:0:
192,192,177043,128,0,177115:0:0:0:0:
64,192,177043,128,0,177115:0:0:0:0:
448,192,177043,128,0,177115:0:0:0:0:
320,192,177043,1,0,0:0:0:0:
192,192,177150,128,0,177222:0:0:0:0:
64,192,177150,128,0,177222:0:0:0:0:
448,192,177150,128,0,177222:0:0:0:0:
320,192,177150,1,0,0:0:0:0:
64,192,177257,128,0,177329:0:0:0:0:
192,192,177257,128,0,177329:0:0:0:0:
448,192,177257,128,0,177329:0:0:0:0:
320,192,177257,1,0,0:0:0:0:
64,192,177365,1,0,0:0:0:0:
192,192,177365,1,0,0:0:0:0:
320,192,177365,1,0,0:0:0:0:
448,192,177365,1,0,0:0:0:0:
64,192,177472,1,0,0:0:0:0:
320,192,177472,1,0,0:0:0:0:
192,192,177472,1,0,0:0:0:0:
448,192,177472,1,0,0:0:0:0:
448,192,177579,1,0,0:0:0:0:
320,192,177579,1,0,0:0:0:0:
192,192,177579,1,0,0:0:0:0:
64,192,177579,1,0,0:0:0:0:
64,192,177686,1,0,0:0:0:0:
192,192,177686,1,0,0:0:0:0:
320,192,177686,1,0,0:0:0:0:
448,192,177686,1,0,0:0:0:0:
64,192,177793,128,0,177865:0:0:0:0:
192,192,177793,128,0,177865:0:0:0:0:
320,192,177793,128,0,177865:0:0:0:0:
448,192,177793,128,0,177865:0:0:0:0:
448,192,177900,128,0,177972:0:0:0:0:
64,192,177900,128,0,177972:0:0:0:0:
192,192,177900,1,0,0:0:0:0:
320,192,177900,1,0,0:0:0:0:
64,192,178007,128,0,178079:0:0:0:0:
448,192,178007,128,0,178079:0:0:0:0:
192,192,178007,1,0,0:0:0:0:
320,192,178007,1,0,0:0:0:0:
64,192,178115,128,0,178186:0:0:0:0:
448,192,178115,128,0,178186:0:0:0:0:
192,192,178115,1,0,0:0:0:0:
320,192,178115,1,0,0:0:0:0:
64,192,178222,128,0,178293:0:0:0:0:
448,192,178222,128,0,178293:0:0:0:0:
192,192,178222,1,0,0:0:0:0:
320,192,178222,1,0,0:0:0:0:
64,192,178329,128,0,178400:0:0:0:0:
448,192,178329,128,0,178400:0:0:0:0:
192,192,178329,1,0,0:0:0:0:
320,192,178329,1,0,0:0:0:0:
64,192,178436,128,0,178507:0:0:0:0:
448,192,178436,128,0,178507:0:0:0:0:
192,192,178436,1,0,0:0:0:0:
320,192,178436,1,0,0:0:0:0:
64,192,178543,1,0,0:0:0:0:
192,192,178543,1,0,0:0:0:0:
320,192,178543,1,0,0:0:0:0:
448,192,178543,1,0,0:0:0:0:
64,192,178650,1,0,0:0:0:0:
192,192,178650,1,0,0:0:0:0:
320,192,178650,1,0,0:0:0:0:
448,192,178650,1,0,0:0:0:0:
448,192,178757,1,0,0:0:0:0:
320,192,178757,1,0,0:0:0:0:
192,192,178757,1,0,0:0:0:0:
64,192,178757,1,0,0:0:0:0:
64,192,178865,128,0,178936:0:0:0:0:
192,192,178865,128,0,178936:0:0:0:0:
320,192,178865,128,0,178936:0:0:0:0:
448,192,178865,1,0,0:0:0:0:
448,192,178972,128,0,179043:0:0:0:0:
64,192,178972,128,0,179043:0:0:0:0:
192,192,178972,1,0,0:0:0:0:
320,192,178972,1,0,0:0:0:0:
64,192,179079,128,0,179150:0:0:0:0:
448,192,179079,128,0,179150:0:0:0:0:
192,192,179079,1,0,0:0:0:0:
320,192,179079,1,0,0:0:0:0:
64,192,179186,128,0,179257:0:0:0:0:
448,192,179186,128,0,179257:0:0:0:0:
192,192,179186,1,0,0:0:0:0:
320,192,179186,1,0,0:0:0:0:
448,192,179293,128,0,179365:0:0:0:0:
64,192,179293,128,0,179365:0:0:0:0:
192,192,179293,1,0,0:0:0:0:
320,192,179293,1,0,0:0:0:0:
64,192,179400,128,0,179472:0:0:0:0:
320,192,179400,128,0,179472:0:0:0:0:
192,192,179400,128,0,179472:0:0:0:0:
448,192,179400,1,0,0:0:0:0:
64,192,179507,1,0,0:0:0:0:
192,192,179507,1,0,0:0:0:0:
320,192,179507,1,0,0:0:0:0:
448,192,179507,1,0,0:0:0:0:
448,192,179615,1,0,0:0:0:0:
320,192,179615,1,0,0:0:0:0:
192,192,179615,1,0,0:0:0:0:
64,192,179615,1,0,0:0:0:0:
64,192,179722,1,0,0:0:0:0:
192,192,179722,1,0,0:0:0:0:
320,192,179722,1,0,0:0:0:0:
448,192,179722,1,0,0:0:0:0:
448,192,179829,1,0,0:0:0:0:
320,192,179829,1,0,0:0:0:0:
192,192,179829,1,0,0:0:0:0:
64,192,179829,1,0,0:0:0:0:
64,192,179936,1,0,0:0:0:0:
192,192,179936,1,0,0:0:0:0:
320,192,179936,1,0,0:0:0:0:
448,192,179936,1,0,0:0:0:0:
448,192,180043,1,0,0:0:0:0:
320,192,180043,1,0,0:0:0:0:
192,192,180043,1,0,0:0:0:0:
64,192,180043,1,0,0:0:0:0:
64,192,180150,1,0,0:0:0:0:
192,192,180150,1,0,0:0:0:0:
320,192,180150,1,0,0:0:0:0:
448,192,180150,1,0,0:0:0:0:
448,192,180257,128,0,180329:0:0:0:0:
320,192,180257,128,0,180329:0:0:0:0:
192,192,180257,128,0,180329:0:0:0:0:
64,192,180257,128,0,180329:0:0:0:0:
64,192,180365,128,0,180436:0:0:0:0:
192,192,180365,1,0,0:0:0:0:
320,192,180365,1,0,0:0:0:0:
448,192,180365,1,0,0:0:0:0:
64,192,180472,128,0,180543:0:0:0:0:
192,192,180472,1,0,0:0:0:0:
320,192,180472,1,0,0:0:0:0:
448,192,180472,1,0,0:0:0:0:
64,192,180579,128,0,180650:0:0:0:0:
192,192,180579,1,0,0:0:0:0:
320,192,180579,1,0,0:0:0:0:
448,192,180579,1,0,0:0:0:0:
64,192,180686,128,0,180757:0:0:0:0:
192,192,180686,128,0,180757:0:0:0:0:
320,192,180686,128,0,180757:0:0:0:0:
448,192,180686,1,0,0:0:0:0:
64,192,180793,128,0,180865:0:0:0:0:
192,192,180793,1,0,0:0:0:0:
320,192,180793,1,0,0:0:0:0:
448,192,180793,1,0,0:0:0:0:
64,192,180900,128,0,180972:0:0:0:0:
192,192,180900,1,0,0:0:0:0:
320,192,180900,1,0,0:0:0:0:
448,192,180900,1,0,0:0:0:0:
64,192,181007,128,0,181079:0:0:0:0:
192,192,181007,1,0,0:0:0:0:
320,192,181007,1,0,0:0:0:0:
448,192,181007,1,0,0:0:0:0:
64,192,181115,128,0,181186:0:0:0:0:
192,192,181115,128,0,181186:0:0:0:0:
320,192,181115,128,0,181186:0:0:0:0:
448,192,181115,128,0,181186:0:0:0:0:
64,192,181222,1,0,0:0:0:0:
192,192,181222,1,0,0:0:0:0:
320,192,181222,1,0,0:0:0:0:
448,192,181222,1,0,0:0:0:0:
448,192,181329,1,0,0:0:0:0:
320,192,181329,1,0,0:0:0:0:
192,192,181329,1,0,0:0:0:0:
64,192,181329,1,0,0:0:0:0:
64,192,181436,1,0,0:0:0:0:
192,192,181436,1,0,0:0:0:0:
320,192,181436,1,0,0:0:0:0:
448,192,181436,1,0,0:0:0:0:
448,192,181543,1,0,0:0:0:0:
320,192,181543,1,0,0:0:0:0:
192,192,181543,1,0,0:0:0:0:
64,192,181543,1,0,0:0:0:0:
64,192,181650,128,0,181722:0:0:0:0:
192,192,181650,128,0,181722:0:0:0:0:
320,192,181650,128,0,181722:0:0:0:0:
448,192,181650,128,0,181722:0:0:0:0:
448,192,181757,128,0,181829:0:0:0:0:
64,192,181757,1,0,0:0:0:0:
192,192,181757,1,0,0:0:0:0:
320,192,181757,1,0,0:0:0:0:
448,192,181865,128,0,181936:0:0:0:0:
320,192,181865,1,0,0:0:0:0:
192,192,181865,1,0,0:0:0:0:
64,192,181865,1,0,0:0:0:0:
448,192,181972,128,0,182043:0:0:0:0:
64,192,181972,1,0,0:0:0:0:
192,192,181972,1,0,0:0:0:0:
320,192,181972,1,0,0:0:0:0:
448,192,182079,128,0,182150:0:0:0:0:
320,192,182079,128,0,182150:0:0:0:0:
192,192,182079,128,0,182150:0:0:0:0:
64,192,182079,128,0,182150:0:0:0:0:
64,192,182186,128,0,182257:0:0:0:0:
448,192,182186,1,0,0:0:0:0:
320,192,182186,1,0,0:0:0:0:
192,192,182186,1,0,0:0:0:0:
64,192,182293,128,0,182365:0:0:0:0:
192,192,182293,1,0,0:0:0:0:
320,192,182293,1,0,0:0:0:0:
448,192,182293,1,0,0:0:0:0:
64,192,182400,128,0,182472:0:0:0:0:
448,192,182400,1,0,0:0:0:0:
320,192,182400,1,0,0:0:0:0:
192,192,182400,1,0,0:0:0:0:
64,192,182507,128,0,182579:0:0:0:0:
192,192,182507,128,0,182579:0:0:0:0:
320,192,182507,128,0,182579:0:0:0:0:
448,192,182507,128,0,182579:0:0:0:0:
64,192,182615,1,0,0:0:0:0:
192,192,182615,1,0,0:0:0:0:
320,192,182615,1,0,0:0:0:0:
448,192,182615,1,0,0:0:0:0:
448,192,182722,1,0,0:0:0:0:
320,192,182722,1,0,0:0:0:0:
192,192,182722,1,0,0:0:0:0:
64,192,182722,1,0,0:0:0:0:
64,192,182829,1,0,0:0:0:0:
192,192,182829,1,0,0:0:0:0:
320,192,182829,1,0,0:0:0:0:
448,192,182829,1,0,0:0:0:0:
448,192,182936,1,0,0:0:0:0:
320,192,182936,1,0,0:0:0:0:
192,192,182936,1,0,0:0:0:0:
64,192,182936,1,0,0:0:0:0:
64,192,183043,128,0,183115:0:0:0:0:
192,192,183043,128,0,183115:0:0:0:0:
320,192,183043,128,0,183115:0:0:0:0:
448,192,183043,128,0,183115:0:0:0:0:
448,192,183150,128,0,183222:0:0:0:0:
320,192,183150,128,0,183222:0:0:0:0:
192,192,183150,128,0,183222:0:0:0:0:
64,192,183150,128,0,183222:0:0:0:0:
64,192,183257,128,0,183329:0:0:0:0:
192,192,183257,128,0,183329:0:0:0:0:
320,192,183257,128,0,183329:0:0:0:0:
448,192,183257,128,0,183329:0:0:0:0:
64,192,183365,128,0,183436:0:0:0:0:
192,192,183365,128,0,183436:0:0:0:0:
320,192,183365,128,0,183436:0:0:0:0:
448,192,183365,128,0,183436:0:0:0:0:
64,192,183472,128,0,183543:0:0:0:0:
192,192,183472,128,0,183543:0:0:0:0:
320,192,183472,128,0,183543:0:0:0:0:
448,192,183472,128,0,183543:0:0:0:0:
448,192,183579,128,0,183650:0:0:0:0:
320,192,183579,128,0,183650:0:0:0:0:
192,192,183579,128,0,183650:0:0:0:0:
64,192,183579,128,0,183650:0:0:0:0:
64,192,183686,128,0,183757:0:0:0:0:
192,192,183686,128,0,183757:0:0:0:0:
320,192,183686,128,0,183757:0:0:0:0:
448,192,183686,128,0,183757:0:0:0:0:
448,192,183793,128,0,183865:0:0:0:0:
320,192,183793,128,0,183865:0:0:0:0:
192,192,183793,128,0,183865:0:0:0:0:
64,192,183793,128,0,183865:0:0:0:0:
64,192,183900,128,0,183972:0:0:0:0:
192,192,183900,128,0,183972:0:0:0:0:
320,192,183900,128,0,183972:0:0:0:0:
448,192,183900,128,0,183972:0:0:0:0:
448,192,184007,128,0,184079:0:0:0:0:
320,192,184007,128,0,184079:0:0:0:0:
192,192,184007,128,0,184079:0:0:0:0:
64,192,184007,128,0,184079:0:0:0:0:
64,192,184115,128,0,184186:0:0:0:0:
192,192,184115,128,0,184186:0:0:0:0:
320,192,184115,128,0,184186:0:0:0:0:
448,192,184115,128,0,184186:0:0:0:0:
64,192,184222,128,0,184293:0:0:0:0:
192,192,184222,128,0,184293:0:0:0:0:
320,192,184222,128,0,184293:0:0:0:0:
448,192,184222,128,0,184293:0:0:0:0:
448,192,184326,1,0,0:0:0:0:
192,192,184326,1,0,0:0:0:0:
64,192,184326,1,0,0:0:0:0:
320,192,184416,1,0,0:0:0:0:
192,192,184536,1,0,0:0:0:0:
64,192,184656,1,0,0:0:0:0:
320,192,184656,1,0,0:0:0:0:
448,192,184656,1,0,0:0:0:0:
192,192,184776,1,0,0:0:0:0:
448,192,184896,1,0,0:0:0:0:
64,192,185016,1,0,0:0:0:0:
320,192,185136,1,0,0:0:0:0:
192,192,185256,1,0,0:0:0:0:
448,192,185376,1,0,0:0:0:0:
64,192,185496,1,0,0:0:0:0:
320,192,185616,1,0,0:0:0:0:
192,192,185736,1,0,0:0:0:0:
448,192,185856,1,0,0:0:0:0:
64,192,185976,1,0,0:0:0:0:
320,192,186096,1,0,0:0:0:0:
64,192,186216,1,0,0:0:0:0:
192,192,186216,1,0,0:0:0:0:
448,192,186216,1,0,0:0:0:0:
320,192,186336,1,0,0:0:0:0:
192,192,186456,1,0,0:0:0:0:
64,192,186576,1,0,0:0:0:0:
320,192,186576,1,0,0:0:0:0:
448,192,186576,1,0,0:0:0:0:
192,192,186696,1,0,0:0:0:0:
448,192,186816,1,0,0:0:0:0:
64,192,186936,1,0,0:0:0:0:
320,192,187056,1,0,0:0:0:0:
192,192,187176,1,0,0:0:0:0:
448,192,187296,1,0,0:0:0:0:
64,192,187416,1,0,0:0:0:0:
320,192,187536,1,0,0:0:0:0:
192,192,187656,1,0,0:0:0:0:
320,192,187776,1,0,0:0:0:0:
64,192,187896,1,0,0:0:0:0:
192,192,188016,1,0,0:0:0:0:
320,192,188136,1,0,0:0:0:0:
64,192,188136,1,0,0:0:0:0:
448,192,188136,1,0,0:0:0:0:
192,192,188256,1,0,0:0:0:0:
320,192,188376,1,0,0:0:0:0:
192,192,188496,1,0,0:0:0:0:
448,192,188496,1,0,0:0:0:0:
64,192,188496,1,0,0:0:0:0:
320,192,188616,1,0,0:0:0:0:
64,192,188736,1,0,0:0:0:0:
192,192,188856,1,0,0:0:0:0:
448,192,188976,1,0,0:0:0:0:
192,192,189096,1,0,0:0:0:0:
320,192,189216,1,0,0:0:0:0:
64,192,189336,1,0,0:0:0:0:
448,192,189456,1,0,0:0:0:0:
320,192,189576,1,0,0:0:0:0:
192,192,189696,1,0,0:0:0:0:
64,192,189816,1,0,0:0:0:0:
320,192,189936,1,0,0:0:0:0:
64,192,190056,1,0,0:0:0:0:
192,192,190056,1,0,0:0:0:0:
448,192,190056,1,0,0:0:0:0:
320,192,190176,1,0,0:0:0:0:
192,192,190296,1,0,0:0:0:0:
64,192,190416,1,0,0:0:0:0:
320,192,190416,1,0,0:0:0:0:
448,192,190416,1,0,0:0:0:0:
192,192,190536,1,0,0:0:0:0:
320,192,190656,1,0,0:0:0:0:
448,192,190776,1,0,0:0:0:0:
192,192,190776,1,0,0:0:0:0:
64,192,190776,1,0,0:0:0:0:
320,192,190896,1,0,0:0:0:0:
192,192,191016,1,0,0:0:0:0:
64,192,191136,1,0,0:0:0:0:
320,192,191136,1,0,0:0:0:0:
448,192,191136,1,0,0:0:0:0:
192,192,191256,1,0,0:0:0:0:
320,192,191376,1,0,0:0:0:0:
448,192,191496,1,0,0:0:0:0:
192,192,191496,1,0,0:0:0:0:
64,192,191496,1,0,0:0:0:0:
192,192,191616,1,0,0:0:0:0:
64,192,191736,1,0,0:0:0:0:
448,192,191736,1,0,0:0:0:0:
320,192,191736,1,0,0:0:0:0:
192,192,191916,1,0,0:0:0:0:
320,192,191976,1,0,0:0:0:0:
192,192,192396,1,0,0:0:0:0:
320,192,192456,1,0,0:0:0:0:
448,192,192576,1,0,0:0:0:0:
320,192,192636,1,0,0:0:0:0:
192,192,192696,1,0,0:0:0:0:
64,192,192756,1,0,0:0:0:0:
448,192,192816,1,0,0:0:0:0:
320,192,192876,1,0,0:0:0:0:
192,192,192936,1,0,0:0:0:0:
64,192,192936,1,0,0:0:0:0:
448,192,192936,1,0,0:0:0:0:
320,192,193005,1,0,0:0:0:0:
192,192,193065,1,0,0:0:0:0:
64,192,193125,1,0,0:0:0:0:
320,192,193185,1,0,0:0:0:0:
448,192,193185,1,0,0:0:0:0:
192,192,193185,1,0,0:0:0:0:
64,192,193245,1,0,0:0:0:0:
320,192,193305,1,0,0:0:0:0:
448,192,193365,1,0,0:0:0:0:
192,192,193425,1,0,0:0:0:0:
64,192,193425,1,0,0:0:0:0:
320,192,193485,1,0,0:0:0:0:
448,192,193545,1,0,0:0:0:0:
192,192,193605,1,0,0:0:0:0:
320,192,193665,1,0,0:0:0:0:
448,192,193665,1,0,0:0:0:0:
64,192,193665,1,0,0:0:0:0:
192,192,193725,1,0,0:0:0:0:
320,192,193785,1,0,0:0:0:0:
448,192,193785,1,0,0:0:0:0:
64,192,193845,1,0,0:0:0:0:
192,192,193905,1,0,0:0:0:0:
320,192,193965,1,0,0:0:0:0:
64,192,194025,1,0,0:0:0:0:
192,192,194025,1,0,0:0:0:0:
448,192,194085,1,0,0:0:0:0:
320,192,194145,1,0,0:0:0:0:
192,192,194145,1,0,0:0:0:0:
64,192,194145,1,0,0:0:0:0:
448,192,194205,1,0,0:0:0:0:
320,192,194265,1,0,0:0:0:0:
192,192,194325,1,0,0:0:0:0:
64,192,194385,1,0,0:0:0:0:
448,192,194385,1,0,0:0:0:0:
320,192,194445,1,0,0:0:0:0:
192,192,194505,1,0,0:0:0:0:
64,192,194505,1,0,0:0:0:0:
448,192,194565,1,0,0:0:0:0:
320,192,194625,1,0,0:0:0:0:
192,192,194625,1,0,0:0:0:0:
64,192,194625,1,0,0:0:0:0:
448,192,194685,1,0,0:0:0:0:
320,192,194745,1,0,0:0:0:0:
192,192,194805,1,0,0:0:0:0:
448,192,194865,1,0,0:0:0:0:
64,192,194865,1,0,0:0:0:0:
192,192,194925,1,0,0:0:0:0:
320,192,194985,1,0,0:0:0:0:
448,192,194985,1,0,0:0:0:0:
64,192,195045,1,0,0:0:0:0:
448,192,195105,1,0,0:0:0:0:
192,192,195105,1,0,0:0:0:0:
320,192,195105,1,0,0:0:0:0:
64,192,195165,1,0,0:0:0:0:
192,192,195225,1,0,0:0:0:0:
320,192,195285,1,0,0:0:0:0:
448,192,195345,1,0,0:0:0:0:
64,192,195345,1,0,0:0:0:0:
192,192,195405,1,0,0:0:0:0:
320,192,195465,1,0,0:0:0:0:
192,192,195525,1,0,0:0:0:0:
448,192,195585,1,0,0:0:0:0:
320,192,195585,1,0,0:0:0:0:
64,192,195585,1,0,0:0:0:0:
192,192,195645,1,0,0:0:0:0:
448,192,195705,1,0,0:0:0:0:
64,192,195705,1,0,0:0:0:0:
320,192,195765,1,0,0:0:0:0:
192,192,195825,1,0,0:0:0:0:
64,192,195885,1,0,0:0:0:0:
320,192,195945,1,0,0:0:0:0:
448,192,195945,1,0,0:0:0:0:
192,192,196005,1,0,0:0:0:0:
64,192,196065,1,0,0:0:0:0:
448,192,196065,1,0,0:0:0:0:
320,192,196065,1,0,0:0:0:0:
192,192,196125,1,0,0:0:0:0:
320,192,196185,1,0,0:0:0:0:
448,192,196245,1,0,0:0:0:0:
192,192,196305,1,0,0:0:0:0:
64,192,196305,1,0,0:0:0:0:
320,192,196365,1,0,0:0:0:0:
448,192,196425,1,0,0:0:0:0:
64,192,196425,1,0,0:0:0:0:
192,192,196485,1,0,0:0:0:0:
320,192,196545,1,0,0:0:0:0:
448,192,196545,1,0,0:0:0:0:
64,192,196545,1,0,0:0:0:0:
192,192,196605,1,0,0:0:0:0:
320,192,196665,1,0,0:0:0:0:
448,192,196725,1,0,0:0:0:0:
64,192,196785,1,0,0:0:0:0:
192,192,196785,1,0,0:0:0:0:
320,192,196845,1,0,0:0:0:0:
192,192,196905,1,0,0:0:0:0:
320,192,196965,1,0,0:0:0:0:
64,192,197025,1,0,0:0:0:0:
192,192,197025,1,0,0:0:0:0:
448,192,197025,1,0,0:0:0:0:
320,192,197085,1,0,0:0:0:0:
448,192,197145,1,0,0:0:0:0:
192,192,197205,1,0,0:0:0:0:
64,192,197265,1,0,0:0:0:0:
320,192,197265,1,0,0:0:0:0:
448,192,197325,1,0,0:0:0:0:
192,192,197385,1,0,0:0:0:0:
320,192,197445,1,0,0:0:0:0:
64,192,197505,1,0,0:0:0:0:
192,192,197505,1,0,0:0:0:0:
448,192,197505,1,0,0:0:0:0:
320,192,197565,1,0,0:0:0:0:
448,192,197625,1,0,0:0:0:0:
64,192,197625,1,0,0:0:0:0:
192,192,197685,1,0,0:0:0:0:
320,192,197745,1,0,0:0:0:0:
192,192,197805,1,0,0:0:0:0:
448,192,197865,1,0,0:0:0:0:
320,192,197865,1,0,0:0:0:0:
64,192,197925,1,0,0:0:0:0:
192,192,197985,1,0,0:0:0:0:
320,192,197985,1,0,0:0:0:0:
448,192,197985,1,0,0:0:0:0:
64,192,198045,1,0,0:0:0:0:
192,192,198105,1,0,0:0:0:0:
320,192,198165,1,0,0:0:0:0:
64,192,198225,1,0,0:0:0:0:
448,192,198225,1,0,0:0:0:0:
192,192,198285,1,0,0:0:0:0:
320,192,198345,1,0,0:0:0:0:
448,192,198345,1,0,0:0:0:0:
64,192,198405,1,0,0:0:0:0:
192,192,198465,1,0,0:0:0:0:
320,192,198465,1,0,0:0:0:0:
448,192,198465,1,0,0:0:0:0:
64,192,198525,1,0,0:0:0:0:
192,192,198585,1,0,0:0:0:0:
320,192,198645,1,0,0:0:0:0:
64,192,198705,1,0,0:0:0:0:
448,192,198705,1,0,0:0:0:0:
320,192,198765,1,0,0:0:0:0:
192,192,198825,1,0,0:0:0:0:
64,192,198825,1,0,0:0:0:0:
448,192,198885,1,0,0:0:0:0:
320,192,198945,1,0,0:0:0:0:
192,192,198945,1,0,0:0:0:0:
64,192,198945,1,0,0:0:0:0:
448,192,199005,1,0,0:0:0:0:
320,192,199065,1,0,0:0:0:0:
192,192,199125,1,0,0:0:0:0:
64,192,199185,1,0,0:0:0:0:
448,192,199185,1,0,0:0:0:0:
320,192,199245,1,0,0:0:0:0:
192,192,199305,1,0,0:0:0:0:
320,192,199365,1,0,0:0:0:0:
64,192,199425,1,0,0:0:0:0:
448,192,199425,1,0,0:0:0:0:
192,192,199425,1,0,0:0:0:0:
320,192,199485,1,0,0:0:0:0:
192,192,199545,1,0,0:0:0:0:
64,192,199545,1,0,0:0:0:0:
448,192,199605,1,0,0:0:0:0:
320,192,199665,1,0,0:0:0:0:
192,192,199725,1,0,0:0:0:0:
64,192,199785,1,0,0:0:0:0:
448,192,199785,1,0,0:0:0:0:
320,192,199845,1,0,0:0:0:0:
192,192,199905,1,0,0:0:0:0:
64,192,199905,1,0,0:0:0:0:
448,192,199905,1,0,0:0:0:0:
320,192,199965,1,0,0:0:0:0:
192,192,200025,1,0,0:0:0:0:
64,192,200085,1,0,0:0:0:0:
320,192,200145,1,0,0:0:0:0:
448,192,200145,1,0,0:0:0:0:
192,192,200205,1,0,0:0:0:0:
320,192,200265,1,0,0:0:0:0:
448,192,200265,1,0,0:0:0:0:
64,192,200325,1,0,0:0:0:0:
192,192,200385,1,0,0:0:0:0:
320,192,200385,1,0,0:0:0:0:
448,192,200385,1,0,0:0:0:0:
64,192,200445,1,0,0:0:0:0:
192,192,200505,1,0,0:0:0:0:
320,192,200565,1,0,0:0:0:0:
64,192,200645,128,0,200765:0:0:0:0:
448,192,200645,128,0,200765:0:0:0:0:
192,192,200645,128,0,200765:0:0:0:0:
320,192,200765,128,0,200885:0:0:0:0:
192,192,200885,128,0,201005:0:0:0:0:
448,192,200885,128,0,201005:0:0:0:0:
64,192,200885,128,0,201005:0:0:0:0:
320,192,201005,128,0,201125:0:0:0:0:
64,192,201125,128,0,201245:0:0:0:0:
448,192,201125,128,0,201245:0:0:0:0:
192,192,201245,128,0,201365:0:0:0:0:
64,192,201365,128,0,201485:0:0:0:0:
448,192,201365,128,0,201485:0:0:0:0:
320,192,201365,128,0,201485:0:0:0:0:
192,192,201485,128,0,201605:0:0:0:0:
320,192,201605,128,0,201665:0:0:0:0:
448,192,201605,128,0,201665:0:0:0:0:
320,192,201725,128,0,201785:0:0:0:0:
448,192,201725,128,0,201785:0:0:0:0:
64,192,201845,128,0,201905:0:0:0:0:
192,192,201845,128,0,201905:0:0:0:0:
448,192,201845,128,0,201905:0:0:0:0:
64,192,201965,128,0,202025:0:0:0:0:
192,192,201965,128,0,202025:0:0:0:0:
64,192,202085,128,0,202145:0:0:0:0:
320,192,202085,128,0,202145:0:0:0:0:
64,192,202205,128,0,202265:0:0:0:0:
320,192,202205,128,0,202265:0:0:0:0:
192,192,202265,1,0,0:0:0:0:
64,192,202325,128,0,202385:0:0:0:0:
448,192,202325,128,0,202385:0:0:0:0:
320,192,202325,128,0,202385:0:0:0:0:
192,192,202445,128,0,202505:0:0:0:0:
448,192,202445,128,0,202505:0:0:0:0:
64,192,202565,128,0,202685:0:0:0:0:
320,192,202565,128,0,202685:0:0:0:0:
192,192,202685,128,0,202805:0:0:0:0:
448,192,202805,128,0,202925:0:0:0:0:
320,192,202805,128,0,202925:0:0:0:0:
64,192,202805,128,0,202925:0:0:0:0:
192,192,202925,128,0,203045:0:0:0:0:
448,192,203045,128,0,203165:0:0:0:0:
64,192,203045,128,0,203165:0:0:0:0:
320,192,203165,128,0,203285:0:0:0:0:
192,192,203285,128,0,203405:0:0:0:0:
448,192,203285,128,0,203405:0:0:0:0:
64,192,203285,128,0,203405:0:0:0:0:
320,192,203405,128,0,203525:0:0:0:0:
64,192,203525,128,0,203585:0:0:0:0:
192,192,203525,128,0,203585:0:0:0:0:
64,192,203645,128,0,203705:0:0:0:0:
192,192,203645,128,0,203705:0:0:0:0:
320,192,203765,128,0,203825:0:0:0:0:
448,192,203765,128,0,203825:0:0:0:0:
64,192,203765,128,0,203825:0:0:0:0:
320,192,203885,128,0,203945:0:0:0:0:
448,192,203885,128,0,203945:0:0:0:0:
64,192,204005,128,0,204065:0:0:0:0:
448,192,204005,128,0,204065:0:0:0:0:
64,192,204125,128,0,204185:0:0:0:0:
448,192,204125,128,0,204185:0:0:0:0:
192,192,204245,128,0,204305:0:0:0:0:
320,192,204245,128,0,204305:0:0:0:0:
448,192,204245,128,0,204305:0:0:0:0:
192,192,204365,128,0,204425:0:0:0:0:
320,192,204365,128,0,204425:0:0:0:0:
64,192,204485,128,0,204605:0:0:0:0:
448,192,204485,128,0,204605:0:0:0:0:
320,192,204605,128,0,204725:0:0:0:0:
192,192,204725,128,0,204845:0:0:0:0:
64,192,204725,128,0,204845:0:0:0:0:
448,192,204725,128,0,204845:0:0:0:0:
320,192,204845,128,0,204965:0:0:0:0:
64,192,204965,128,0,205085:0:0:0:0:
448,192,204965,128,0,205085:0:0:0:0:
192,192,205085,128,0,205205:0:0:0:0:
320,192,205205,128,0,205325:0:0:0:0:
448,192,205205,128,0,205325:0:0:0:0:
64,192,205205,128,0,205325:0:0:0:0:
192,192,205325,128,0,205445:0:0:0:0:
448,192,205445,128,0,205505:0:0:0:0:
64,192,205445,128,0,205505:0:0:0:0:
448,192,205565,128,0,205625:0:0:0:0:
320,192,205565,128,0,205625:0:0:0:0:
192,192,205685,128,0,205745:0:0:0:0:
320,192,205685,128,0,205745:0:0:0:0:
448,192,205685,128,0,205745:0:0:0:0:
64,192,205805,128,0,205865:0:0:0:0:
192,192,205805,128,0,205865:0:0:0:0:
448,192,205925,128,0,205985:0:0:0:0:
64,192,205925,128,0,205985:0:0:0:0:
192,192,206045,128,0,206105:0:0:0:0:
448,192,206045,128,0,206105:0:0:0:0:
320,192,206105,1,0,0:0:0:0:
64,192,206165,128,0,206225:0:0:0:0:
448,192,206165,128,0,206225:0:0:0:0:
192,192,206165,128,0,206225:0:0:0:0:
320,192,206285,128,0,206345:0:0:0:0:
64,192,206285,128,0,206345:0:0:0:0:
192,192,206405,128,0,206485:0:0:0:0:
448,192,206405,128,0,206485:0:0:0:0:
64,192,206485,128,0,206565:0:0:0:0:
320,192,206565,128,0,206645:0:0:0:0:
192,192,206645,128,0,206725:0:0:0:0:
448,192,206645,128,0,206725:0:0:0:0:
64,192,206645,128,0,206725:0:0:0:0:
320,192,206725,128,0,206805:0:0:0:0:
448,192,206805,128,0,206885:0:0:0:0:
64,192,206885,128,0,206965:0:0:0:0:
192,192,206885,128,0,206965:0:0:0:0:
320,192,206965,128,0,207045:0:0:0:0:
448,192,207045,128,0,207125:0:0:0:0:
64,192,207125,128,0,207205:0:0:0:0:
192,192,207125,128,0,207205:0:0:0:0:
320,192,207125,128,0,207205:0:0:0:0:
448,192,207205,128,0,207285:0:0:0:0:
320,192,207285,128,0,207365:0:0:0:0:
448,192,207365,128,0,207445:0:0:0:0:
64,192,207365,128,0,207445:0:0:0:0:
192,192,207365,128,0,207445:0:0:0:0:
320,192,207445,128,0,207525:0:0:0:0:
192,192,207525,128,0,207605:0:0:0:0:
320,192,207605,128,0,207685:0:0:0:0:
64,192,207685,128,0,207765:0:0:0:0:
192,192,207685,128,0,207765:0:0:0:0:
448,192,207685,128,0,207765:0:0:0:0:
320,192,207765,128,0,207845:0:0:0:0:
192,192,207845,128,0,207925:0:0:0:0:
64,192,207925,128,0,208005:0:0:0:0:
192,192,208005,128,0,208085:0:0:0:0:
320,192,208085,128,0,208145:0:0:0:0:
448,192,208085,128,0,208145:0:0:0:0:
64,192,208145,128,0,208205:0:0:0:0:
192,192,208145,128,0,208205:0:0:0:0:
320,192,208205,128,0,208265:0:0:0:0:
448,192,208205,128,0,208265:0:0:0:0:
64,192,208265,128,0,208325:0:0:0:0:
192,192,208265,128,0,208325:0:0:0:0:
448,192,208325,1,0,0:0:0:0:
320,192,208325,1,0,0:0:0:0:
64,192,208385,1,0,0:0:0:0:
192,192,208445,1,0,0:0:0:0:
320,192,208505,1,0,0:0:0:0:
64,192,208565,1,0,0:0:0:0:
448,192,208565,1,0,0:0:0:0:
192,192,208625,1,0,0:0:0:0:
320,192,208685,1,0,0:0:0:0:
448,192,208745,1,0,0:0:0:0:
64,192,208805,1,0,0:0:0:0:
192,192,208805,1,0,0:0:0:0:
320,192,208865,1,0,0:0:0:0:
448,192,208925,1,0,0:0:0:0:
192,192,208985,1,0,0:0:0:0:
320,192,209045,1,0,0:0:0:0:
64,192,209045,1,0,0:0:0:0:
448,192,209105,1,0,0:0:0:0:
64,192,209165,1,0,0:0:0:0:
192,192,209165,1,0,0:0:0:0:
320,192,209225,1,0,0:0:0:0:
64,192,209285,1,0,0:0:0:0:
192,192,209285,1,0,0:0:0:0:
448,192,209345,1,0,0:0:0:0:
320,192,209405,1,0,0:0:0:0:
192,192,209465,1,0,0:0:0:0:
448,192,209525,1,0,0:0:0:0:
64,192,209525,1,0,0:0:0:0:
320,192,209585,1,0,0:0:0:0:
192,192,209645,1,0,0:0:0:0:
64,192,209705,1,0,0:0:0:0:
320,192,209765,1,0,0:0:0:0:
448,192,209765,1,0,0:0:0:0:
192,192,209825,1,0,0:0:0:0:
64,192,209885,1,0,0:0:0:0:
448,192,209945,1,0,0:0:0:0:
320,192,210005,1,0,0:0:0:0:
64,192,210005,1,0,0:0:0:0:
192,192,210065,1,0,0:0:0:0:
448,192,210125,1,0,0:0:0:0:
320,192,210125,1,0,0:0:0:0:
192,192,210185,1,0,0:0:0:0:
320,192,210245,1,0,0:0:0:0:
448,192,210245,1,0,0:0:0:0:
64,192,210305,1,0,0:0:0:0:
192,192,210365,1,0,0:0:0:0:
320,192,210425,1,0,0:0:0:0:
448,192,210485,1,0,0:0:0:0:
64,192,210485,1,0,0:0:0:0:
192,192,210545,1,0,0:0:0:0:
320,192,210605,1,0,0:0:0:0:
448,192,210665,1,0,0:0:0:0:
64,192,210725,1,0,0:0:0:0:
192,192,210725,1,0,0:0:0:0:
320,192,210785,1,0,0:0:0:0:
448,192,210845,1,0,0:0:0:0:
64,192,210905,1,0,0:0:0:0:
192,192,210965,1,0,0:0:0:0:
448,192,210965,1,0,0:0:0:0:
320,192,211025,1,0,0:0:0:0:
64,192,211085,1,0,0:0:0:0:
192,192,211085,1,0,0:0:0:0:
320,192,211145,1,0,0:0:0:0:
64,192,211205,1,0,0:0:0:0:
192,192,211205,1,0,0:0:0:0:
448,192,211265,1,0,0:0:0:0:
320,192,211325,1,0,0:0:0:0:
192,192,211385,1,0,0:0:0:0:
64,192,211445,1,0,0:0:0:0:
448,192,211445,1,0,0:0:0:0:
320,192,211505,1,0,0:0:0:0:
192,192,211565,1,0,0:0:0:0:
64,192,211625,1,0,0:0:0:0:
448,192,211685,1,0,0:0:0:0:
320,192,211685,1,0,0:0:0:0:
192,192,211745,1,0,0:0:0:0:
64,192,211805,1,0,0:0:0:0:
448,192,211865,1,0,0:0:0:0:
320,192,211925,1,0,0:0:0:0:
64,192,211925,1,0,0:0:0:0:
192,192,211985,1,0,0:0:0:0:
448,192,212045,1,0,0:0:0:0:
320,192,212045,1,0,0:0:0:0:
192,192,212105,1,0,0:0:0:0:
448,192,212165,128,0,212225:0:0:0:0:
320,192,212165,128,0,212225:0:0:0:0:
64,192,212225,128,0,212285:0:0:0:0:
192,192,212285,128,0,212345:0:0:0:0:
320,192,212345,128,0,212405:0:0:0:0:
448,192,212405,128,0,212465:0:0:0:0:
64,192,212405,128,0,212465:0:0:0:0:
192,192,212465,128,0,212525:0:0:0:0:
320,192,212525,128,0,212585:0:0:0:0:
192,192,212585,128,0,212645:0:0:0:0:
64,192,212645,128,0,212705:0:0:0:0:
448,192,212645,128,0,212705:0:0:0:0:
320,192,212705,128,0,212765:0:0:0:0:
192,192,212765,128,0,212825:0:0:0:0:
64,192,212825,128,0,212885:0:0:0:0:
320,192,212885,128,0,212945:0:0:0:0:
448,192,212885,128,0,212945:0:0:0:0:
192,192,212945,128,0,213005:0:0:0:0:
64,192,213005,128,0,213065:0:0:0:0:
320,192,213005,128,0,213065:0:0:0:0:
448,192,213065,128,0,213125:0:0:0:0:
64,192,213125,128,0,213185:0:0:0:0:
192,192,213125,128,0,213185:0:0:0:0:
448,192,213185,128,0,213245:0:0:0:0:
320,192,213245,128,0,213305:0:0:0:0:
192,192,213305,128,0,213365:0:0:0:0:
64,192,213365,128,0,213425:0:0:0:0:
448,192,213365,128,0,213425:0:0:0:0:
320,192,213425,128,0,213485:0:0:0:0:
192,192,213485,128,0,213545:0:0:0:0:
320,192,213545,128,0,213605:0:0:0:0:
64,192,213605,128,0,213665:0:0:0:0:
448,192,213605,128,0,213665:0:0:0:0:
192,192,213665,128,0,213725:0:0:0:0:
320,192,213725,128,0,213785:0:0:0:0:
448,192,213785,128,0,213845:0:0:0:0:
64,192,213845,128,0,213905:0:0:0:0:
192,192,213845,128,0,213905:0:0:0:0:
320,192,213905,128,0,213965:0:0:0:0:
192,192,213965,128,0,214025:0:0:0:0:
448,192,213965,128,0,214025:0:0:0:0:
64,192,214025,128,0,214085:0:0:0:0:
448,192,214085,128,0,214145:0:0:0:0:
320,192,214085,128,0,214145:0:0:0:0:
64,192,214145,128,0,214205:0:0:0:0:
192,192,214205,128,0,214265:0:0:0:0:
320,192,214265,128,0,214325:0:0:0:0:
448,192,214325,128,0,214385:0:0:0:0:
64,192,214325,128,0,214385:0:0:0:0:
192,192,214385,128,0,214445:0:0:0:0:
320,192,214445,128,0,214505:0:0:0:0:
192,192,214505,128,0,214565:0:0:0:0:
64,192,214565,128,0,214625:0:0:0:0:
448,192,214565,128,0,214625:0:0:0:0:
320,192,214625,128,0,214685:0:0:0:0:
192,192,214685,128,0,214745:0:0:0:0:
64,192,214745,128,0,214805:0:0:0:0:
320,192,214805,128,0,214865:0:0:0:0:
448,192,214805,128,0,214865:0:0:0:0:
192,192,214865,128,0,214925:0:0:0:0:
64,192,214925,128,0,214985:0:0:0:0:
320,192,214925,128,0,214985:0:0:0:0:
448,192,214985,128,0,215045:0:0:0:0:
64,192,215045,128,0,215105:0:0:0:0:
192,192,215045,128,0,215105:0:0:0:0:
448,192,215105,128,0,215165:0:0:0:0:
320,192,215165,128,0,215225:0:0:0:0:
192,192,215225,128,0,215285:0:0:0:0:
64,192,215285,128,0,215345:0:0:0:0:
448,192,215285,128,0,215345:0:0:0:0:
320,192,215345,128,0,215405:0:0:0:0:
192,192,215405,128,0,215465:0:0:0:0:
320,192,215465,128,0,215525:0:0:0:0:
64,192,215525,128,0,215585:0:0:0:0:
448,192,215525,128,0,215585:0:0:0:0:
192,192,215585,128,0,215645:0:0:0:0:
320,192,215645,128,0,215705:0:0:0:0:
448,192,215705,128,0,215765:0:0:0:0:
64,192,215765,128,0,215825:0:0:0:0:
192,192,215765,128,0,215825:0:0:0:0:
320,192,215825,128,0,215885:0:0:0:0:
192,192,215885,128,0,215945:0:0:0:0:
448,192,215885,128,0,215945:0:0:0:0:
64,192,215945,128,0,216005:0:0:0:0:
320,192,216005,128,0,216065:0:0:0:0:
448,192,216005,128,0,216065:0:0:0:0:
192,192,216065,128,0,216125:0:0:0:0:
64,192,216125,128,0,216185:0:0:0:0:
320,192,216125,128,0,216185:0:0:0:0:
448,192,216185,128,0,216245:0:0:0:0:
64,192,216245,128,0,216305:0:0:0:0:
192,192,216245,128,0,216305:0:0:0:0:
320,192,216305,128,0,216365:0:0:0:0:
448,192,216365,128,0,216425:0:0:0:0:
192,192,216365,128,0,216425:0:0:0:0:
64,192,216425,128,0,216485:0:0:0:0:
320,192,216485,128,0,216545:0:0:0:0:
448,192,216485,128,0,216545:0:0:0:0:
192,192,216545,128,0,216605:0:0:0:0:
64,192,216605,128,0,216665:0:0:0:0:
320,192,216605,128,0,216665:0:0:0:0:
448,192,216665,128,0,216725:0:0:0:0:
192,192,216725,128,0,216785:0:0:0:0:
64,192,216725,128,0,216785:0:0:0:0:
320,192,216785,128,0,216845:0:0:0:0:
192,192,216845,128,0,216905:0:0:0:0:
448,192,216845,128,0,216905:0:0:0:0:
64,192,216905,128,0,216965:0:0:0:0:
320,192,216965,128,0,217025:0:0:0:0:
448,192,216965,128,0,217025:0:0:0:0:
192,192,217025,128,0,217085:0:0:0:0:
64,192,217085,128,0,217145:0:0:0:0:
448,192,217085,128,0,217145:0:0:0:0:
320,192,217145,128,0,217205:0:0:0:0:
192,192,217205,128,0,217265:0:0:0:0:
64,192,217205,128,0,217265:0:0:0:0:
320,192,217265,128,0,217325:0:0:0:0:
448,192,217325,128,0,217385:0:0:0:0:
64,192,217325,128,0,217385:0:0:0:0:
192,192,217385,128,0,217445:0:0:0:0:
320,192,217445,128,0,217505:0:0:0:0:
448,192,217445,128,0,217505:0:0:0:0:
64,192,217505,128,0,217565:0:0:0:0:
192,192,217565,128,0,217625:0:0:0:0:
320,192,217565,128,0,217625:0:0:0:0:
448,192,217625,128,0,217685:0:0:0:0:
64,192,217685,128,0,217745:0:0:0:0:
192,192,217685,128,0,217745:0:0:0:0:
448,192,217745,128,0,217805:0:0:0:0:
320,192,217805,128,0,217865:0:0:0:0:
192,192,217805,128,0,217865:0:0:0:0:
64,192,217865,128,0,217925:0:0:0:0:
448,192,217925,128,0,217985:0:0:0:0:
320,192,217925,128,0,217985:0:0:0:0:
192,192,217985,128,0,218045:0:0:0:0:
64,192,218045,128,0,218105:0:0:0:0:
448,192,218045,128,0,218105:0:0:0:0:
320,192,218105,128,0,218165:0:0:0:0:
192,192,218165,128,0,218225:0:0:0:0:
64,192,218165,128,0,218225:0:0:0:0:
320,192,218225,128,0,218285:0:0:0:0:
64,192,218285,128,0,218345:0:0:0:0:
448,192,218285,128,0,218345:0:0:0:0:
192,192,218345,128,0,218405:0:0:0:0:
320,192,218405,128,0,218465:0:0:0:0:
448,192,218405,128,0,218465:0:0:0:0:
192,192,218465,128,0,218525:0:0:0:0:
64,192,218525,128,0,218585:0:0:0:0:
320,192,218525,128,0,218585:0:0:0:0:
448,192,218585,128,0,218645:0:0:0:0:
192,192,218645,128,0,218705:0:0:0:0:
64,192,218645,128,0,218705:0:0:0:0:
320,192,218705,128,0,218765:0:0:0:0:
192,192,218765,128,0,218825:0:0:0:0:
448,192,218765,128,0,218825:0:0:0:0:
64,192,218825,128,0,218885:0:0:0:0:
320,192,218885,128,0,218945:0:0:0:0:
448,192,218885,128,0,218945:0:0:0:0:
192,192,218945,128,0,219005:0:0:0:0:
64,192,219005,128,0,219065:0:0:0:0:
320,192,219005,128,0,219065:0:0:0:0:
448,192,219065,128,0,219125:0:0:0:0:
192,192,219125,128,0,219185:0:0:0:0:
64,192,219125,128,0,219185:0:0:0:0:
320,192,219185,128,0,219245:0:0:0:0:
192,192,219245,128,0,219305:0:0:0:0:
448,192,219245,128,0,219305:0:0:0:0:
64,192,219305,128,0,219365:0:0:0:0:
320,192,219365,128,0,219425:0:0:0:0:
448,192,219365,128,0,219425:0:0:0:0:
192,192,219425,128,0,219485:0:0:0:0:
64,192,219485,128,0,219545:0:0:0:0:
448,192,219485,128,0,219545:0:0:0:0:
320,192,219545,128,0,219605:0:0:0:0:
192,192,219605,128,0,219665:0:0:0:0:
64,192,219605,128,0,219665:0:0:0:0:
320,192,219665,128,0,219725:0:0:0:0:
64,192,219725,128,0,219785:0:0:0:0:
448,192,219725,128,0,219785:0:0:0:0:
192,192,219785,128,0,219845:0:0:0:0:
320,192,219845,128,0,219905:0:0:0:0:
448,192,219845,128,0,219905:0:0:0:0:
64,192,219845,128,0,219905:0:0:0:0:
192,192,219905,128,0,219965:0:0:0:0:
320,192,219965,128,0,220025:0:0:0:0:
448,192,219965,128,0,220025:0:0:0:0:
64,192,220025,128,0,220085:0:0:0:0:
192,192,220085,128,0,220145:0:0:0:0:
320,192,220085,128,0,220145:0:0:0:0:
448,192,220085,128,0,220145:0:0:0:0:
64,192,220145,128,0,220205:0:0:0:0:
192,192,220205,128,0,220265:0:0:0:0:
320,192,220205,128,0,220265:0:0:0:0:
448,192,220265,128,0,220325:0:0:0:0:
64,192,220325,128,0,220385:0:0:0:0:
192,192,220325,128,0,220385:0:0:0:0:
320,192,220325,128,0,220385:0:0:0:0:
448,192,220385,128,0,220445:0:0:0:0:
192,192,220445,128,0,220505:0:0:0:0:
64,192,220445,128,0,220505:0:0:0:0:
320,192,220505,128,0,220565:0:0:0:0:
448,192,220565,128,0,220625:0:0:0:0:
192,192,220565,128,0,220625:0:0:0:0:
64,192,220565,128,0,220625:0:0:0:0:
320,192,220625,128,0,220685:0:0:0:0:
448,192,220685,128,0,220745:0:0:0:0:
64,192,220685,128,0,220745:0:0:0:0:
192,192,220745,128,0,220805:0:0:0:0:
320,192,220805,128,0,220865:0:0:0:0:
448,192,220805,128,0,220865:0:0:0:0:
64,192,220805,128,0,220865:0:0:0:0:
192,192,220865,128,0,220925:0:0:0:0:
320,192,220925,128,0,220985:0:0:0:0:
448,192,220925,128,0,220985:0:0:0:0:
64,192,220985,128,0,221045:0:0:0:0:
192,192,221045,128,0,221105:0:0:0:0:
320,192,221045,128,0,221105:0:0:0:0:
448,192,221045,128,0,221105:0:0:0:0:
64,192,221105,128,0,221165:0:0:0:0:
192,192,221165,128,0,221225:0:0:0:0:
320,192,221165,128,0,221225:0:0:0:0:
448,192,221225,128,0,221285:0:0:0:0:
64,192,221285,128,0,221345:0:0:0:0:
192,192,221285,128,0,221345:0:0:0:0:
320,192,221285,128,0,221345:0:0:0:0:
448,192,221345,128,0,221405:0:0:0:0:
192,192,221405,128,0,221465:0:0:0:0:
64,192,221405,128,0,221465:0:0:0:0:
320,192,221465,128,0,221525:0:0:0:0:
64,192,221525,128,0,221585:0:0:0:0:
192,192,221525,128,0,221585:0:0:0:0:
448,192,221525,128,0,221585:0:0:0:0:
320,192,221585,128,0,221645:0:0:0:0:
448,192,221645,128,0,221705:0:0:0:0:
64,192,221645,128,0,221705:0:0:0:0:
192,192,221705,128,0,221765:0:0:0:0:
64,192,221765,128,0,221945:0:0:0:0:
320,192,221765,128,0,221825:0:0:0:0:
448,192,221765,128,0,221825:0:0:0:0:
192,192,221825,128,0,221885:0:0:0:0:
320,192,221885,128,0,221945:0:0:0:0:
448,192,221885,128,0,221945:0:0:0:0:
192,192,221945,128,0,222005:0:0:0:0:
64,192,222005,128,0,222065:0:0:0:0:
320,192,222005,128,0,222125:0:0:0:0:
448,192,222005,128,0,222065:0:0:0:0:
192,192,222065,128,0,222185:0:0:0:0:
64,192,222125,128,0,222185:0:0:0:0:
448,192,222125,128,0,222185:0:0:0:0:
320,192,222185,128,0,222245:0:0:0:0:
192,192,222245,128,0,222305:0:0:0:0:
64,192,222245,128,0,222305:0:0:0:0:
448,192,222245,128,0,222425:0:0:0:0:
320,192,222305,128,0,222365:0:0:0:0:
192,192,222365,128,0,222425:0:0:0:0:
64,192,222365,128,0,222425:0:0:0:0:
320,192,222425,128,0,222485:0:0:0:0:
448,192,222485,128,0,222545:0:0:0:0:
192,192,222485,128,0,222605:0:0:0:0:
64,192,222485,128,0,222545:0:0:0:0:
320,192,222545,128,0,222665:0:0:0:0:
64,192,222605,128,0,222665:0:0:0:0:
448,192,222605,128,0,222665:0:0:0:0:
192,192,222665,128,0,222725:0:0:0:0:
64,192,222725,128,0,222905:0:0:0:0:
320,192,222725,128,0,222785:0:0:0:0:
448,192,222725,128,0,222785:0:0:0:0:
192,192,222785,128,0,222845:0:0:0:0:
320,192,222845,128,0,222905:0:0:0:0:
448,192,222845,128,0,222905:0:0:0:0:
192,192,222905,128,0,222965:0:0:0:0:
64,192,222965,128,0,223025:0:0:0:0:
320,192,222965,128,0,223085:0:0:0:0:
448,192,222965,128,0,223025:0:0:0:0:
192,192,223025,128,0,223145:0:0:0:0:
64,192,223085,128,0,223145:0:0:0:0:
448,192,223085,128,0,223145:0:0:0:0:
320,192,223145,128,0,223205:0:0:0:0:
192,192,223205,128,0,223265:0:0:0:0:
64,192,223205,128,0,223265:0:0:0:0:
448,192,223205,128,0,223385:0:0:0:0:
320,192,223265,128,0,223325:0:0:0:0:
192,192,223325,128,0,223385:0:0:0:0:
64,192,223325,128,0,223385:0:0:0:0:
320,192,223385,128,0,223445:0:0:0:0:
448,192,223445,128,0,223505:0:0:0:0:
192,192,223445,128,0,223565:0:0:0:0:
64,192,223445,128,0,223505:0:0:0:0:
320,192,223505,128,0,223625:0:0:0:0:
64,192,223565,128,0,223625:0:0:0:0:
448,192,223565,128,0,223625:0:0:0:0:
192,192,223625,128,0,223685:0:0:0:0:
320,192,223685,128,0,223925:0:0:0:0:
448,192,223685,128,0,223925:0:0:0:0:
64,192,223685,128,0,223925:0:0:0:0:
64,192,225343,1,0,0:0:0:0:
320,192,225343,1,0,0:0:0:0:
448,192,225343,1,0,0:0:0:0:
448,192,225450,1,0,0:0:0:0:
320,192,225450,1,0,0:0:0:0:
64,192,225450,1,0,0:0:0:0:
64,192,225664,1,0,0:0:0:0:
192,192,225664,1,0,0:0:0:0:
448,192,225664,1,0,0:0:0:0:
448,192,225878,1,0,0:0:0:0:
320,192,225878,1,0,0:0:0:0:
64,192,225878,1,0,0:0:0:0:
64,192,226093,1,0,0:0:0:0:
192,192,226093,1,0,0:0:0:0:
448,192,226093,1,0,0:0:0:0:
448,192,226307,1,0,0:0:0:0:
320,192,226307,1,0,0:0:0:0:
192,192,226307,1,0,0:0:0:0:
320,192,226414,1,0,0:0:0:0:
448,192,226414,1,0,0:0:0:0:
192,192,226414,1,0,0:0:0:0:
320,192,226521,1,0,0:0:0:0:
448,192,226521,1,0,0:0:0:0:
192,192,226521,1,0,0:0:0:0:
192,192,226628,1,0,0:0:0:0:
320,192,226628,1,0,0:0:0:0:
448,192,226628,1,0,0:0:0:0:
64,192,226843,1,0,0:0:0:0:
320,192,226843,1,0,0:0:0:0:
192,192,226843,1,0,0:0:0:0:
448,192,227030,1,0,0:0:0:0:
320,192,227030,1,0,0:0:0:0:
192,192,227088,1,0,0:0:0:0:
64,192,227088,1,0,0:0:0:0:
320,192,227147,1,0,0:0:0:0:
448,192,227147,1,0,0:0:0:0:
192,192,227205,1,0,0:0:0:0:
64,192,227205,1,0,0:0:0:0:
320,192,227264,1,0,0:0:0:0:
448,192,227264,1,0,0:0:0:0:
192,192,227322,1,0,0:0:0:0:
64,192,227322,1,0,0:0:0:0:
320,192,227381,1,0,0:0:0:0:
448,192,227381,1,0,0:0:0:0:
192,192,227440,1,0,0:0:0:0:
64,192,227440,1,0,0:0:0:0:
448,192,227498,1,0,0:0:0:0:
320,192,227498,1,0,0:0:0:0:
192,192,227557,1,0,0:0:0:0:
64,192,227557,1,0,0:0:0:0:
320,192,227615,1,0,0:0:0:0:
448,192,227615,1,0,0:0:0:0:
192,192,227674,1,0,0:0:0:0:
64,192,227674,1,0,0:0:0:0:
448,192,227733,1,0,0:0:0:0:
320,192,227762,1,0,0:0:0:0:
64,192,227791,1,0,0:0:0:0:
192,192,227821,1,0,0:0:0:0:
448,192,227850,1,0,0:0:0:0:
320,192,227879,1,0,0:0:0:0:
64,192,227908,1,0,0:0:0:0:
192,192,227938,1,0,0:0:0:0:
320,192,227967,1,0,0:0:0:0:
448,192,227967,1,0,0:0:0:0:
64,192,228026,1,0,0:0:0:0:
192,192,228026,1,0,0:0:0:0:
320,192,228084,1,0,0:0:0:0:
448,192,228084,1,0,0:0:0:0:
192,192,228143,1,0,0:0:0:0:
64,192,228143,1,0,0:0:0:0:
320,192,228201,1,0,0:0:0:0:
448,192,228201,1,0,0:0:0:0:
192,192,228260,1,0,0:0:0:0:
64,192,228260,1,0,0:0:0:0:
320,192,228319,1,0,0:0:0:0:
448,192,228319,1,0,0:0:0:0:
192,192,228377,1,0,0:0:0:0:
64,192,228377,1,0,0:0:0:0:
320,192,228436,1,0,0:0:0:0:
448,192,228436,1,0,0:0:0:0:
64,192,228494,1,0,0:0:0:0:
192,192,228494,1,0,0:0:0:0:
320,192,228553,1,0,0:0:0:0:
448,192,228553,1,0,0:0:0:0:
192,192,228612,1,0,0:0:0:0:
64,192,228612,1,0,0:0:0:0:
448,192,228670,1,0,0:0:0:0:
320,192,228690,1,0,0:0:0:0:
64,192,228709,1,0,0:0:0:0:
192,192,228729,1,0,0:0:0:0:
448,192,228748,1,0,0:0:0:0:
320,192,228768,1,0,0:0:0:0:
64,192,228787,1,0,0:0:0:0:
192,192,228807,1,0,0:0:0:0:
448,192,228826,1,0,0:0:0:0:
320,192,228846,1,0,0:0:0:0:
64,192,228865,1,0,0:0:0:0:
192,192,228880,1,0,0:0:0:0:
320,192,228903,1,0,0:0:0:0:
448,192,228903,1,0,0:0:0:0:
192,192,228951,1,0,0:0:0:0:
64,192,228951,1,0,0:0:0:0:
448,192,229094,1,0,0:0:0:0:
320,192,229094,1,0,0:0:0:0:
192,192,229165,1,0,0:0:0:0:
64,192,229165,1,0,0:0:0:0:
320,192,229380,1,0,0:0:0:0:
192,192,229380,1,0,0:0:0:0:
448,192,229451,128,0,231165:0:0:0:0:
64,192,229451,128,0,231165:0:0:0:0:
