osu file format v14

[General]
AudioFilename: audio.mp3
AudioLeadIn: 0
PreviewTime: 3980
Countdown: 0
SampleSet: Normal
StackLeniency: 0.7
Mode: 3
LetterboxInBreaks: 0
SpecialStyle: 0
WidescreenStoryboard: 1

[Editor]
DistanceSpacing: 0.8
BeatDivisor: 8
GridSize: 8
TimelineZoom: 2.699999

[Metadata]
Title:MEME LEGENDS - SUCC 2016 -HISTORIA QUIT BLUVOLTEX-
TitleUnicode:MEME LEGENDS - SUCC 2016 -HISTORIA QUIT BLUVOLTEX-
Artist:DJ UNDERJOY
ArtistUnicode:DJ UNDERJOY
Creator:_underjoy
Version:GRASHITY
Source:SOME TROLLTEX IIIIIIIII -MAX300 WARS-
Tags:tidek jest chujowym mapperem kami daj bubbla
BeatmapID:1007801
BeatmapSetID:471503

[Difficulty]
HPDrainRate:7
CircleSize:4
OverallDifficulty:8
ApproachRate:5
SliderMultiplier:1.4
SliderTickRate:1

[Events]
//Background and Video events
0,0,"sauce gimme.jpg",0,0
//Break Periods
//Storyboard Layer 0 (Background)
//Storyboard Layer 1 (Fail)
//Storyboard Layer 2 (Pass)
//Storyboard Layer 3 (Foreground)
//Storyboard Sound Samples

[TimingPoints]
0,254.237288135593,4,1,0,10,1,0
0,-131.578947368421,4,1,0,10,0,0
3980,333.333333333333,4,1,0,10,1,0
25298,333.333333333333,4,1,0,10,1,0
43990,333.333333333333,4,1,0,10,1,0
46675,333.333333333333,4,1,0,10,1,0
57300,342.857142857143,4,1,0,10,1,0
57300,-98.0392156862745,4,1,0,10,0,0
73750,333.333333333333,4,1,0,10,1,0
74930,333.333333333333,4,1,0,10,1,0
86930,333.333333333333,4,1,0,10,1,0
97606,333.333333333333,4,1,0,10,1,0
97855,324.324324324324,4,1,0,10,1,0
112323,240,4,1,0,10,1,0
112323,-138.888888888889,4,1,0,10,0,0
112563,240,4,1,0,10,1,0
112563,-138.888888888889,4,1,0,10,0,0
121230,240.963855421687,4,1,0,10,1,0
121230,-138.888888888889,4,1,0,10,0,0
136530,240,4,1,0,10,1,0
136530,-138.888888888889,4,1,0,10,0,0
145565,333.333333333333,4,1,0,10,1,0
178630,333.333333333333,4,1,0,10,1,0

[HitObjects]
64,192,0,5,0,0:0:0:0:
448,192,63,1,0,0:0:0:0:
64,192,127,1,0,0:0:0:0:
448,192,190,1,0,0:0:0:0:
64,192,254,1,0,0:0:0:0:
448,192,317,1,0,0:0:0:0:
64,192,381,1,0,0:0:0:0:
448,192,444,1,0,0:0:0:0:
64,192,508,1,0,0:0:0:0:
448,192,572,1,0,0:0:0:0:
64,192,635,1,0,0:0:0:0:
448,192,699,1,0,0:0:0:0:
64,192,762,1,0,0:0:0:0:
448,192,826,1,0,0:0:0:0:
64,192,889,1,0,0:0:0:0:
448,192,953,1,0,0:0:0:0:
64,192,1016,1,0,0:0:0:0:
448,192,1080,1,0,0:0:0:0:
64,192,1144,1,0,0:0:0:0:
448,192,1207,1,0,0:0:0:0:
64,192,1271,1,0,0:0:0:0:
448,192,1334,1,0,0:0:0:0:
64,192,1398,1,0,0:0:0:0:
448,192,1461,1,0,0:0:0:0:
64,192,1525,1,0,0:0:0:0:
448,192,1588,1,0,0:0:0:0:
64,192,1652,1,0,0:0:0:0:
448,192,1716,1,0,0:0:0:0:
64,192,1779,1,0,0:0:0:0:
448,192,1843,1,0,0:0:0:0:
64,192,1906,1,0,0:0:0:0:
448,192,1970,1,0,0:0:0:0:
64,192,2033,1,0,0:0:0:0:
448,192,2097,1,0,0:0:0:0:
64,192,2161,1,0,0:0:0:0:
448,192,2224,1,0,0:0:0:0:
64,192,2288,1,0,0:0:0:0:
448,192,2351,1,0,0:0:0:0:
64,192,2415,1,0,0:0:0:0:
448,192,2478,1,0,0:0:0:0:
64,192,2542,1,0,0:0:0:0:
448,192,2605,1,0,0:0:0:0:
64,192,2669,1,0,0:0:0:0:
448,192,2733,1,0,0:0:0:0:
64,192,2796,1,0,0:0:0:0:
448,192,2860,1,0,0:0:0:0:
64,192,2923,1,0,0:0:0:0:
448,192,2987,1,0,0:0:0:0:
64,192,3050,1,0,0:0:0:0:
448,192,3114,1,0,0:0:0:0:
64,192,3177,1,0,0:0:0:0:
448,192,3241,1,0,0:0:0:0:
64,192,3305,1,0,0:0:0:0:
448,192,3368,1,0,0:0:0:0:
64,192,3432,1,0,0:0:0:0:
448,192,3495,1,0,0:0:0:0:
64,192,3559,1,0,0:0:0:0:
448,192,3622,1,0,0:0:0:0:
64,192,3686,1,0,0:0:0:0:
448,192,3749,1,0,0:0:0:0:
64,192,3813,1,0,0:0:0:0:
448,192,3877,1,0,0:0:0:0:
64,192,3940,1,0,0:0:0:0:
448,192,3980,1,0,0:0:0:0:
320,192,3980,1,0,0:0:0:0:
192,192,4063,1,0,0:0:0:0:
64,192,4146,1,0,0:0:0:0:
320,192,4230,1,0,0:0:0:0:
192,192,4313,1,0,0:0:0:0:
448,192,4313,1,0,0:0:0:0:
64,192,4396,1,0,0:0:0:0:
320,192,4479,1,0,0:0:0:0:
448,192,4563,1,0,0:0:0:0:
64,192,4646,1,0,0:0:0:0:
192,192,4646,1,0,0:0:0:0:
320,192,4729,1,0,0:0:0:0:
448,192,4813,1,0,0:0:0:0:
192,192,4896,1,0,0:0:0:0:
320,192,4979,1,0,0:0:0:0:
64,192,4979,1,0,0:0:0:0:
448,192,5063,1,0,0:0:0:0:
64,192,5146,1,0,0:0:0:0:
192,192,5146,1,0,0:0:0:0:
192,192,5229,1,0,0:0:0:0:
64,192,5229,1,0,0:0:0:0:
320,192,5313,1,0,0:0:0:0:
448,192,5313,1,0,0:0:0:0:
192,192,5396,1,0,0:0:0:0:
320,192,5479,1,0,0:0:0:0:
448,192,5563,1,0,0:0:0:0:
192,192,5646,1,0,0:0:0:0:
64,192,5646,1,0,0:0:0:0:
320,192,5729,1,0,0:0:0:0:
448,192,5813,1,0,0:0:0:0:
192,192,5896,1,0,0:0:0:0:
64,192,5979,1,0,0:0:0:0:
320,192,5979,1,0,0:0:0:0:
448,192,6063,1,0,0:0:0:0:
192,192,6146,1,0,0:0:0:0:
320,192,6229,1,0,0:0:0:0:
64,192,6313,1,0,0:0:0:0:
448,192,6313,1,0,0:0:0:0:
192,192,6396,1,0,0:0:0:0:
320,192,6479,1,0,0:0:0:0:
448,192,6479,1,0,0:0:0:0:
320,192,6563,1,0,0:0:0:0:
448,192,6563,1,0,0:0:0:0:
64,192,6646,1,0,0:0:0:0:
192,192,6646,1,0,0:0:0:0:
448,192,6729,1,0,0:0:0:0:
192,192,6813,1,0,0:0:0:0:
320,192,6896,1,0,0:0:0:0:
64,192,6979,1,0,0:0:0:0:
192,192,6979,1,0,0:0:0:0:
448,192,7063,1,0,0:0:0:0:
320,192,7146,1,0,0:0:0:0:
192,192,7229,1,0,0:0:0:0:
448,192,7313,1,0,0:0:0:0:
64,192,7313,1,0,0:0:0:0:
320,192,7396,1,0,0:0:0:0:
192,192,7479,1,0,0:0:0:0:
320,192,7563,1,0,0:0:0:0:
448,192,7646,1,0,0:0:0:0:
192,192,7646,1,0,0:0:0:0:
64,192,7729,1,0,0:0:0:0:
320,192,7813,1,0,0:0:0:0:
192,192,7813,1,0,0:0:0:0:
192,192,7896,1,0,0:0:0:0:
320,192,7896,1,0,0:0:0:0:
448,192,7979,1,0,0:0:0:0:
64,192,7979,1,0,0:0:0:0:
320,192,8063,1,0,0:0:0:0:
192,192,8146,1,0,0:0:0:0:
320,192,8229,1,0,0:0:0:0:
448,192,8313,1,0,0:0:0:0:
64,192,8313,1,0,0:0:0:0:
192,192,8396,1,0,0:0:0:0:
320,192,8479,1,0,0:0:0:0:
64,192,8563,1,0,0:0:0:0:
192,192,8646,1,0,0:0:0:0:
448,192,8646,1,0,0:0:0:0:
320,192,8729,1,0,0:0:0:0:
64,192,8813,1,0,0:0:0:0:
192,192,8896,1,0,0:0:0:0:
448,192,8979,1,0,0:0:0:0:
320,192,8979,1,0,0:0:0:0:
192,192,9063,1,0,0:0:0:0:
448,192,9146,1,0,0:0:0:0:
64,192,9146,1,0,0:0:0:0:
64,192,9229,1,0,0:0:0:0:
448,192,9229,1,0,0:0:0:0:
320,192,9313,1,0,0:0:0:0:
192,192,9313,1,0,0:0:0:0:
448,192,9396,1,0,0:0:0:0:
64,192,9479,1,0,0:0:0:0:
192,192,9563,1,0,0:0:0:0:
320,192,9646,1,0,0:0:0:0:
448,192,9646,1,0,0:0:0:0:
64,192,9729,1,0,0:0:0:0:
448,192,9813,1,0,0:0:0:0:
192,192,9896,1,0,0:0:0:0:
320,192,9979,1,0,0:0:0:0:
64,192,9979,1,0,0:0:0:0:
448,192,10063,1,0,0:0:0:0:
192,192,10146,1,0,0:0:0:0:
320,192,10229,1,0,0:0:0:0:
64,192,10313,1,0,0:0:0:0:
192,192,10313,1,0,0:0:0:0:
448,192,10396,1,0,0:0:0:0:
320,192,10479,1,0,0:0:0:0:
64,192,10479,1,0,0:0:0:0:
320,192,10563,1,0,0:0:0:0:
64,192,10563,1,0,0:0:0:0:
448,192,10646,1,0,0:0:0:0:
192,192,10646,1,0,0:0:0:0:
64,192,10729,1,0,0:0:0:0:
320,192,10813,1,0,0:0:0:0:
448,192,10896,1,0,0:0:0:0:
64,192,10979,1,0,0:0:0:0:
192,192,10979,1,0,0:0:0:0:
320,192,11063,1,0,0:0:0:0:
448,192,11146,1,0,0:0:0:0:
64,192,11229,1,0,0:0:0:0:
192,192,11313,1,0,0:0:0:0:
320,192,11313,1,0,0:0:0:0:
448,192,11396,1,0,0:0:0:0:
192,192,11479,1,0,0:0:0:0:
320,192,11563,1,0,0:0:0:0:
448,192,11646,1,0,0:0:0:0:
64,192,11646,1,0,0:0:0:0:
192,192,11729,1,0,0:0:0:0:
320,192,11813,1,0,0:0:0:0:
64,192,11813,1,0,0:0:0:0:
64,192,11896,1,0,0:0:0:0:
320,192,11896,1,0,0:0:0:0:
192,192,11979,1,0,0:0:0:0:
448,192,11979,1,0,0:0:0:0:
320,192,12063,1,0,0:0:0:0:
64,192,12146,1,0,0:0:0:0:
192,192,12229,1,0,0:0:0:0:
320,192,12313,1,0,0:0:0:0:
448,192,12313,1,0,0:0:0:0:
64,192,12396,1,0,0:0:0:0:
448,192,12479,1,0,0:0:0:0:
320,192,12563,1,0,0:0:0:0:
192,192,12646,1,0,0:0:0:0:
64,192,12646,1,0,0:0:0:0:
448,192,12729,1,0,0:0:0:0:
320,192,12813,1,0,0:0:0:0:
192,192,12896,1,0,0:0:0:0:
448,192,12979,1,0,0:0:0:0:
64,192,12979,1,0,0:0:0:0:
320,192,13063,1,0,0:0:0:0:
192,192,13146,1,0,0:0:0:0:
64,192,13146,1,0,0:0:0:0:
64,192,13229,1,0,0:0:0:0:
192,192,13229,1,0,0:0:0:0:
320,192,13313,1,0,0:0:0:0:
448,192,13313,1,0,0:0:0:0:
64,192,13396,1,0,0:0:0:0:
192,192,13479,1,0,0:0:0:0:
320,192,13563,1,0,0:0:0:0:
448,192,13646,1,0,0:0:0:0:
64,192,13646,1,0,0:0:0:0:
192,192,13729,1,0,0:0:0:0:
448,192,13813,1,0,0:0:0:0:
320,192,13896,1,0,0:0:0:0:
192,192,13979,1,0,0:0:0:0:
448,192,13979,1,0,0:0:0:0:
64,192,14063,1,0,0:0:0:0:
320,192,14146,1,0,0:0:0:0:
192,192,14229,1,0,0:0:0:0:
448,192,14313,1,0,0:0:0:0:
320,192,14313,1,0,0:0:0:0:
64,192,14396,1,0,0:0:0:0:
320,192,14479,1,0,0:0:0:0:
448,192,14479,1,0,0:0:0:0:
320,192,14563,1,0,0:0:0:0:
448,192,14563,1,0,0:0:0:0:
64,192,14646,1,0,0:0:0:0:
192,192,14646,1,0,0:0:0:0:
320,192,14729,1,0,0:0:0:0:
448,192,14813,1,0,0:0:0:0:
192,192,14896,1,0,0:0:0:0:
320,192,14979,1,0,0:0:0:0:
64,192,14979,1,0,0:0:0:0:
448,192,15063,1,0,0:0:0:0:
192,192,15146,1,0,0:0:0:0:
64,192,15229,1,0,0:0:0:0:
448,192,15313,1,0,0:0:0:0:
320,192,15313,1,0,0:0:0:0:
192,192,15396,1,0,0:0:0:0:
64,192,15479,1,0,0:0:0:0:
320,192,15563,1,0,0:0:0:0:
192,192,15646,1,0,0:0:0:0:
448,192,15646,1,0,0:0:0:0:
64,192,15729,1,0,0:0:0:0:
448,192,15813,1,0,0:0:0:0:
320,192,15813,1,0,0:0:0:0:
320,192,15896,1,0,0:0:0:0:
448,192,15896,1,0,0:0:0:0:
192,192,15979,1,0,0:0:0:0:
64,192,15979,1,0,0:0:0:0:
320,192,16063,1,0,0:0:0:0:
192,192,16146,1,0,0:0:0:0:
64,192,16229,1,0,0:0:0:0:
320,192,16313,1,0,0:0:0:0:
448,192,16313,1,0,0:0:0:0:
192,192,16396,1,0,0:0:0:0:
64,192,16479,1,0,0:0:0:0:
320,192,16563,1,0,0:0:0:0:
448,192,16646,1,0,0:0:0:0:
192,192,16646,1,0,0:0:0:0:
64,192,16729,1,0,0:0:0:0:
320,192,16813,1,0,0:0:0:0:
192,192,16896,1,0,0:0:0:0:
448,192,16979,1,0,0:0:0:0:
64,192,16979,1,0,0:0:0:0:
320,192,17063,1,0,0:0:0:0:
192,192,17146,1,0,0:0:0:0:
64,192,17146,1,0,0:0:0:0:
192,192,17229,1,0,0:0:0:0:
64,192,17229,1,0,0:0:0:0:
448,192,17313,1,0,0:0:0:0:
320,192,17313,1,0,0:0:0:0:
64,192,17396,1,0,0:0:0:0:
320,192,17479,1,0,0:0:0:0:
192,192,17563,1,0,0:0:0:0:
448,192,17646,1,0,0:0:0:0:
320,192,17646,1,0,0:0:0:0:
64,192,17729,1,0,0:0:0:0:
192,192,17813,1,0,0:0:0:0:
320,192,17896,1,0,0:0:0:0:
64,192,17979,1,0,0:0:0:0:
448,192,17979,1,0,0:0:0:0:
192,192,18063,1,0,0:0:0:0:
320,192,18146,1,0,0:0:0:0:
192,192,18229,1,0,0:0:0:0:
64,192,18313,1,0,0:0:0:0:
320,192,18313,1,0,0:0:0:0:
448,192,18396,1,0,0:0:0:0:
192,192,18479,1,0,0:0:0:0:
320,192,18479,1,0,0:0:0:0:
320,192,18563,1,0,0:0:0:0:
192,192,18563,1,0,0:0:0:0:
64,192,18646,1,0,0:0:0:0:
448,192,18646,1,0,0:0:0:0:
192,192,18729,1,0,0:0:0:0:
320,192,18813,1,0,0:0:0:0:
192,192,18896,1,0,0:0:0:0:
64,192,18979,1,0,0:0:0:0:
448,192,18979,1,0,0:0:0:0:
320,192,19063,1,0,0:0:0:0:
192,192,19146,1,0,0:0:0:0:
448,192,19229,1,0,0:0:0:0:
320,192,19313,1,0,0:0:0:0:
64,192,19313,1,0,0:0:0:0:
192,192,19396,1,0,0:0:0:0:
448,192,19479,1,0,0:0:0:0:
320,192,19563,1,0,0:0:0:0:
64,192,19646,1,0,0:0:0:0:
192,192,19646,1,0,0:0:0:0:
320,192,19729,1,0,0:0:0:0:
64,192,19813,1,0,0:0:0:0:
448,192,19813,1,0,0:0:0:0:
448,192,19896,1,0,0:0:0:0:
64,192,19896,1,0,0:0:0:0:
192,192,19979,1,0,0:0:0:0:
320,192,19979,1,0,0:0:0:0:
64,192,20063,1,0,0:0:0:0:
320,192,20146,1,0,0:0:0:0:
448,192,20146,1,0,0:0:0:0:
192,192,20229,1,0,0:0:0:0:
64,192,20313,1,0,0:0:0:0:
448,192,20313,1,0,0:0:0:0:
320,192,20396,1,0,0:0:0:0:
192,192,20479,1,0,0:0:0:0:
64,192,20479,1,0,0:0:0:0:
320,192,20563,1,0,0:0:0:0:
64,192,20646,1,0,0:0:0:0:
448,192,20646,1,0,0:0:0:0:
192,192,20729,1,0,0:0:0:0:
320,192,20813,1,0,0:0:0:0:
448,192,20813,1,0,0:0:0:0:
192,192,20896,1,0,0:0:0:0:
64,192,20979,1,0,0:0:0:0:
448,192,20979,1,0,0:0:0:0:
320,192,21063,1,0,0:0:0:0:
192,192,21146,1,0,0:0:0:0:
64,192,21146,1,0,0:0:0:0:
448,192,21229,1,0,0:0:0:0:
320,192,21313,1,0,0:0:0:0:
64,192,21313,1,0,0:0:0:0:
448,192,21396,1,0,0:0:0:0:
192,192,21479,1,0,0:0:0:0:
64,192,21479,1,0,0:0:0:0:
320,192,21563,1,0,0:0:0:0:
448,192,21646,1,0,0:0:0:0:
192,192,21646,1,0,0:0:0:0:
64,192,21729,1,0,0:0:0:0:
320,192,21813,1,0,0:0:0:0:
448,192,21813,1,0,0:0:0:0:
192,192,21896,1,0,0:0:0:0:
320,192,21979,1,0,0:0:0:0:
64,192,21979,1,0,0:0:0:0:
448,192,22063,1,0,0:0:0:0:
192,192,22146,1,0,0:0:0:0:
64,192,22146,1,0,0:0:0:0:
320,192,22229,1,0,0:0:0:0:
448,192,22313,1,0,0:0:0:0:
192,192,22313,1,0,0:0:0:0:
64,192,22396,1,0,0:0:0:0:
320,192,22479,1,0,0:0:0:0:
448,192,22479,1,0,0:0:0:0:
192,192,22563,1,0,0:0:0:0:
64,192,22646,1,0,0:0:0:0:
448,192,22646,1,0,0:0:0:0:
320,192,22729,1,0,0:0:0:0:
192,192,22729,1,0,0:0:0:0:
64,192,22813,1,0,0:0:0:0:
448,192,22813,1,0,0:0:0:0:
192,192,22896,1,0,0:0:0:0:
448,192,22979,1,0,0:0:0:0:
320,192,22979,1,0,0:0:0:0:
192,192,23063,1,0,0:0:0:0:
64,192,23063,1,0,0:0:0:0:
448,192,23146,1,0,0:0:0:0:
320,192,23146,1,0,0:0:0:0:
192,192,23229,1,0,0:0:0:0:
64,192,23229,1,0,0:0:0:0:
320,192,23313,1,0,0:0:0:0:
64,192,23396,1,0,0:0:0:0:
448,192,23396,1,0,0:0:0:0:
320,192,23479,1,0,0:0:0:0:
192,192,23479,1,0,0:0:0:0:
448,192,23563,1,0,0:0:0:0:
64,192,23563,1,0,0:0:0:0:
192,192,23646,1,0,0:0:0:0:
320,192,23729,1,0,0:0:0:0:
448,192,23729,1,0,0:0:0:0:
64,192,23813,1,0,0:0:0:0:
192,192,23813,1,0,0:0:0:0:
320,192,23896,1,0,0:0:0:0:
448,192,23896,1,0,0:0:0:0:
64,192,23979,1,0,0:0:0:0:
192,192,24021,1,0,0:0:0:0:
320,192,24063,1,0,0:0:0:0:
448,192,24104,1,0,0:0:0:0:
64,192,24146,1,0,0:0:0:0:
192,192,24188,1,0,0:0:0:0:
448,192,24229,1,0,0:0:0:0:
320,192,24271,1,0,0:0:0:0:
192,192,24313,1,0,0:0:0:0:
448,192,24354,1,0,0:0:0:0:
64,192,24396,1,0,0:0:0:0:
192,192,24438,1,0,0:0:0:0:
320,192,24479,1,0,0:0:0:0:
448,192,24521,1,0,0:0:0:0:
192,192,24563,1,0,0:0:0:0:
320,192,24604,1,0,0:0:0:0:
448,192,24646,1,0,0:0:0:0:
64,192,24688,1,0,0:0:0:0:
192,192,24729,1,0,0:0:0:0:
448,192,24771,1,0,0:0:0:0:
320,192,24813,1,0,0:0:0:0:
192,192,24854,1,0,0:0:0:0:
64,192,24896,1,0,0:0:0:0:
320,192,24938,1,0,0:0:0:0:
448,192,24979,1,0,0:0:0:0:
64,192,25021,1,0,0:0:0:0:
192,192,25063,1,0,0:0:0:0:
320,192,25104,1,0,0:0:0:0:
448,192,25146,1,0,0:0:0:0:
192,192,25188,1,0,0:0:0:0:
320,192,25229,1,0,0:0:0:0:
448,192,25271,1,0,0:0:0:0:
64,192,25298,1,0,0:0:0:0:
192,192,25298,1,0,0:0:0:0:
320,192,25298,1,0,0:0:0:0:
448,192,25381,1,0,0:0:0:0:
192,192,25464,1,0,0:0:0:0:
64,192,25464,1,0,0:0:0:0:
320,192,25548,1,0,0:0:0:0:
320,192,25631,1,0,0:0:0:0:
448,192,25631,1,0,0:0:0:0:
64,192,25631,1,0,0:0:0:0:
192,192,25631,1,0,0:0:0:0:
448,192,25714,1,0,0:0:0:0:
64,192,25798,1,0,0:0:0:0:
320,192,25798,1,0,0:0:0:0:
192,192,25881,1,0,0:0:0:0:
448,192,25964,1,0,0:0:0:0:
320,192,25964,1,0,0:0:0:0:
64,192,25964,1,0,0:0:0:0:
192,192,26048,1,0,0:0:0:0:
448,192,26131,1,0,0:0:0:0:
320,192,26131,1,0,0:0:0:0:
64,192,26214,1,0,0:0:0:0:
64,192,26298,1,0,0:0:0:0:
192,192,26298,1,0,0:0:0:0:
320,192,26298,1,0,0:0:0:0:
448,192,26298,1,0,0:0:0:0:
192,192,26381,1,0,0:0:0:0:
320,192,26464,1,0,0:0:0:0:
448,192,26464,1,0,0:0:0:0:
64,192,26548,1,0,0:0:0:0:
192,192,26631,1,0,0:0:0:0:
320,192,26631,1,0,0:0:0:0:
448,192,26631,1,0,0:0:0:0:
64,192,26714,1,0,0:0:0:0:
320,192,26798,1,0,0:0:0:0:
192,192,26798,1,0,0:0:0:0:
448,192,26881,1,0,0:0:0:0:
64,192,26964,1,0,0:0:0:0:
192,192,26964,1,0,0:0:0:0:
320,192,26964,1,0,0:0:0:0:
448,192,26964,1,0,0:0:0:0:
192,192,27048,1,0,0:0:0:0:
320,192,27131,1,0,0:0:0:0:
64,192,27131,1,0,0:0:0:0:
448,192,27214,1,0,0:0:0:0:
64,192,27297,1,0,0:0:0:0:
192,192,27297,1,0,0:0:0:0:
320,192,27297,1,0,0:0:0:0:
448,192,27381,1,0,0:0:0:0:
192,192,27464,1,0,0:0:0:0:
64,192,27464,1,0,0:0:0:0:
320,192,27547,1,0,0:0:0:0:
64,192,27631,1,0,0:0:0:0:
192,192,27631,1,0,0:0:0:0:
320,192,27631,1,0,0:0:0:0:
448,192,27631,1,0,0:0:0:0:
64,192,27714,1,0,0:0:0:0:
192,192,27797,1,0,0:0:0:0:
448,192,27797,1,0,0:0:0:0:
320,192,27881,1,0,0:0:0:0:
192,192,27964,1,0,0:0:0:0:
64,192,27964,1,0,0:0:0:0:
448,192,27964,1,0,0:0:0:0:
320,192,28047,1,0,0:0:0:0:
64,192,28131,1,0,0:0:0:0:
192,192,28131,1,0,0:0:0:0:
448,192,28214,1,0,0:0:0:0:
448,192,28297,1,0,0:0:0:0:
320,192,28297,1,0,0:0:0:0:
192,192,28297,1,0,0:0:0:0:
64,192,28297,1,0,0:0:0:0:
64,192,28381,1,0,0:0:0:0:
192,192,28464,1,0,0:0:0:0:
320,192,28464,1,0,0:0:0:0:
448,192,28547,1,0,0:0:0:0:
64,192,28631,1,0,0:0:0:0:
192,192,28631,1,0,0:0:0:0:
320,192,28631,1,0,0:0:0:0:
448,192,28714,1,0,0:0:0:0:
64,192,28797,1,0,0:0:0:0:
192,192,28797,1,0,0:0:0:0:
320,192,28881,1,0,0:0:0:0:
448,192,28964,1,0,0:0:0:0:
320,192,28964,1,0,0:0:0:0:
192,192,28964,1,0,0:0:0:0:
64,192,28964,1,0,0:0:0:0:
64,192,29047,1,0,0:0:0:0:
320,192,29131,1,0,0:0:0:0:
448,192,29131,1,0,0:0:0:0:
192,192,29214,1,0,0:0:0:0:
64,192,29297,1,0,0:0:0:0:
320,192,29297,1,0,0:0:0:0:
448,192,29297,1,0,0:0:0:0:
192,192,29381,1,0,0:0:0:0:
64,192,29464,1,0,0:0:0:0:
448,192,29464,1,0,0:0:0:0:
320,192,29547,1,0,0:0:0:0:
448,192,29631,1,0,0:0:0:0:
320,192,29631,1,0,0:0:0:0:
192,192,29631,1,0,0:0:0:0:
64,192,29631,1,0,0:0:0:0:
192,192,29714,1,0,0:0:0:0:
448,192,29797,1,0,0:0:0:0:
320,192,29797,1,0,0:0:0:0:
64,192,29881,1,0,0:0:0:0:
192,192,29964,1,0,0:0:0:0:
320,192,29964,1,0,0:0:0:0:
448,192,29964,1,0,0:0:0:0:
64,192,30047,1,0,0:0:0:0:
192,192,30131,1,0,0:0:0:0:
320,192,30131,1,0,0:0:0:0:
448,192,30214,1,0,0:0:0:0:
64,192,30297,1,0,0:0:0:0:
192,192,30297,1,0,0:0:0:0:
320,192,30297,1,0,0:0:0:0:
448,192,30297,1,0,0:0:0:0:
64,192,30381,1,0,0:0:0:0:
320,192,30464,1,0,0:0:0:0:
448,192,30464,1,0,0:0:0:0:
192,192,30547,1,0,0:0:0:0:
64,192,30631,1,0,0:0:0:0:
448,192,30631,1,0,0:0:0:0:
320,192,30631,1,0,0:0:0:0:
192,192,30631,1,0,0:0:0:0:
320,192,30714,1,0,0:0:0:0:
64,192,30797,1,0,0:0:0:0:
192,192,30797,1,0,0:0:0:0:
448,192,30881,1,0,0:0:0:0:
64,192,30964,1,0,0:0:0:0:
192,192,30964,1,0,0:0:0:0:
320,192,30964,1,0,0:0:0:0:
448,192,30964,1,0,0:0:0:0:
192,192,31047,1,0,0:0:0:0:
448,192,31131,1,0,0:0:0:0:
64,192,31131,1,0,0:0:0:0:
320,192,31214,1,0,0:0:0:0:
192,192,31297,1,0,0:0:0:0:
448,192,31297,1,0,0:0:0:0:
64,192,31297,1,0,0:0:0:0:
320,192,31381,1,0,0:0:0:0:
192,192,31464,1,0,0:0:0:0:
64,192,31464,1,0,0:0:0:0:
448,192,31547,1,0,0:0:0:0:
64,192,31631,1,0,0:0:0:0:
192,192,31631,1,0,0:0:0:0:
320,192,31631,1,0,0:0:0:0:
448,192,31631,1,0,0:0:0:0:
320,192,31714,1,0,0:0:0:0:
64,192,31797,1,0,0:0:0:0:
192,192,31797,1,0,0:0:0:0:
448,192,31881,1,0,0:0:0:0:
320,192,31964,1,0,0:0:0:0:
192,192,31964,1,0,0:0:0:0:
64,192,31964,1,0,0:0:0:0:
448,192,32047,1,0,0:0:0:0:
192,192,32131,1,0,0:0:0:0:
320,192,32131,1,0,0:0:0:0:
64,192,32214,1,0,0:0:0:0:
192,192,32297,1,0,0:0:0:0:
320,192,32297,1,0,0:0:0:0:
448,192,32297,1,0,0:0:0:0:
64,192,32297,1,0,0:0:0:0:
448,192,32381,1,0,0:0:0:0:
320,192,32464,1,0,0:0:0:0:
64,192,32464,1,0,0:0:0:0:
192,192,32547,1,0,0:0:0:0:
448,192,32631,1,0,0:0:0:0:
320,192,32631,1,0,0:0:0:0:
64,192,32631,1,0,0:0:0:0:
192,192,32714,1,0,0:0:0:0:
320,192,32797,1,0,0:0:0:0:
448,192,32797,1,0,0:0:0:0:
64,192,32881,1,0,0:0:0:0:
64,192,32964,1,0,0:0:0:0:
192,192,32964,1,0,0:0:0:0:
320,192,32964,1,0,0:0:0:0:
448,192,32964,1,0,0:0:0:0:
448,192,33047,1,0,0:0:0:0:
192,192,33131,1,0,0:0:0:0:
64,192,33131,1,0,0:0:0:0:
320,192,33214,1,0,0:0:0:0:
448,192,33297,1,0,0:0:0:0:
64,192,33297,1,0,0:0:0:0:
192,192,33297,1,0,0:0:0:0:
320,192,33381,1,0,0:0:0:0:
192,192,33464,1,0,0:0:0:0:
448,192,33464,1,0,0:0:0:0:
64,192,33547,1,0,0:0:0:0:
448,192,33631,1,0,0:0:0:0:
320,192,33631,1,0,0:0:0:0:
192,192,33631,1,0,0:0:0:0:
64,192,33631,1,0,0:0:0:0:
320,192,33714,1,0,0:0:0:0:
192,192,33797,1,0,0:0:0:0:
64,192,33797,1,0,0:0:0:0:
448,192,33881,1,0,0:0:0:0:
320,192,33964,1,0,0:0:0:0:
192,192,33964,1,0,0:0:0:0:
64,192,33964,1,0,0:0:0:0:
448,192,34047,1,0,0:0:0:0:
64,192,34131,1,0,0:0:0:0:
192,192,34131,1,0,0:0:0:0:
320,192,34214,1,0,0:0:0:0:
64,192,34297,1,0,0:0:0:0:
192,192,34297,1,0,0:0:0:0:
320,192,34297,1,0,0:0:0:0:
448,192,34297,1,0,0:0:0:0:
64,192,34381,1,0,0:0:0:0:
448,192,34464,1,0,0:0:0:0:
320,192,34464,1,0,0:0:0:0:
192,192,34547,1,0,0:0:0:0:
448,192,34631,1,0,0:0:0:0:
320,192,34631,1,0,0:0:0:0:
64,192,34631,1,0,0:0:0:0:
192,192,34631,1,0,0:0:0:0:
64,192,34714,1,0,0:0:0:0:
448,192,34797,1,0,0:0:0:0:
320,192,34797,1,0,0:0:0:0:
192,192,34881,1,0,0:0:0:0:
448,192,34964,1,0,0:0:0:0:
320,192,34964,1,0,0:0:0:0:
192,192,34964,1,0,0:0:0:0:
64,192,34964,1,0,0:0:0:0:
320,192,35047,1,0,0:0:0:0:
64,192,35131,1,0,0:0:0:0:
192,192,35131,1,0,0:0:0:0:
448,192,35214,1,0,0:0:0:0:
448,192,35297,1,0,0:0:0:0:
320,192,35297,1,0,0:0:0:0:
192,192,35297,1,0,0:0:0:0:
64,192,35297,1,0,0:0:0:0:
64,192,35381,1,0,0:0:0:0:
320,192,35464,1,0,0:0:0:0:
448,192,35464,1,0,0:0:0:0:
192,192,35547,1,0,0:0:0:0:
64,192,35631,1,0,0:0:0:0:
320,192,35631,1,0,0:0:0:0:
448,192,35631,1,0,0:0:0:0:
64,192,35714,1,0,0:0:0:0:
320,192,35714,1,0,0:0:0:0:
448,192,35714,1,0,0:0:0:0:
64,192,35797,1,0,0:0:0:0:
320,192,35797,1,0,0:0:0:0:
448,192,35797,1,0,0:0:0:0:
64,192,35881,1,0,0:0:0:0:
320,192,35881,1,0,0:0:0:0:
448,192,35881,1,0,0:0:0:0:
448,192,35964,1,0,0:0:0:0:
320,192,35964,1,0,0:0:0:0:
64,192,35964,1,0,0:0:0:0:
192,192,35964,1,0,0:0:0:0:
192,192,36047,1,0,0:0:0:0:
320,192,36131,1,0,0:0:0:0:
448,192,36131,1,0,0:0:0:0:
64,192,36214,1,0,0:0:0:0:
192,192,36297,1,0,0:0:0:0:
64,192,36297,1,0,0:0:0:0:
448,192,36297,1,0,0:0:0:0:
320,192,36297,1,0,0:0:0:0:
320,192,36381,1,0,0:0:0:0:
192,192,36464,1,0,0:0:0:0:
64,192,36464,1,0,0:0:0:0:
320,192,36547,1,0,0:0:0:0:
64,192,36631,1,0,0:0:0:0:
192,192,36631,1,0,0:0:0:0:
448,192,36631,1,0,0:0:0:0:
320,192,36714,1,0,0:0:0:0:
64,192,36797,1,0,0:0:0:0:
448,192,36797,1,0,0:0:0:0:
320,192,36881,1,0,0:0:0:0:
448,192,36964,1,0,0:0:0:0:
320,192,36964,1,0,0:0:0:0:
192,192,36964,1,0,0:0:0:0:
64,192,36964,1,0,0:0:0:0:
192,192,37047,1,0,0:0:0:0:
320,192,37131,1,0,0:0:0:0:
64,192,37131,1,0,0:0:0:0:
448,192,37214,1,0,0:0:0:0:
320,192,37297,1,0,0:0:0:0:
192,192,37297,1,0,0:0:0:0:
64,192,37297,1,0,0:0:0:0:
448,192,37381,1,0,0:0:0:0:
192,192,37464,1,0,0:0:0:0:
320,192,37464,1,0,0:0:0:0:
64,192,37547,1,0,0:0:0:0:
448,192,37631,1,0,0:0:0:0:
320,192,37631,1,0,0:0:0:0:
192,192,37631,1,0,0:0:0:0:
64,192,37631,1,0,0:0:0:0:
320,192,37714,1,0,0:0:0:0:
192,192,37797,1,0,0:0:0:0:
448,192,37797,1,0,0:0:0:0:
64,192,37881,1,0,0:0:0:0:
448,192,37964,1,0,0:0:0:0:
320,192,37964,1,0,0:0:0:0:
192,192,37964,1,0,0:0:0:0:
64,192,38047,1,0,0:0:0:0:
320,192,38131,1,0,0:0:0:0:
448,192,38131,1,0,0:0:0:0:
192,192,38214,1,0,0:0:0:0:
448,192,38297,1,0,0:0:0:0:
320,192,38297,1,0,0:0:0:0:
192,192,38297,1,0,0:0:0:0:
64,192,38297,1,0,0:0:0:0:
448,192,38381,1,0,0:0:0:0:
320,192,38464,1,0,0:0:0:0:
64,192,38464,1,0,0:0:0:0:
192,192,38547,1,0,0:0:0:0:
320,192,38631,1,0,0:0:0:0:
448,192,38631,1,0,0:0:0:0:
64,192,38631,1,0,0:0:0:0:
192,192,38714,1,0,0:0:0:0:
448,192,38797,1,0,0:0:0:0:
320,192,38797,1,0,0:0:0:0:
64,192,38881,1,0,0:0:0:0:
64,192,38964,1,0,0:0:0:0:
192,192,38964,1,0,0:0:0:0:
320,192,38964,1,0,0:0:0:0:
448,192,38964,1,0,0:0:0:0:
448,192,39047,1,0,0:0:0:0:
320,192,39131,1,0,0:0:0:0:
192,192,39131,1,0,0:0:0:0:
64,192,39214,1,0,0:0:0:0:
448,192,39297,1,0,0:0:0:0:
320,192,39297,1,0,0:0:0:0:
192,192,39297,1,0,0:0:0:0:
64,192,39381,1,0,0:0:0:0:
448,192,39464,1,0,0:0:0:0:
320,192,39464,1,0,0:0:0:0:
192,192,39547,1,0,0:0:0:0:
64,192,39631,1,0,0:0:0:0:
192,192,39631,1,0,0:0:0:0:
320,192,39631,1,0,0:0:0:0:
448,192,39631,1,0,0:0:0:0:
448,192,39714,1,0,0:0:0:0:
192,192,39797,1,0,0:0:0:0:
64,192,39797,1,0,0:0:0:0:
320,192,39881,1,0,0:0:0:0:
448,192,39964,1,0,0:0:0:0:
192,192,39964,1,0,0:0:0:0:
64,192,39964,1,0,0:0:0:0:
320,192,40047,1,0,0:0:0:0:
448,192,40131,1,0,0:0:0:0:
64,192,40131,1,0,0:0:0:0:
192,192,40214,1,0,0:0:0:0:
64,192,40297,1,0,0:0:0:0:
192,192,40297,1,0,0:0:0:0:
320,192,40297,1,0,0:0:0:0:
448,192,40297,1,0,0:0:0:0:
320,192,40381,1,0,0:0:0:0:
64,192,40464,1,0,0:0:0:0:
192,192,40464,1,0,0:0:0:0:
448,192,40547,1,0,0:0:0:0:
320,192,40631,1,0,0:0:0:0:
192,192,40631,1,0,0:0:0:0:
64,192,40631,1,0,0:0:0:0:
448,192,40714,1,0,0:0:0:0:
320,192,40797,1,0,0:0:0:0:
192,192,40797,1,0,0:0:0:0:
64,192,40881,1,0,0:0:0:0:
448,192,40964,1,0,0:0:0:0:
320,192,40964,1,0,0:0:0:0:
192,192,40964,1,0,0:0:0:0:
64,192,40964,1,0,0:0:0:0:
448,192,41047,1,0,0:0:0:0:
192,192,41131,1,0,0:0:0:0:
64,192,41131,1,0,0:0:0:0:
320,192,41214,1,0,0:0:0:0:
448,192,41297,1,0,0:0:0:0:
64,192,41297,1,0,0:0:0:0:
192,192,41297,1,0,0:0:0:0:
320,192,41297,1,0,0:0:0:0:
64,192,41381,1,0,0:0:0:0:
320,192,41464,1,0,0:0:0:0:
448,192,41464,1,0,0:0:0:0:
192,192,41547,1,0,0:0:0:0:
448,192,41631,1,0,0:0:0:0:
320,192,41631,1,0,0:0:0:0:
192,192,41631,1,0,0:0:0:0:
64,192,41631,1,0,0:0:0:0:
320,192,41714,1,0,0:0:0:0:
64,192,41797,1,0,0:0:0:0:
448,192,41797,1,0,0:0:0:0:
192,192,41881,1,0,0:0:0:0:
320,192,41964,1,0,0:0:0:0:
64,192,41964,1,0,0:0:0:0:
448,192,41964,1,0,0:0:0:0:
192,192,42047,1,0,0:0:0:0:
320,192,42131,1,0,0:0:0:0:
448,192,42131,1,0,0:0:0:0:
64,192,42214,1,0,0:0:0:0:
448,192,42297,1,0,0:0:0:0:
320,192,42297,1,0,0:0:0:0:
192,192,42297,1,0,0:0:0:0:
64,192,42297,1,0,0:0:0:0:
192,192,42381,1,0,0:0:0:0:
448,192,42464,1,0,0:0:0:0:
320,192,42464,1,0,0:0:0:0:
64,192,42547,1,0,0:0:0:0:
192,192,42631,1,0,0:0:0:0:
320,192,42631,1,0,0:0:0:0:
448,192,42631,1,0,0:0:0:0:
64,192,42631,1,0,0:0:0:0:
192,192,42714,1,0,0:0:0:0:
320,192,42797,1,0,0:0:0:0:
448,192,42797,1,0,0:0:0:0:
64,192,42881,1,0,0:0:0:0:
320,192,42964,1,0,0:0:0:0:
192,192,42964,1,0,0:0:0:0:
64,192,42964,1,0,0:0:0:0:
448,192,42964,1,0,0:0:0:0:
320,192,43047,1,0,0:0:0:0:
192,192,43131,1,0,0:0:0:0:
64,192,43131,1,0,0:0:0:0:
448,192,43214,1,0,0:0:0:0:
64,192,43297,1,0,0:0:0:0:
192,192,43297,1,0,0:0:0:0:
320,192,43297,1,0,0:0:0:0:
448,192,43381,1,0,0:0:0:0:
192,192,43464,1,0,0:0:0:0:
64,192,43464,1,0,0:0:0:0:
320,192,43547,1,0,0:0:0:0:
448,192,43631,1,0,0:0:0:0:
320,192,43631,1,0,0:0:0:0:
192,192,43631,1,0,0:0:0:0:
64,192,43631,1,0,0:0:0:0:
64,192,43714,1,0,0:0:0:0:
320,192,43797,1,0,0:0:0:0:
448,192,43797,1,0,0:0:0:0:
192,192,43881,1,0,0:0:0:0:
448,192,43964,1,0,0:0:0:0:
320,192,43964,1,0,0:0:0:0:
64,192,43990,1,0,0:0:0:0:
192,192,44017,1,0,0:0:0:0:
320,192,44045,1,0,0:0:0:0:
448,192,44073,1,0,0:0:0:0:
64,192,44101,1,0,0:0:0:0:
192,192,44128,1,0,0:0:0:0:
448,192,44156,1,0,0:0:0:0:
320,192,44184,1,0,0:0:0:0:
192,192,44212,1,0,0:0:0:0:
64,192,44240,1,0,0:0:0:0:
448,192,44267,1,0,0:0:0:0:
320,192,44295,1,0,0:0:0:0:
64,192,44323,1,0,0:0:0:0:
192,192,44351,1,0,0:0:0:0:
320,192,44378,1,0,0:0:0:0:
448,192,44406,1,0,0:0:0:0:
64,192,44434,1,0,0:0:0:0:
192,192,44462,1,0,0:0:0:0:
448,192,44490,1,0,0:0:0:0:
320,192,44517,1,0,0:0:0:0:
192,192,44545,1,0,0:0:0:0:
64,192,44573,1,0,0:0:0:0:
448,192,44601,1,0,0:0:0:0:
320,192,44628,1,0,0:0:0:0:
64,192,44656,1,0,0:0:0:0:
192,192,44684,1,0,0:0:0:0:
320,192,44712,1,0,0:0:0:0:
448,192,44740,1,0,0:0:0:0:
64,192,44767,1,0,0:0:0:0:
192,192,44795,1,0,0:0:0:0:
448,192,44823,1,0,0:0:0:0:
320,192,44851,1,0,0:0:0:0:
192,192,44878,1,0,0:0:0:0:
64,192,44906,1,0,0:0:0:0:
448,192,44934,1,0,0:0:0:0:
320,192,44962,1,0,0:0:0:0:
192,192,44990,1,0,0:0:0:0:
64,192,44990,1,0,0:0:0:0:
448,192,45073,1,0,0:0:0:0:
64,192,45156,1,0,0:0:0:0:
192,192,45156,1,0,0:0:0:0:
320,192,45240,1,0,0:0:0:0:
192,192,45323,1,0,0:0:0:0:
64,192,45323,1,0,0:0:0:0:
448,192,45351,1,0,0:0:0:0:
320,192,45378,1,0,0:0:0:0:
64,192,45406,1,0,0:0:0:0:
192,192,45434,1,0,0:0:0:0:
320,192,45462,1,0,0:0:0:0:
448,192,45490,1,0,0:0:0:0:
192,192,45517,1,0,0:0:0:0:
64,192,45545,1,0,0:0:0:0:
448,192,45573,1,0,0:0:0:0:
320,192,45601,1,0,0:0:0:0:
192,192,45628,1,0,0:0:0:0:
64,192,45656,1,0,0:0:0:0:
320,192,45684,1,0,0:0:0:0:
448,192,45712,1,0,0:0:0:0:
64,192,45740,1,0,0:0:0:0:
192,192,45767,1,0,0:0:0:0:
320,192,45795,1,0,0:0:0:0:
448,192,45823,1,0,0:0:0:0:
192,192,45851,1,0,0:0:0:0:
64,192,45878,1,0,0:0:0:0:
448,192,45906,1,0,0:0:0:0:
320,192,45934,1,0,0:0:0:0:
192,192,45962,1,0,0:0:0:0:
64,192,45990,1,0,0:0:0:0:
320,192,46017,1,0,0:0:0:0:
448,192,46045,1,0,0:0:0:0:
64,192,46073,1,0,0:0:0:0:
192,192,46101,1,0,0:0:0:0:
320,192,46128,1,0,0:0:0:0:
448,192,46156,1,0,0:0:0:0:
192,192,46184,1,0,0:0:0:0:
64,192,46212,1,0,0:0:0:0:
320,192,46240,1,0,0:0:0:0:
448,192,46267,1,0,0:0:0:0:
192,192,46295,1,0,0:0:0:0:
320,192,46323,1,0,0:0:0:0:
448,192,46323,1,0,0:0:0:0:
64,192,46406,1,0,0:0:0:0:
192,192,46490,1,0,0:0:0:0:
448,192,46573,1,0,0:0:0:0:
192,192,46656,1,0,0:0:0:0:
64,192,46656,128,0,46758:0:0:0:0:
320,192,46758,1,0,0:0:0:0:
192,192,46841,1,0,0:0:0:0:
320,192,46925,1,0,0:0:0:0:
192,192,47008,1,0,0:0:0:0:
448,192,47008,128,0,47091:0:0:0:0:
320,192,47091,1,0,0:0:0:0:
192,192,47175,1,0,0:0:0:0:
64,192,47175,128,0,47258:0:0:0:0:
320,192,47258,1,0,0:0:0:0:
192,192,47341,1,0,0:0:0:0:
320,192,47425,1,0,0:0:0:0:
192,192,47508,1,0,0:0:0:0:
448,192,47508,128,0,47591:0:0:0:0:
320,192,47591,1,0,0:0:0:0:
192,192,47675,1,0,0:0:0:0:
448,192,47675,128,0,47758:0:0:0:0:
320,192,47758,1,0,0:0:0:0:
192,192,47841,1,0,0:0:0:0:
64,192,47841,128,0,47925:0:0:0:0:
320,192,47925,1,0,0:0:0:0:
192,192,48008,1,0,0:0:0:0:
320,192,48091,1,0,0:0:0:0:
192,192,48175,1,0,0:0:0:0:
448,192,48175,128,0,48258:0:0:0:0:
320,192,48258,1,0,0:0:0:0:
192,192,48341,1,0,0:0:0:0:
64,192,48341,128,0,48425:0:0:0:0:
320,192,48425,1,0,0:0:0:0:
192,192,48508,1,0,0:0:0:0:
320,192,48591,1,0,0:0:0:0:
192,192,48675,1,0,0:0:0:0:
448,192,48675,128,0,48758:0:0:0:0:
320,192,48758,1,0,0:0:0:0:
192,192,48841,1,0,0:0:0:0:
320,192,48925,1,0,0:0:0:0:
192,192,49008,1,0,0:0:0:0:
64,192,49008,128,0,49091:0:0:0:0:
320,192,49091,1,0,0:0:0:0:
192,192,49175,1,0,0:0:0:0:
448,192,49175,128,0,49258:0:0:0:0:
320,192,49258,1,0,0:0:0:0:
192,192,49341,1,0,0:0:0:0:
64,192,49341,128,0,49425:0:0:0:0:
320,192,49425,1,0,0:0:0:0:
192,192,49508,1,0,0:0:0:0:
448,192,49508,128,0,49591:0:0:0:0:
320,192,49591,1,0,0:0:0:0:
192,192,49675,1,0,0:0:0:0:
320,192,49758,1,0,0:0:0:0:
192,192,49841,1,0,0:0:0:0:
64,192,49841,128,0,49925:0:0:0:0:
320,192,49925,1,0,0:0:0:0:
192,192,50008,1,0,0:0:0:0:
64,192,50008,128,0,50091:0:0:0:0:
320,192,50091,1,0,0:0:0:0:
192,192,50175,1,0,0:0:0:0:
448,192,50175,128,0,50258:0:0:0:0:
320,192,50258,1,0,0:0:0:0:
192,192,50341,1,0,0:0:0:0:
320,192,50424,1,0,0:0:0:0:
192,192,50508,1,0,0:0:0:0:
64,192,50508,128,0,50591:0:0:0:0:
320,192,50591,1,0,0:0:0:0:
192,192,50674,1,0,0:0:0:0:
64,192,50674,128,0,50758:0:0:0:0:
320,192,50758,1,0,0:0:0:0:
192,192,50841,1,0,0:0:0:0:
448,192,50841,128,0,50924:0:0:0:0:
320,192,50924,1,0,0:0:0:0:
192,192,51008,1,0,0:0:0:0:
320,192,51091,1,0,0:0:0:0:
192,192,51174,1,0,0:0:0:0:
64,192,51174,128,0,51258:0:0:0:0:
320,192,51258,1,0,0:0:0:0:
192,192,51341,1,0,0:0:0:0:
448,192,51341,128,0,51508:0:0:0:0:
320,192,51424,1,0,0:0:0:0:
192,192,51508,1,0,0:0:0:0:
64,192,51508,128,0,51674:0:0:0:0:
320,192,51591,1,0,0:0:0:0:
192,192,51674,1,0,0:0:0:0:
448,192,51674,128,0,51841:0:0:0:0:
320,192,51758,1,0,0:0:0:0:
192,192,51841,1,0,0:0:0:0:
64,192,51841,128,0,52008:0:0:0:0:
320,192,51924,1,0,0:0:0:0:
192,192,52008,1,0,0:0:0:0:
448,192,52008,128,0,52091:0:0:0:0:
320,192,52091,1,0,0:0:0:0:
192,192,52174,1,0,0:0:0:0:
320,192,52258,1,0,0:0:0:0:
192,192,52341,1,0,0:0:0:0:
64,192,52341,128,0,52424:0:0:0:0:
320,192,52424,1,0,0:0:0:0:
192,192,52508,1,0,0:0:0:0:
448,192,52508,128,0,52591:0:0:0:0:
320,192,52591,1,0,0:0:0:0:
192,192,52674,1,0,0:0:0:0:
320,192,52758,1,0,0:0:0:0:
192,192,52841,1,0,0:0:0:0:
64,192,52841,128,0,52924:0:0:0:0:
320,192,52924,1,0,0:0:0:0:
192,192,53008,1,0,0:0:0:0:
64,192,53008,128,0,53091:0:0:0:0:
320,192,53091,1,0,0:0:0:0:
192,192,53174,1,0,0:0:0:0:
448,192,53174,128,0,53258:0:0:0:0:
320,192,53258,1,0,0:0:0:0:
192,192,53341,1,0,0:0:0:0:
320,192,53424,1,0,0:0:0:0:
192,192,53508,1,0,0:0:0:0:
64,192,53508,128,0,53591:0:0:0:0:
320,192,53591,1,0,0:0:0:0:
192,192,53674,1,0,0:0:0:0:
448,192,53674,128,0,53758:0:0:0:0:
320,192,53758,1,0,0:0:0:0:
192,192,53841,1,0,0:0:0:0:
320,192,53924,1,0,0:0:0:0:
192,192,54008,1,0,0:0:0:0:
64,192,54008,128,0,54091:0:0:0:0:
320,192,54091,1,0,0:0:0:0:
192,192,54174,1,0,0:0:0:0:
320,192,54258,1,0,0:0:0:0:
192,192,54341,1,0,0:0:0:0:
448,192,54341,128,0,54424:0:0:0:0:
320,192,54424,1,0,0:0:0:0:
192,192,54508,1,0,0:0:0:0:
64,192,54508,128,0,54591:0:0:0:0:
320,192,54591,1,0,0:0:0:0:
192,192,54674,1,0,0:0:0:0:
320,192,54758,1,0,0:0:0:0:
192,192,54841,1,0,0:0:0:0:
448,192,54841,128,0,54924:0:0:0:0:
320,192,54924,1,0,0:0:0:0:
192,192,55008,1,0,0:0:0:0:
320,192,55091,1,0,0:0:0:0:
192,192,55174,1,0,0:0:0:0:
64,192,55174,128,0,55258:0:0:0:0:
320,192,55258,1,0,0:0:0:0:
192,192,55341,1,0,0:0:0:0:
320,192,55424,1,0,0:0:0:0:
192,192,55508,1,0,0:0:0:0:
448,192,55508,128,0,55591:0:0:0:0:
320,192,55591,1,0,0:0:0:0:
192,192,55674,1,0,0:0:0:0:
320,192,55758,1,0,0:0:0:0:
192,192,55841,1,0,0:0:0:0:
64,192,55841,128,0,55924:0:0:0:0:
320,192,55924,1,0,0:0:0:0:
192,192,56008,1,0,0:0:0:0:
64,192,56008,128,0,56091:0:0:0:0:
320,192,56091,1,0,0:0:0:0:
192,192,56174,1,0,0:0:0:0:
448,192,56174,128,0,56258:0:0:0:0:
320,192,56258,1,0,0:0:0:0:
192,192,56341,1,0,0:0:0:0:
320,192,56424,1,0,0:0:0:0:
192,192,56508,1,0,0:0:0:0:
64,192,56508,128,0,56591:0:0:0:0:
320,192,56591,1,0,0:0:0:0:
448,192,56591,128,0,56674:0:0:0:0:
192,192,56674,1,0,0:0:0:0:
64,192,56674,1,0,0:0:0:0:
320,192,56758,1,0,0:0:0:0:
448,192,56758,1,0,0:0:0:0:
192,192,56841,1,0,0:0:0:0:
64,192,56841,1,0,0:0:0:0:
320,192,56924,1,0,0:0:0:0:
448,192,56924,1,0,0:0:0:0:
192,192,57008,1,0,0:0:0:0:
64,192,57008,1,0,0:0:0:0:
320,192,57091,1,0,0:0:0:0:
448,192,57091,1,0,0:0:0:0:
192,192,57174,1,0,0:0:0:0:
64,192,57174,1,0,0:0:0:0:
320,192,57258,1,0,0:0:0:0:
448,192,57258,1,0,0:0:0:0:
192,192,57300,1,0,0:0:0:0:
64,192,57300,1,0,0:0:0:0:
448,192,57300,1,0,0:0:0:0:
320,192,57557,1,0,0:0:0:0:
448,192,57557,1,0,0:0:0:0:
64,192,57814,1,0,0:0:0:0:
448,192,57814,1,0,0:0:0:0:
64,192,58157,1,0,0:0:0:0:
448,192,58157,1,0,0:0:0:0:
320,192,58328,1,0,0:0:0:0:
192,192,58328,1,0,0:0:0:0:
320,192,58500,1,0,0:0:0:0:
64,192,58500,1,0,0:0:0:0:
320,192,58671,1,0,0:0:0:0:
192,192,58671,1,0,0:0:0:0:
64,192,58842,1,0,0:0:0:0:
320,192,58842,1,0,0:0:0:0:
192,192,59014,1,0,0:0:0:0:
448,192,59014,1,0,0:0:0:0:
320,192,59185,1,0,0:0:0:0:
448,192,59185,1,0,0:0:0:0:
64,192,59357,1,0,0:0:0:0:
192,192,59357,1,0,0:0:0:0:
320,192,59442,1,0,0:0:0:0:
448,192,59442,1,0,0:0:0:0:
64,192,59528,1,0,0:0:0:0:
448,192,59528,1,0,0:0:0:0:
320,192,59528,1,0,0:0:0:0:
192,192,59614,1,0,0:0:0:0:
64,192,59614,1,0,0:0:0:0:
192,192,59871,1,0,0:0:0:0:
320,192,59871,1,0,0:0:0:0:
64,192,60042,1,0,0:0:0:0:
320,192,60042,1,0,0:0:0:0:
448,192,60042,1,0,0:0:0:0:
448,192,60300,1,0,0:0:0:0:
64,192,60300,1,0,0:0:0:0:
320,192,60557,1,0,0:0:0:0:
448,192,60557,1,0,0:0:0:0:
320,192,60900,1,0,0:0:0:0:
448,192,60900,1,0,0:0:0:0:
64,192,61071,1,0,0:0:0:0:
192,192,61071,1,0,0:0:0:0:
448,192,61242,1,0,0:0:0:0:
64,192,61242,1,0,0:0:0:0:
192,192,61414,1,0,0:0:0:0:
320,192,61414,1,0,0:0:0:0:
448,192,61414,1,0,0:0:0:0:
64,192,61585,1,0,0:0:0:0:
320,192,61585,1,0,0:0:0:0:
192,192,61757,1,0,0:0:0:0:
64,192,61757,1,0,0:0:0:0:
64,192,61928,1,0,0:0:0:0:
320,192,61928,1,0,0:0:0:0:
320,192,62100,1,0,0:0:0:0:
448,192,62100,1,0,0:0:0:0:
192,192,62185,1,0,0:0:0:0:
64,192,62185,1,0,0:0:0:0:
192,192,62357,1,0,0:0:0:0:
320,192,62357,1,0,0:0:0:0:
448,192,62357,1,0,0:0:0:0:
192,192,62614,1,0,0:0:0:0:
64,192,62614,1,0,0:0:0:0:
320,192,62785,1,0,0:0:0:0:
448,192,62785,1,0,0:0:0:0:
64,192,62785,1,0,0:0:0:0:
64,192,63042,1,0,0:0:0:0:
320,192,63042,1,0,0:0:0:0:
192,192,63300,1,0,0:0:0:0:
448,192,63300,1,0,0:0:0:0:
192,192,63642,1,0,0:0:0:0:
448,192,63642,1,0,0:0:0:0:
320,192,63814,1,0,0:0:0:0:
64,192,63814,1,0,0:0:0:0:
192,192,63985,1,0,0:0:0:0:
64,192,63985,1,0,0:0:0:0:
320,192,64157,1,0,0:0:0:0:
64,192,64157,1,0,0:0:0:0:
64,192,64328,1,0,0:0:0:0:
192,192,64328,1,0,0:0:0:0:
448,192,64500,1,0,0:0:0:0:
320,192,64500,1,0,0:0:0:0:
192,192,64671,1,0,0:0:0:0:
320,192,64671,1,0,0:0:0:0:
448,192,64842,1,0,0:0:0:0:
64,192,64842,1,0,0:0:0:0:
192,192,64928,1,0,0:0:0:0:
320,192,64928,1,0,0:0:0:0:
448,192,65100,1,0,0:0:0:0:
192,192,65100,1,0,0:0:0:0:
64,192,65357,1,0,0:0:0:0:
320,192,65357,1,0,0:0:0:0:
192,192,65528,1,0,0:0:0:0:
448,192,65528,128,0,66728:0:0:0:0:
64,192,65528,128,0,66728:0:0:0:0:
192,192,66214,1,0,0:0:0:0:
320,192,66214,1,0,0:0:0:0:
192,192,66728,1,0,0:0:0:0:
320,192,66814,1,0,0:0:0:0:
448,192,66900,128,0,67928:0:0:0:0:
192,192,66900,128,0,67928:0:0:0:0:
320,192,67242,1,0,0:0:0:0:
64,192,67585,1,0,0:0:0:0:
320,192,67757,1,0,0:0:0:0:
64,192,67928,1,0,0:0:0:0:
192,192,68014,1,0,0:0:0:0:
320,192,68100,1,0,0:0:0:0:
448,192,68185,1,0,0:0:0:0:
64,192,68271,1,0,0:0:0:0:
192,192,68271,1,0,0:0:0:0:
448,192,68314,1,0,0:0:0:0:
320,192,68357,1,0,0:0:0:0:
64,192,68400,1,0,0:0:0:0:
192,192,68442,1,0,0:0:0:0:
320,192,68485,1,0,0:0:0:0:
64,192,68528,1,0,0:0:0:0:
448,192,68571,1,0,0:0:0:0:
320,192,68614,1,0,0:0:0:0:
64,192,68657,1,0,0:0:0:0:
192,192,68700,1,0,0:0:0:0:
448,192,68742,1,0,0:0:0:0:
320,192,68785,1,0,0:0:0:0:
192,192,68828,1,0,0:0:0:0:
448,192,68871,1,0,0:0:0:0:
64,192,68914,1,0,0:0:0:0:
192,192,68957,1,0,0:0:0:0:
448,192,69000,1,0,0:0:0:0:
320,192,69042,1,0,0:0:0:0:
64,192,69085,1,0,0:0:0:0:
192,192,69128,1,0,0:0:0:0:
320,192,69171,1,0,0:0:0:0:
64,192,69214,1,0,0:0:0:0:
448,192,69257,1,0,0:0:0:0:
320,192,69300,1,0,0:0:0:0:
64,192,69342,1,0,0:0:0:0:
192,192,69385,1,0,0:0:0:0:
448,192,69428,1,0,0:0:0:0:
320,192,69471,1,0,0:0:0:0:
192,192,69514,1,0,0:0:0:0:
448,192,69557,1,0,0:0:0:0:
64,192,69600,1,0,0:0:0:0:
192,192,69642,1,0,0:0:0:0:
448,192,69685,1,0,0:0:0:0:
320,192,69728,1,0,0:0:0:0:
64,192,69771,1,0,0:0:0:0:
192,192,69814,1,0,0:0:0:0:
320,192,69857,1,0,0:0:0:0:
64,192,69900,1,0,0:0:0:0:
448,192,69942,1,0,0:0:0:0:
320,192,69985,1,0,0:0:0:0:
64,192,70028,1,0,0:0:0:0:
192,192,70071,1,0,0:0:0:0:
448,192,70114,1,0,0:0:0:0:
320,192,70157,1,0,0:0:0:0:
192,192,70200,1,0,0:0:0:0:
448,192,70242,1,0,0:0:0:0:
64,192,70285,1,0,0:0:0:0:
192,192,70328,1,0,0:0:0:0:
448,192,70371,1,0,0:0:0:0:
320,192,70414,1,0,0:0:0:0:
64,192,70457,1,0,0:0:0:0:
192,192,70500,1,0,0:0:0:0:
320,192,70542,1,0,0:0:0:0:
64,192,70585,1,0,0:0:0:0:
448,192,70628,1,0,0:0:0:0:
320,192,70671,1,0,0:0:0:0:
64,192,70714,1,0,0:0:0:0:
192,192,70757,1,0,0:0:0:0:
448,192,70800,1,0,0:0:0:0:
320,192,70842,1,0,0:0:0:0:
192,192,70885,1,0,0:0:0:0:
448,192,70928,1,0,0:0:0:0:
64,192,70971,1,0,0:0:0:0:
192,192,71014,1,0,0:0:0:0:
448,192,71057,1,0,0:0:0:0:
320,192,71100,1,0,0:0:0:0:
64,192,71142,1,0,0:0:0:0:
192,192,71185,1,0,0:0:0:0:
320,192,71228,1,0,0:0:0:0:
64,192,71271,1,0,0:0:0:0:
448,192,71314,1,0,0:0:0:0:
320,192,71357,1,0,0:0:0:0:
64,192,71400,1,0,0:0:0:0:
192,192,71442,1,0,0:0:0:0:
448,192,71485,1,0,0:0:0:0:
320,192,71528,1,0,0:0:0:0:
192,192,71571,1,0,0:0:0:0:
448,192,71614,1,0,0:0:0:0:
64,192,71657,1,0,0:0:0:0:
192,192,71700,1,0,0:0:0:0:
448,192,71742,1,0,0:0:0:0:
320,192,71785,1,0,0:0:0:0:
64,192,71828,1,0,0:0:0:0:
192,192,71871,1,0,0:0:0:0:
320,192,71914,1,0,0:0:0:0:
64,192,71957,1,0,0:0:0:0:
448,192,72000,1,0,0:0:0:0:
320,192,72042,1,0,0:0:0:0:
64,192,72085,1,0,0:0:0:0:
192,192,72128,1,0,0:0:0:0:
448,192,72171,1,0,0:0:0:0:
320,192,72214,1,0,0:0:0:0:
192,192,72257,1,0,0:0:0:0:
448,192,72300,1,0,0:0:0:0:
64,192,72342,1,0,0:0:0:0:
192,192,72385,1,0,0:0:0:0:
448,192,72428,1,0,0:0:0:0:
320,192,72471,1,0,0:0:0:0:
64,192,72514,1,0,0:0:0:0:
192,192,72557,1,0,0:0:0:0:
320,192,72600,1,0,0:0:0:0:
64,192,72642,1,0,0:0:0:0:
448,192,72685,1,0,0:0:0:0:
320,192,72728,1,0,0:0:0:0:
64,192,72771,1,0,0:0:0:0:
192,192,72814,1,0,0:0:0:0:
448,192,72857,1,0,0:0:0:0:
320,192,72900,1,0,0:0:0:0:
192,192,72942,1,0,0:0:0:0:
448,192,72985,1,0,0:0:0:0:
64,192,73028,1,0,0:0:0:0:
192,192,73071,1,0,0:0:0:0:
448,192,73114,1,0,0:0:0:0:
320,192,73157,1,0,0:0:0:0:
64,192,73200,1,0,0:0:0:0:
192,192,73242,1,0,0:0:0:0:
320,192,73285,1,0,0:0:0:0:
64,192,73328,1,0,0:0:0:0:
448,192,73371,1,0,0:0:0:0:
320,192,73414,1,0,0:0:0:0:
64,192,73457,1,0,0:0:0:0:
192,192,73500,1,0,0:0:0:0:
448,192,73542,1,0,0:0:0:0:
320,192,73585,1,0,0:0:0:0:
192,192,73628,1,0,0:0:0:0:
448,192,73671,1,0,0:0:0:0:
320,192,73714,1,0,0:0:0:0:
192,192,73750,1,0,0:0:0:0:
64,192,73750,1,0,0:0:0:0:
448,192,73791,1,0,0:0:0:0:
320,192,73833,1,0,0:0:0:0:
192,192,73875,1,0,0:0:0:0:
64,192,73916,1,0,0:0:0:0:
448,192,73958,1,0,0:0:0:0:
320,192,74000,1,0,0:0:0:0:
192,192,74041,1,0,0:0:0:0:
64,192,74083,1,0,0:0:0:0:
320,192,74125,1,0,0:0:0:0:
448,192,74166,1,0,0:0:0:0:
64,192,74208,1,0,0:0:0:0:
192,192,74250,1,0,0:0:0:0:
320,192,74291,1,0,0:0:0:0:
448,192,74333,1,0,0:0:0:0:
64,192,74375,1,0,0:0:0:0:
192,192,74416,1,0,0:0:0:0:
448,192,74458,1,0,0:0:0:0:
320,192,74500,1,0,0:0:0:0:
192,192,74541,1,0,0:0:0:0:
64,192,74583,1,0,0:0:0:0:
448,192,74583,1,0,0:0:0:0:
320,192,74625,1,0,0:0:0:0:
192,192,74666,1,0,0:0:0:0:
64,192,74708,1,0,0:0:0:0:
448,192,74750,1,0,0:0:0:0:
320,192,74791,1,0,0:0:0:0:
192,192,74833,1,0,0:0:0:0:
448,192,74875,1,0,0:0:0:0:
64,192,74930,1,0,0:0:0:0:
192,192,74971,1,0,0:0:0:0:
320,192,75013,1,0,0:0:0:0:
448,192,75055,1,0,0:0:0:0:
64,192,75096,1,0,0:0:0:0:
192,192,75138,1,0,0:0:0:0:
320,192,75180,1,0,0:0:0:0:
64,192,75221,1,0,0:0:0:0:
448,192,75263,1,0,0:0:0:0:
320,192,75305,1,0,0:0:0:0:
192,192,75346,1,0,0:0:0:0:
64,192,75388,1,0,0:0:0:0:
448,192,75430,1,0,0:0:0:0:
320,192,75471,1,0,0:0:0:0:
192,192,75513,1,0,0:0:0:0:
448,192,75555,1,0,0:0:0:0:
64,192,75596,1,0,0:0:0:0:
192,192,75638,1,0,0:0:0:0:
320,192,75680,1,0,0:0:0:0:
448,192,75721,1,0,0:0:0:0:
64,192,75763,1,0,0:0:0:0:
192,192,75805,1,0,0:0:0:0:
320,192,75846,1,0,0:0:0:0:
64,192,75888,1,0,0:0:0:0:
448,192,75930,1,0,0:0:0:0:
320,192,75971,1,0,0:0:0:0:
192,192,76013,1,0,0:0:0:0:
64,192,76055,1,0,0:0:0:0:
448,192,76096,1,0,0:0:0:0:
320,192,76138,1,0,0:0:0:0:
192,192,76180,1,0,0:0:0:0:
448,192,76221,1,0,0:0:0:0:
64,192,76263,1,0,0:0:0:0:
192,192,76305,1,0,0:0:0:0:
320,192,76346,1,0,0:0:0:0:
448,192,76388,1,0,0:0:0:0:
64,192,76430,1,0,0:0:0:0:
192,192,76471,1,0,0:0:0:0:
320,192,76513,1,0,0:0:0:0:
64,192,76555,1,0,0:0:0:0:
448,192,76596,1,0,0:0:0:0:
320,192,76638,1,0,0:0:0:0:
192,192,76680,1,0,0:0:0:0:
64,192,76721,1,0,0:0:0:0:
448,192,76763,1,0,0:0:0:0:
320,192,76805,1,0,0:0:0:0:
192,192,76846,1,0,0:0:0:0:
448,192,76888,1,0,0:0:0:0:
64,192,76930,1,0,0:0:0:0:
192,192,76971,1,0,0:0:0:0:
320,192,77013,1,0,0:0:0:0:
448,192,77055,1,0,0:0:0:0:
64,192,77096,1,0,0:0:0:0:
192,192,77138,1,0,0:0:0:0:
320,192,77180,1,0,0:0:0:0:
64,192,77221,1,0,0:0:0:0:
448,192,77263,1,0,0:0:0:0:
320,192,77305,1,0,0:0:0:0:
192,192,77346,1,0,0:0:0:0:
64,192,77388,1,0,0:0:0:0:
448,192,77430,1,0,0:0:0:0:
320,192,77471,1,0,0:0:0:0:
192,192,77513,1,0,0:0:0:0:
448,192,77555,1,0,0:0:0:0:
64,192,77596,1,0,0:0:0:0:
192,192,77638,1,0,0:0:0:0:
320,192,77680,1,0,0:0:0:0:
448,192,77721,1,0,0:0:0:0:
64,192,77763,1,0,0:0:0:0:
192,192,77805,1,0,0:0:0:0:
320,192,77846,1,0,0:0:0:0:
64,192,77888,1,0,0:0:0:0:
448,192,77930,1,0,0:0:0:0:
320,192,77971,1,0,0:0:0:0:
192,192,78013,1,0,0:0:0:0:
64,192,78055,1,0,0:0:0:0:
448,192,78096,1,0,0:0:0:0:
320,192,78138,1,0,0:0:0:0:
192,192,78180,1,0,0:0:0:0:
448,192,78221,1,0,0:0:0:0:
64,192,78263,1,0,0:0:0:0:
192,192,78305,1,0,0:0:0:0:
320,192,78346,1,0,0:0:0:0:
448,192,78388,1,0,0:0:0:0:
64,192,78430,1,0,0:0:0:0:
192,192,78471,1,0,0:0:0:0:
320,192,78513,1,0,0:0:0:0:
64,192,78555,1,0,0:0:0:0:
448,192,78596,1,0,0:0:0:0:
320,192,78638,1,0,0:0:0:0:
192,192,78680,1,0,0:0:0:0:
64,192,78721,1,0,0:0:0:0:
448,192,78763,1,0,0:0:0:0:
320,192,78805,1,0,0:0:0:0:
192,192,78846,1,0,0:0:0:0:
448,192,78888,1,0,0:0:0:0:
64,192,78930,1,0,0:0:0:0:
192,192,79013,1,0,0:0:0:0:
320,192,79096,1,0,0:0:0:0:
448,192,79180,1,0,0:0:0:0:
64,192,79263,1,0,0:0:0:0:
192,192,79346,1,0,0:0:0:0:
320,192,79430,1,0,0:0:0:0:
448,192,79513,1,0,0:0:0:0:
64,192,79596,1,0,0:0:0:0:
192,192,79596,1,0,0:0:0:0:
64,192,79707,1,0,0:0:0:0:
192,192,79707,1,0,0:0:0:0:
64,192,79818,1,0,0:0:0:0:
192,192,79818,1,0,0:0:0:0:
448,192,79930,1,0,0:0:0:0:
320,192,79971,1,0,0:0:0:0:
192,192,80013,1,0,0:0:0:0:
64,192,80055,1,0,0:0:0:0:
448,192,80096,1,0,0:0:0:0:
320,192,80138,1,0,0:0:0:0:
192,192,80180,1,0,0:0:0:0:
64,192,80221,1,0,0:0:0:0:
448,192,80263,1,0,0:0:0:0:
320,192,80346,1,0,0:0:0:0:
64,192,80430,1,0,0:0:0:0:
192,192,80513,1,0,0:0:0:0:
320,192,80596,1,0,0:0:0:0:
448,192,80680,1,0,0:0:0:0:
192,192,80763,1,0,0:0:0:0:
320,192,80846,1,0,0:0:0:0:
448,192,80930,128,0,81096:0:0:0:0:
64,192,81096,1,0,0:0:0:0:
64,192,81180,1,0,0:0:0:0:
448,192,81263,1,0,0:0:0:0:
448,192,81346,1,0,0:0:0:0:
192,192,81430,128,0,81930:0:0:0:0:
64,192,81430,128,0,81930:0:0:0:0:
448,192,81930,1,0,0:0:0:0:
320,192,81930,1,0,0:0:0:0:
192,192,82013,1,0,0:0:0:0:
64,192,82096,1,0,0:0:0:0:
320,192,82179,1,0,0:0:0:0:
64,192,82263,1,0,0:0:0:0:
192,192,82263,1,0,0:0:0:0:
320,192,82346,1,0,0:0:0:0:
448,192,82429,1,0,0:0:0:0:
192,192,82513,1,0,0:0:0:0:
320,192,82596,1,0,0:0:0:0:
448,192,82596,1,0,0:0:0:0:
192,192,82679,1,0,0:0:0:0:
64,192,82763,1,0,0:0:0:0:
320,192,82846,1,0,0:0:0:0:
192,192,82929,1,0,0:0:0:0:
64,192,82929,1,0,0:0:0:0:
320,192,83013,1,0,0:0:0:0:
448,192,83096,1,0,0:0:0:0:
192,192,83179,1,0,0:0:0:0:
320,192,83263,1,0,0:0:0:0:
448,192,83263,1,0,0:0:0:0:
192,192,83346,1,0,0:0:0:0:
64,192,83429,1,0,0:0:0:0:
320,192,83513,1,0,0:0:0:0:
192,192,83596,1,0,0:0:0:0:
64,192,83596,1,0,0:0:0:0:
320,192,83679,1,0,0:0:0:0:
448,192,83763,1,0,0:0:0:0:
192,192,83846,1,0,0:0:0:0:
320,192,83929,1,0,0:0:0:0:
448,192,83929,1,0,0:0:0:0:
64,192,84013,1,0,0:0:0:0:
192,192,84096,1,0,0:0:0:0:
320,192,84179,1,0,0:0:0:0:
448,192,84263,128,0,85596:0:0:0:0:
64,192,84263,128,0,85596:0:0:0:0:
320,192,85596,1,0,0:0:0:0:
64,192,85929,1,0,0:0:0:0:
192,192,85929,1,0,0:0:0:0:
320,192,85929,1,0,0:0:0:0:
448,192,85929,1,0,0:0:0:0:
64,192,86263,1,0,0:0:0:0:
192,192,86263,1,0,0:0:0:0:
320,192,86263,1,0,0:0:0:0:
448,192,86263,1,0,0:0:0:0:
64,192,86596,1,0,0:0:0:0:
192,192,86596,1,0,0:0:0:0:
448,192,86596,1,0,0:0:0:0:
320,192,86596,1,0,0:0:0:0:
448,192,86929,1,0,0:0:0:0:
64,192,86929,1,0,0:0:0:0:
320,192,87013,1,0,0:0:0:0:
192,192,87096,1,0,0:0:0:0:
64,192,87096,1,0,0:0:0:0:
320,192,87180,1,0,0:0:0:0:
448,192,87180,1,0,0:0:0:0:
64,192,87263,1,0,0:0:0:0:
192,192,87346,1,0,0:0:0:0:
320,192,87346,1,0,0:0:0:0:
64,192,87430,1,0,0:0:0:0:
448,192,87430,1,0,0:0:0:0:
320,192,87513,1,0,0:0:0:0:
192,192,87596,1,0,0:0:0:0:
64,192,87596,1,0,0:0:0:0:
448,192,87680,1,0,0:0:0:0:
192,192,87763,1,0,0:0:0:0:
320,192,87763,1,0,0:0:0:0:
64,192,87846,1,0,0:0:0:0:
448,192,87846,1,0,0:0:0:0:
192,192,87930,1,0,0:0:0:0:
320,192,88013,1,0,0:0:0:0:
448,192,88013,1,0,0:0:0:0:
192,192,88096,1,0,0:0:0:0:
64,192,88096,1,0,0:0:0:0:
320,192,88180,1,0,0:0:0:0:
64,192,88263,1,0,0:0:0:0:
448,192,88263,1,0,0:0:0:0:
192,192,88346,1,0,0:0:0:0:
320,192,88430,1,0,0:0:0:0:
64,192,88430,1,0,0:0:0:0:
192,192,88513,1,0,0:0:0:0:
448,192,88513,1,0,0:0:0:0:
320,192,88596,1,0,0:0:0:0:
64,192,88680,1,0,0:0:0:0:
192,192,88680,1,0,0:0:0:0:
320,192,88763,1,0,0:0:0:0:
448,192,88763,1,0,0:0:0:0:
64,192,88846,1,0,0:0:0:0:
192,192,88930,1,0,0:0:0:0:
448,192,88930,1,0,0:0:0:0:
320,192,89013,1,0,0:0:0:0:
64,192,89096,1,0,0:0:0:0:
448,192,89096,1,0,0:0:0:0:
192,192,89180,1,0,0:0:0:0:
320,192,89180,1,0,0:0:0:0:
64,192,89263,1,0,0:0:0:0:
448,192,89346,1,0,0:0:0:0:
320,192,89346,1,0,0:0:0:0:
192,192,89430,1,0,0:0:0:0:
64,192,89430,1,0,0:0:0:0:
448,192,89513,1,0,0:0:0:0:
64,192,89596,1,0,0:0:0:0:
192,192,89596,1,0,0:0:0:0:
320,192,89680,1,0,0:0:0:0:
448,192,89763,1,0,0:0:0:0:
192,192,89763,1,0,0:0:0:0:
320,192,89846,1,0,0:0:0:0:
64,192,89846,1,0,0:0:0:0:
448,192,89930,1,0,0:0:0:0:
64,192,90013,1,0,0:0:0:0:
192,192,90013,1,0,0:0:0:0:
320,192,90096,1,0,0:0:0:0:
448,192,90096,1,0,0:0:0:0:
192,192,90180,1,0,0:0:0:0:
320,192,90263,1,0,0:0:0:0:
64,192,90263,1,0,0:0:0:0:
448,192,90346,1,0,0:0:0:0:
192,192,90430,1,0,0:0:0:0:
64,192,90430,1,0,0:0:0:0:
320,192,90513,1,0,0:0:0:0:
448,192,90513,1,0,0:0:0:0:
192,192,90596,1,0,0:0:0:0:
64,192,90680,1,0,0:0:0:0:
448,192,90680,1,0,0:0:0:0:
192,192,90763,1,0,0:0:0:0:
320,192,90763,1,0,0:0:0:0:
448,192,90846,1,0,0:0:0:0:
64,192,90930,1,0,0:0:0:0:
192,192,90930,1,0,0:0:0:0:
320,192,91013,1,0,0:0:0:0:
448,192,91096,1,0,0:0:0:0:
64,192,91096,1,0,0:0:0:0:
192,192,91180,1,0,0:0:0:0:
320,192,91180,1,0,0:0:0:0:
448,192,91263,1,0,0:0:0:0:
192,192,91346,1,0,0:0:0:0:
64,192,91346,1,0,0:0:0:0:
320,192,91430,1,0,0:0:0:0:
448,192,91430,1,0,0:0:0:0:
64,192,91513,1,0,0:0:0:0:
192,192,91596,1,0,0:0:0:0:
448,192,91596,1,0,0:0:0:0:
320,192,91680,1,0,0:0:0:0:
64,192,91763,1,0,0:0:0:0:
192,192,91763,1,0,0:0:0:0:
320,192,91846,1,0,0:0:0:0:
448,192,91846,1,0,0:0:0:0:
64,192,91930,1,0,0:0:0:0:
192,192,92013,1,0,0:0:0:0:
448,192,92013,1,0,0:0:0:0:
320,192,92096,1,0,0:0:0:0:
64,192,92096,1,0,0:0:0:0:
448,192,92180,1,0,0:0:0:0:
64,192,92263,1,0,0:0:0:0:
192,192,92263,1,0,0:0:0:0:
320,192,92346,1,0,0:0:0:0:
448,192,92430,1,0,0:0:0:0:
192,192,92430,1,0,0:0:0:0:
320,192,92513,1,0,0:0:0:0:
64,192,92513,1,0,0:0:0:0:
448,192,92596,1,0,0:0:0:0:
192,192,92680,1,0,0:0:0:0:
64,192,92680,1,0,0:0:0:0:
320,192,92763,1,0,0:0:0:0:
448,192,92763,1,0,0:0:0:0:
192,192,92846,1,0,0:0:0:0:
320,192,92930,1,0,0:0:0:0:
64,192,92930,1,0,0:0:0:0:
448,192,93013,1,0,0:0:0:0:
192,192,93096,1,0,0:0:0:0:
320,192,93096,1,0,0:0:0:0:
64,192,93180,1,0,0:0:0:0:
448,192,93180,1,0,0:0:0:0:
192,192,93263,1,0,0:0:0:0:
320,192,93346,1,0,0:0:0:0:
448,192,93346,1,0,0:0:0:0:
192,192,93430,1,0,0:0:0:0:
64,192,93430,1,0,0:0:0:0:
320,192,93513,1,0,0:0:0:0:
448,192,93596,1,0,0:0:0:0:
64,192,93596,1,0,0:0:0:0:
192,192,93680,1,0,0:0:0:0:
320,192,93763,1,0,0:0:0:0:
448,192,93763,1,0,0:0:0:0:
192,192,93846,1,0,0:0:0:0:
64,192,93846,1,0,0:0:0:0:
320,192,93930,1,0,0:0:0:0:
448,192,94013,1,0,0:0:0:0:
64,192,94013,1,0,0:0:0:0:
192,192,94096,1,0,0:0:0:0:
320,192,94096,1,0,0:0:0:0:
64,192,94179,1,0,0:0:0:0:
192,192,94263,1,0,0:0:0:0:
448,192,94263,1,0,0:0:0:0:
320,192,94346,1,0,0:0:0:0:
64,192,94429,1,0,0:0:0:0:
192,192,94429,1,0,0:0:0:0:
320,192,94513,1,0,0:0:0:0:
448,192,94513,1,0,0:0:0:0:
64,192,94596,1,0,0:0:0:0:
192,192,94679,1,0,0:0:0:0:
320,192,94679,1,0,0:0:0:0:
64,192,94763,1,0,0:0:0:0:
448,192,94763,1,0,0:0:0:0:
192,192,94846,1,0,0:0:0:0:
448,192,94929,1,0,0:0:0:0:
320,192,94929,1,0,0:0:0:0:
64,192,95013,1,0,0:0:0:0:
192,192,95013,1,0,0:0:0:0:
320,192,95096,1,0,0:0:0:0:
448,192,95096,1,0,0:0:0:0:
192,192,95179,1,0,0:0:0:0:
64,192,95179,1,0,0:0:0:0:
320,192,95263,1,0,0:0:0:0:
448,192,95263,1,0,0:0:0:0:
192,192,95346,1,0,0:0:0:0:
64,192,95346,1,0,0:0:0:0:
320,192,95429,1,0,0:0:0:0:
448,192,95429,1,0,0:0:0:0:
192,192,95513,1,0,0:0:0:0:
448,192,95596,128,0,96096:0:0:0:0:
64,192,95596,128,0,96263:0:0:0:0:
320,192,95596,1,0,0:0:0:0:
192,192,95679,1,0,0:0:0:0:
320,192,95763,1,0,0:0:0:0:
192,192,95846,1,0,0:0:0:0:
320,192,95929,1,0,0:0:0:0:
192,192,96013,1,0,0:0:0:0:
320,192,96096,1,0,0:0:0:0:
192,192,96179,1,0,0:0:0:0:
320,192,96263,1,0,0:0:0:0:
448,192,96263,1,0,0:0:0:0:
320,192,96346,1,0,0:0:0:0:
448,192,96346,1,0,0:0:0:0:
320,192,96429,1,0,0:0:0:0:
448,192,96429,1,0,0:0:0:0:
320,192,96513,1,0,0:0:0:0:
448,192,96513,1,0,0:0:0:0:
320,192,96596,1,0,0:0:0:0:
448,192,96596,1,0,0:0:0:0:
320,192,96679,1,0,0:0:0:0:
448,192,96679,1,0,0:0:0:0:
320,192,96763,1,0,0:0:0:0:
448,192,96763,1,0,0:0:0:0:
320,192,96846,1,0,0:0:0:0:
448,192,96846,1,0,0:0:0:0:
320,192,96929,1,0,0:0:0:0:
448,192,96929,1,0,0:0:0:0:
192,192,96929,1,0,0:0:0:0:
64,192,96929,1,0,0:0:0:0:
64,192,97179,1,0,0:0:0:0:
320,192,97179,1,0,0:0:0:0:
448,192,97179,1,0,0:0:0:0:
192,192,97179,1,0,0:0:0:0:
64,192,97429,1,0,0:0:0:0:
192,192,97429,1,0,0:0:0:0:
320,192,97429,1,0,0:0:0:0:
448,192,97429,1,0,0:0:0:0:
448,192,97596,128,0,97856:0:0:0:0:
64,192,97606,128,0,97856:0:0:0:0:
192,192,97855,1,0,0:0:0:0:
320,192,97855,1,0,0:0:0:0:
448,192,97936,1,0,0:0:0:0:
64,192,98017,1,0,0:0:0:0:
192,192,98098,1,0,0:0:0:0:
448,192,98179,1,0,0:0:0:0:
320,192,98179,1,0,0:0:0:0:
64,192,98260,1,0,0:0:0:0:
192,192,98341,1,0,0:0:0:0:
320,192,98422,1,0,0:0:0:0:
448,192,98422,1,0,0:0:0:0:
192,192,98503,1,0,0:0:0:0:
64,192,98584,1,0,0:0:0:0:
320,192,98665,1,0,0:0:0:0:
448,192,98665,1,0,0:0:0:0:
192,192,98746,1,0,0:0:0:0:
64,192,98827,1,0,0:0:0:0:
448,192,98827,1,0,0:0:0:0:
320,192,98909,1,0,0:0:0:0:
192,192,98990,1,0,0:0:0:0:
64,192,99071,1,0,0:0:0:0:
192,192,99152,1,0,0:0:0:0:
320,192,99152,1,0,0:0:0:0:
448,192,99233,1,0,0:0:0:0:
64,192,99314,1,0,0:0:0:0:
448,192,99395,1,0,0:0:0:0:
64,192,99476,1,0,0:0:0:0:
192,192,99476,1,0,0:0:0:0:
448,192,99557,1,0,0:0:0:0:
320,192,99638,1,0,0:0:0:0:
64,192,99719,1,0,0:0:0:0:
192,192,99719,1,0,0:0:0:0:
448,192,99800,1,0,0:0:0:0:
320,192,99882,1,0,0:0:0:0:
64,192,99963,1,0,0:0:0:0:
192,192,99963,1,0,0:0:0:0:
320,192,100044,1,0,0:0:0:0:
448,192,100125,1,0,0:0:0:0:
64,192,100125,1,0,0:0:0:0:
320,192,100287,1,0,0:0:0:0:
448,192,100287,1,0,0:0:0:0:
64,192,100368,1,0,0:0:0:0:
192,192,100368,1,0,0:0:0:0:
64,192,100530,1,0,0:0:0:0:
192,192,100530,1,0,0:0:0:0:
320,192,100611,1,0,0:0:0:0:
448,192,100611,1,0,0:0:0:0:
64,192,100773,1,0,0:0:0:0:
448,192,100773,1,0,0:0:0:0:
192,192,100936,1,0,0:0:0:0:
448,192,100936,1,0,0:0:0:0:
64,192,101017,1,0,0:0:0:0:
320,192,101017,1,0,0:0:0:0:
64,192,101179,1,0,0:0:0:0:
320,192,101179,1,0,0:0:0:0:
192,192,101260,1,0,0:0:0:0:
448,192,101260,1,0,0:0:0:0:
192,192,101422,1,0,0:0:0:0:
320,192,101422,1,0,0:0:0:0:
192,192,101584,1,0,0:0:0:0:
64,192,101584,1,0,0:0:0:0:
320,192,101665,1,0,0:0:0:0:
448,192,101665,1,0,0:0:0:0:
320,192,101827,1,0,0:0:0:0:
448,192,101827,1,0,0:0:0:0:
192,192,101909,1,0,0:0:0:0:
64,192,101909,1,0,0:0:0:0:
448,192,102071,1,0,0:0:0:0:
64,192,102071,1,0,0:0:0:0:
64,192,102233,1,0,0:0:0:0:
320,192,102233,1,0,0:0:0:0:
192,192,102314,1,0,0:0:0:0:
448,192,102314,1,0,0:0:0:0:
192,192,102476,1,0,0:0:0:0:
448,192,102476,1,0,0:0:0:0:
320,192,102557,1,0,0:0:0:0:
64,192,102557,1,0,0:0:0:0:
64,192,102719,1,0,0:0:0:0:
448,192,102719,1,0,0:0:0:0:
192,192,102800,1,0,0:0:0:0:
320,192,102882,1,0,0:0:0:0:
64,192,102963,1,0,0:0:0:0:
448,192,102963,1,0,0:0:0:0:
192,192,103044,1,0,0:0:0:0:
320,192,103125,1,0,0:0:0:0:
64,192,103206,1,0,0:0:0:0:
448,192,103206,1,0,0:0:0:0:
192,192,103287,1,0,0:0:0:0:
448,192,103368,1,0,0:0:0:0:
64,192,103368,1,0,0:0:0:0:
320,192,103449,1,0,0:0:0:0:
192,192,103530,1,0,0:0:0:0:
448,192,103611,1,0,0:0:0:0:
64,192,103611,1,0,0:0:0:0:
320,192,103692,1,0,0:0:0:0:
192,192,103773,1,0,0:0:0:0:
448,192,103855,1,0,0:0:0:0:
320,192,103855,1,0,0:0:0:0:
64,192,103936,1,0,0:0:0:0:
320,192,104017,1,0,0:0:0:0:
448,192,104017,1,0,0:0:0:0:
192,192,104098,1,0,0:0:0:0:
64,192,104179,1,0,0:0:0:0:
320,192,104260,1,0,0:0:0:0:
192,192,104260,1,0,0:0:0:0:
448,192,104341,1,0,0:0:0:0:
320,192,104422,1,0,0:0:0:0:
192,192,104503,1,0,0:0:0:0:
64,192,104503,1,0,0:0:0:0:
320,192,104584,1,0,0:0:0:0:
448,192,104665,1,0,0:0:0:0:
192,192,104746,1,0,0:0:0:0:
320,192,104746,1,0,0:0:0:0:
64,192,104827,1,0,0:0:0:0:
192,192,104909,1,0,0:0:0:0:
320,192,104990,1,0,0:0:0:0:
448,192,104990,1,0,0:0:0:0:
64,192,105071,1,0,0:0:0:0:
320,192,105152,1,0,0:0:0:0:
448,192,105152,1,0,0:0:0:0:
192,192,105233,1,0,0:0:0:0:
64,192,105314,1,0,0:0:0:0:
448,192,105314,1,0,0:0:0:0:
192,192,105395,1,0,0:0:0:0:
320,192,105395,1,0,0:0:0:0:
64,192,105476,1,0,0:0:0:0:
448,192,105476,1,0,0:0:0:0:
192,192,105557,1,0,0:0:0:0:
320,192,105557,1,0,0:0:0:0:
64,192,105638,1,0,0:0:0:0:
448,192,105638,1,0,0:0:0:0:
192,192,105719,1,0,0:0:0:0:
320,192,105719,1,0,0:0:0:0:
64,192,105800,1,0,0:0:0:0:
448,192,105800,1,0,0:0:0:0:
192,192,105882,1,0,0:0:0:0:
320,192,105882,1,0,0:0:0:0:
448,192,105963,1,0,0:0:0:0:
64,192,106003,1,0,0:0:0:0:
320,192,106044,1,0,0:0:0:0:
192,192,106084,1,0,0:0:0:0:
64,192,106125,1,0,0:0:0:0:
448,192,106165,1,0,0:0:0:0:
192,192,106206,1,0,0:0:0:0:
320,192,106246,1,0,0:0:0:0:
64,192,106287,1,0,0:0:0:0:
448,192,106327,1,0,0:0:0:0:
320,192,106368,1,0,0:0:0:0:
192,192,106409,1,0,0:0:0:0:
448,192,106449,1,0,0:0:0:0:
64,192,106490,1,0,0:0:0:0:
192,192,106530,1,0,0:0:0:0:
320,192,106571,1,0,0:0:0:0:
64,192,106611,1,0,0:0:0:0:
192,192,106652,1,0,0:0:0:0:
320,192,106692,1,0,0:0:0:0:
448,192,106733,1,0,0:0:0:0:
64,192,106773,1,0,0:0:0:0:
192,192,106814,1,0,0:0:0:0:
448,192,106854,1,0,0:0:0:0:
320,192,106895,1,0,0:0:0:0:
192,192,106936,1,0,0:0:0:0:
64,192,106976,1,0,0:0:0:0:
448,192,107017,1,0,0:0:0:0:
320,192,107057,1,0,0:0:0:0:
192,192,107098,1,0,0:0:0:0:
320,192,107138,1,0,0:0:0:0:
448,192,107179,1,0,0:0:0:0:
64,192,107219,1,0,0:0:0:0:
192,192,107260,1,0,0:0:0:0:
448,192,107260,1,0,0:0:0:0:
320,192,107260,1,0,0:0:0:0:
448,192,107476,1,0,0:0:0:0:
320,192,107476,1,0,0:0:0:0:
64,192,107476,1,0,0:0:0:0:
448,192,107746,1,0,0:0:0:0:
192,192,107746,1,0,0:0:0:0:
64,192,107746,1,0,0:0:0:0:
320,192,107909,1,0,0:0:0:0:
448,192,107909,1,0,0:0:0:0:
64,192,107909,1,0,0:0:0:0:
64,192,108233,1,0,0:0:0:0:
192,192,108233,1,0,0:0:0:0:
320,192,108314,1,0,0:0:0:0:
448,192,108395,1,0,0:0:0:0:
320,192,108476,1,0,0:0:0:0:
192,192,108557,1,0,0:0:0:0:
448,192,108638,1,0,0:0:0:0:
320,192,108719,1,0,0:0:0:0:
448,192,108800,1,0,0:0:0:0:
192,192,108882,1,0,0:0:0:0:
320,192,108963,1,0,0:0:0:0:
448,192,109044,1,0,0:0:0:0:
320,192,109125,1,0,0:0:0:0:
192,192,109206,1,0,0:0:0:0:
448,192,109287,1,0,0:0:0:0:
320,192,109368,1,0,0:0:0:0:
448,192,109449,1,0,0:0:0:0:
64,192,109530,1,0,0:0:0:0:
192,192,109611,1,0,0:0:0:0:
320,192,109692,1,0,0:0:0:0:
448,192,109773,1,0,0:0:0:0:
64,192,109854,1,0,0:0:0:0:
64,192,112323,1,0,0:0:0:0:
192,192,112323,1,0,0:0:0:0:
320,192,112323,1,0,0:0:0:0:
448,192,112323,1,0,0:0:0:0:
64,192,112563,1,0,0:0:0:0:
192,192,112563,1,0,0:0:0:0:
320,192,112623,1,0,0:0:0:0:
448,192,112623,1,0,0:0:0:0:
64,192,112683,1,0,0:0:0:0:
192,192,112683,1,0,0:0:0:0:
320,192,112743,1,0,0:0:0:0:
448,192,112743,1,0,0:0:0:0:
64,192,112803,1,0,0:0:0:0:
192,192,112803,1,0,0:0:0:0:
320,192,112863,1,0,0:0:0:0:
448,192,112863,1,0,0:0:0:0:
64,192,112923,1,0,0:0:0:0:
192,192,112923,1,0,0:0:0:0:
320,192,112983,1,0,0:0:0:0:
448,192,112983,1,0,0:0:0:0:
64,192,113043,1,0,0:0:0:0:
192,192,113043,1,0,0:0:0:0:
320,192,113103,1,0,0:0:0:0:
448,192,113103,1,0,0:0:0:0:
64,192,113163,1,0,0:0:0:0:
192,192,113163,1,0,0:0:0:0:
320,192,113223,1,0,0:0:0:0:
448,192,113223,1,0,0:0:0:0:
64,192,113283,1,0,0:0:0:0:
192,192,113313,1,0,0:0:0:0:
320,192,113343,1,0,0:0:0:0:
448,192,113373,1,0,0:0:0:0:
64,192,113403,1,0,0:0:0:0:
192,192,113433,1,0,0:0:0:0:
320,192,113463,1,0,0:0:0:0:
448,192,113493,1,0,0:0:0:0:
64,192,113523,1,0,0:0:0:0:
192,192,113523,1,0,0:0:0:0:
320,192,113583,1,0,0:0:0:0:
448,192,113583,1,0,0:0:0:0:
64,192,113643,1,0,0:0:0:0:
192,192,113643,1,0,0:0:0:0:
320,192,113703,1,0,0:0:0:0:
448,192,113703,1,0,0:0:0:0:
64,192,113763,1,0,0:0:0:0:
192,192,113763,1,0,0:0:0:0:
320,192,113823,1,0,0:0:0:0:
448,192,113823,1,0,0:0:0:0:
64,192,113883,1,0,0:0:0:0:
192,192,113883,1,0,0:0:0:0:
320,192,113943,1,0,0:0:0:0:
448,192,113943,1,0,0:0:0:0:
64,192,114003,1,0,0:0:0:0:
192,192,114003,1,0,0:0:0:0:
320,192,114063,1,0,0:0:0:0:
448,192,114063,1,0,0:0:0:0:
64,192,114123,1,0,0:0:0:0:
192,192,114123,1,0,0:0:0:0:
320,192,114183,1,0,0:0:0:0:
448,192,114183,1,0,0:0:0:0:
64,192,114243,1,0,0:0:0:0:
192,192,114273,1,0,0:0:0:0:
320,192,114303,1,0,0:0:0:0:
448,192,114333,1,0,0:0:0:0:
64,192,114363,1,0,0:0:0:0:
192,192,114393,1,0,0:0:0:0:
320,192,114423,1,0,0:0:0:0:
448,192,114453,1,0,0:0:0:0:
192,192,114483,1,0,0:0:0:0:
64,192,114483,1,0,0:0:0:0:
320,192,114543,1,0,0:0:0:0:
448,192,114543,1,0,0:0:0:0:
192,192,114603,1,0,0:0:0:0:
64,192,114603,1,0,0:0:0:0:
320,192,114663,1,0,0:0:0:0:
448,192,114663,1,0,0:0:0:0:
64,192,114723,1,0,0:0:0:0:
192,192,114723,1,0,0:0:0:0:
320,192,114783,1,0,0:0:0:0:
448,192,114783,1,0,0:0:0:0:
192,192,114843,1,0,0:0:0:0:
64,192,114843,1,0,0:0:0:0:
320,192,114903,1,0,0:0:0:0:
448,192,114903,1,0,0:0:0:0:
64,192,114963,1,0,0:0:0:0:
192,192,114963,1,0,0:0:0:0:
320,192,115023,1,0,0:0:0:0:
448,192,115023,1,0,0:0:0:0:
192,192,115083,1,0,0:0:0:0:
64,192,115083,1,0,0:0:0:0:
320,192,115143,1,0,0:0:0:0:
448,192,115143,1,0,0:0:0:0:
64,192,115203,1,0,0:0:0:0:
192,192,115233,1,0,0:0:0:0:
320,192,115263,1,0,0:0:0:0:
448,192,115293,1,0,0:0:0:0:
64,192,115323,1,0,0:0:0:0:
192,192,115353,1,0,0:0:0:0:
320,192,115383,1,0,0:0:0:0:
448,192,115413,1,0,0:0:0:0:
192,192,115443,1,0,0:0:0:0:
64,192,115443,1,0,0:0:0:0:
320,192,115503,1,0,0:0:0:0:
448,192,115503,1,0,0:0:0:0:
192,192,115563,1,0,0:0:0:0:
64,192,115563,1,0,0:0:0:0:
320,192,115623,1,0,0:0:0:0:
448,192,115623,1,0,0:0:0:0:
192,192,115683,1,0,0:0:0:0:
64,192,115683,1,0,0:0:0:0:
320,192,115743,1,0,0:0:0:0:
448,192,115743,1,0,0:0:0:0:
192,192,115803,1,0,0:0:0:0:
64,192,115803,1,0,0:0:0:0:
320,192,115863,1,0,0:0:0:0:
448,192,115863,1,0,0:0:0:0:
192,192,115923,1,0,0:0:0:0:
64,192,115923,1,0,0:0:0:0:
448,192,116043,1,0,0:0:0:0:
64,192,116043,1,0,0:0:0:0:
192,192,116103,1,0,0:0:0:0:
320,192,116103,1,0,0:0:0:0:
320,192,116223,1,0,0:0:0:0:
192,192,116223,1,0,0:0:0:0:
64,192,116283,1,0,0:0:0:0:
448,192,116283,1,0,0:0:0:0:
64,192,116403,1,0,0:0:0:0:
192,192,116403,1,0,0:0:0:0:
320,192,116463,1,0,0:0:0:0:
448,192,116463,1,0,0:0:0:0:
192,192,116523,1,0,0:0:0:0:
64,192,116523,1,0,0:0:0:0:
320,192,116583,1,0,0:0:0:0:
448,192,116583,1,0,0:0:0:0:
192,192,116643,1,0,0:0:0:0:
64,192,116643,1,0,0:0:0:0:
320,192,116703,1,0,0:0:0:0:
448,192,116703,1,0,0:0:0:0:
192,192,116763,1,0,0:0:0:0:
64,192,116763,1,0,0:0:0:0:
320,192,116823,1,0,0:0:0:0:
448,192,116823,1,0,0:0:0:0:
192,192,116883,1,0,0:0:0:0:
64,192,116883,1,0,0:0:0:0:
320,192,116943,1,0,0:0:0:0:
448,192,116943,1,0,0:0:0:0:
192,192,117003,1,0,0:0:0:0:
64,192,117003,1,0,0:0:0:0:
320,192,117063,1,0,0:0:0:0:
448,192,117063,1,0,0:0:0:0:
64,192,117123,1,0,0:0:0:0:
192,192,117153,1,0,0:0:0:0:
320,192,117183,1,0,0:0:0:0:
448,192,117213,1,0,0:0:0:0:
64,192,117243,1,0,0:0:0:0:
192,192,117273,1,0,0:0:0:0:
320,192,117303,1,0,0:0:0:0:
448,192,117333,1,0,0:0:0:0:
192,192,117363,1,0,0:0:0:0:
64,192,117363,1,0,0:0:0:0:
320,192,117423,1,0,0:0:0:0:
448,192,117423,1,0,0:0:0:0:
64,192,117483,1,0,0:0:0:0:
192,192,117483,1,0,0:0:0:0:
320,192,117543,1,0,0:0:0:0:
448,192,117543,1,0,0:0:0:0:
64,192,117603,1,0,0:0:0:0:
192,192,117603,1,0,0:0:0:0:
320,192,117663,1,0,0:0:0:0:
448,192,117663,1,0,0:0:0:0:
192,192,117723,1,0,0:0:0:0:
64,192,117723,1,0,0:0:0:0:
320,192,117783,1,0,0:0:0:0:
448,192,117783,1,0,0:0:0:0:
192,192,117843,1,0,0:0:0:0:
64,192,117843,1,0,0:0:0:0:
320,192,117903,1,0,0:0:0:0:
448,192,117903,1,0,0:0:0:0:
64,192,117963,1,0,0:0:0:0:
192,192,117963,1,0,0:0:0:0:
448,192,118023,1,0,0:0:0:0:
320,192,118023,1,0,0:0:0:0:
64,192,118083,1,0,0:0:0:0:
192,192,118113,1,0,0:0:0:0:
320,192,118143,1,0,0:0:0:0:
448,192,118173,1,0,0:0:0:0:
64,192,118203,1,0,0:0:0:0:
192,192,118233,1,0,0:0:0:0:
320,192,118263,1,0,0:0:0:0:
448,192,118293,1,0,0:0:0:0:
64,192,118323,1,0,0:0:0:0:
192,192,118323,1,0,0:0:0:0:
448,192,118383,1,0,0:0:0:0:
320,192,118383,1,0,0:0:0:0:
192,192,118443,1,0,0:0:0:0:
64,192,118443,1,0,0:0:0:0:
320,192,118503,1,0,0:0:0:0:
448,192,118503,1,0,0:0:0:0:
64,192,118563,1,0,0:0:0:0:
192,192,118563,1,0,0:0:0:0:
320,192,118623,1,0,0:0:0:0:
448,192,118623,1,0,0:0:0:0:
192,192,118683,1,0,0:0:0:0:
64,192,118683,1,0,0:0:0:0:
320,192,118743,1,0,0:0:0:0:
448,192,118743,1,0,0:0:0:0:
192,192,118803,1,0,0:0:0:0:
64,192,118803,1,0,0:0:0:0:
320,192,118863,1,0,0:0:0:0:
448,192,118863,1,0,0:0:0:0:
192,192,118923,1,0,0:0:0:0:
64,192,118923,1,0,0:0:0:0:
320,192,118983,1,0,0:0:0:0:
448,192,118983,1,0,0:0:0:0:
192,192,119043,1,0,0:0:0:0:
64,192,119043,1,0,0:0:0:0:
320,192,119103,1,0,0:0:0:0:
448,192,119103,1,0,0:0:0:0:
192,192,119163,1,0,0:0:0:0:
64,192,119163,1,0,0:0:0:0:
320,192,119223,1,0,0:0:0:0:
448,192,119223,1,0,0:0:0:0:
448,192,119283,1,0,0:0:0:0:
320,192,119283,1,0,0:0:0:0:
192,192,119283,1,0,0:0:0:0:
64,192,119283,1,0,0:0:0:0:
64,192,120243,1,0,0:0:0:0:
448,192,120243,1,0,0:0:0:0:
192,192,120483,1,0,0:0:0:0:
320,192,120483,1,0,0:0:0:0:
64,192,120723,1,0,0:0:0:0:
448,192,120723,1,0,0:0:0:0:
192,192,120963,1,0,0:0:0:0:
320,192,120963,1,0,0:0:0:0:
448,192,121230,1,0,0:0:0:0:
64,192,121230,1,0,0:0:0:0:
320,192,121350,1,0,0:0:0:0:
192,192,121350,1,0,0:0:0:0:
448,192,121410,1,0,0:0:0:0:
192,192,121470,1,0,0:0:0:0:
320,192,121470,1,0,0:0:0:0:
64,192,121591,1,0,0:0:0:0:
448,192,121591,1,0,0:0:0:0:
192,192,121711,1,0,0:0:0:0:
320,192,121711,1,0,0:0:0:0:
64,192,121772,1,0,0:0:0:0:
192,192,121832,1,0,0:0:0:0:
320,192,121832,1,0,0:0:0:0:
64,192,121952,1,0,0:0:0:0:
320,192,121952,1,0,0:0:0:0:
448,192,122073,1,0,0:0:0:0:
192,192,122073,1,0,0:0:0:0:
64,192,122193,1,0,0:0:0:0:
192,192,122223,1,0,0:0:0:0:
320,192,122254,1,0,0:0:0:0:
64,192,122284,1,0,0:0:0:0:
448,192,122314,1,0,0:0:0:0:
192,192,122314,1,0,0:0:0:0:
320,192,122434,1,0,0:0:0:0:
192,192,122464,1,0,0:0:0:0:
448,192,122495,1,0,0:0:0:0:
64,192,122525,1,0,0:0:0:0:
192,192,122555,1,0,0:0:0:0:
320,192,122555,1,0,0:0:0:0:
448,192,122675,1,0,0:0:0:0:
64,192,122705,1,0,0:0:0:0:
320,192,122736,1,0,0:0:0:0:
192,192,122766,1,0,0:0:0:0:
448,192,122796,1,0,0:0:0:0:
64,192,122796,1,0,0:0:0:0:
192,192,122916,1,0,0:0:0:0:
320,192,122946,1,0,0:0:0:0:
64,192,122976,1,0,0:0:0:0:
448,192,123007,1,0,0:0:0:0:
192,192,123037,1,0,0:0:0:0:
320,192,123037,1,0,0:0:0:0:
64,192,123157,1,0,0:0:0:0:
448,192,123157,1,0,0:0:0:0:
192,192,123278,1,0,0:0:0:0:
64,192,123278,1,0,0:0:0:0:
320,192,123338,1,0,0:0:0:0:
192,192,123398,1,0,0:0:0:0:
448,192,123398,1,0,0:0:0:0:
448,192,123519,1,0,0:0:0:0:
64,192,123519,1,0,0:0:0:0:
320,192,123639,1,0,0:0:0:0:
448,192,123639,1,0,0:0:0:0:
192,192,123699,1,0,0:0:0:0:
64,192,123760,1,0,0:0:0:0:
320,192,123760,1,0,0:0:0:0:
448,192,123880,1,0,0:0:0:0:
192,192,123880,1,0,0:0:0:0:
64,192,124001,1,0,0:0:0:0:
320,192,124001,1,0,0:0:0:0:
192,192,124061,1,0,0:0:0:0:
64,192,124121,1,0,0:0:0:0:
448,192,124121,1,0,0:0:0:0:
192,192,124181,1,0,0:0:0:0:
320,192,124242,1,0,0:0:0:0:
448,192,124242,1,0,0:0:0:0:
64,192,124362,128,0,124603:0:0:0:0:
192,192,124362,128,0,124483:0:0:0:0:
448,192,124483,1,0,0:0:0:0:
320,192,124603,128,0,124844:0:0:0:0:
448,192,124603,1,0,0:0:0:0:
192,192,124603,1,0,0:0:0:0:
64,192,124723,1,0,0:0:0:0:
192,192,124844,128,0,125085:0:0:0:0:
64,192,124844,1,0,0:0:0:0:
448,192,124844,1,0,0:0:0:0:
320,192,124964,1,0,0:0:0:0:
448,192,125025,1,0,0:0:0:0:
64,192,125085,1,0,0:0:0:0:
320,192,125085,1,0,0:0:0:0:
448,192,125205,1,0,0:0:0:0:
320,192,125205,1,0,0:0:0:0:
192,192,125266,1,0,0:0:0:0:
320,192,125326,1,0,0:0:0:0:
448,192,125326,1,0,0:0:0:0:
64,192,125446,1,0,0:0:0:0:
192,192,125567,1,0,0:0:0:0:
320,192,125567,1,0,0:0:0:0:
448,192,125627,1,0,0:0:0:0:
320,192,125687,1,0,0:0:0:0:
192,192,125687,1,0,0:0:0:0:
448,192,125808,1,0,0:0:0:0:
64,192,125808,1,0,0:0:0:0:
320,192,125928,1,0,0:0:0:0:
64,192,125928,1,0,0:0:0:0:
448,192,125989,1,0,0:0:0:0:
192,192,126049,1,0,0:0:0:0:
320,192,126079,1,0,0:0:0:0:
64,192,126109,1,0,0:0:0:0:
192,192,126139,1,0,0:0:0:0:
448,192,126169,1,0,0:0:0:0:
320,192,126169,1,0,0:0:0:0:
192,192,126290,1,0,0:0:0:0:
64,192,126320,1,0,0:0:0:0:
320,192,126350,1,0,0:0:0:0:
192,192,126380,1,0,0:0:0:0:
320,192,126410,1,0,0:0:0:0:
448,192,126410,1,0,0:0:0:0:
64,192,126531,1,0,0:0:0:0:
320,192,126561,1,0,0:0:0:0:
192,192,126591,1,0,0:0:0:0:
448,192,126621,1,0,0:0:0:0:
320,192,126651,1,0,0:0:0:0:
64,192,126651,1,0,0:0:0:0:
448,192,126772,1,0,0:0:0:0:
320,192,126802,1,0,0:0:0:0:
192,192,126832,1,0,0:0:0:0:
448,192,126862,1,0,0:0:0:0:
320,192,126892,1,0,0:0:0:0:
64,192,126892,1,0,0:0:0:0:
192,192,126952,1,0,0:0:0:0:
448,192,127013,1,0,0:0:0:0:
320,192,127013,1,0,0:0:0:0:
64,192,127133,1,0,0:0:0:0:
192,192,127133,1,0,0:0:0:0:
320,192,127193,1,0,0:0:0:0:
448,192,127193,1,0,0:0:0:0:
192,192,127254,1,0,0:0:0:0:
64,192,127254,1,0,0:0:0:0:
320,192,127374,1,0,0:0:0:0:
448,192,127495,1,0,0:0:0:0:
64,192,127495,1,0,0:0:0:0:
192,192,127555,1,0,0:0:0:0:
320,192,127555,1,0,0:0:0:0:
64,192,127615,1,0,0:0:0:0:
448,192,127615,1,0,0:0:0:0:
448,192,127736,1,0,0:0:0:0:
192,192,127736,1,0,0:0:0:0:
64,192,127856,1,0,0:0:0:0:
320,192,127856,1,0,0:0:0:0:
448,192,127916,1,0,0:0:0:0:
192,192,127916,1,0,0:0:0:0:
64,192,127976,1,0,0:0:0:0:
320,192,127976,1,0,0:0:0:0:
192,192,128037,1,0,0:0:0:0:
64,192,128097,1,0,0:0:0:0:
448,192,128217,128,0,128458:0:0:0:0:
192,192,128217,128,0,128338:0:0:0:0:
320,192,128338,1,0,0:0:0:0:
64,192,128338,1,0,0:0:0:0:
64,192,128458,1,0,0:0:0:0:
320,192,128458,1,0,0:0:0:0:
192,192,128458,128,0,128940:0:0:0:0:
448,192,128940,1,0,0:0:0:0:
320,192,128940,1,0,0:0:0:0:
64,192,129061,1,0,0:0:0:0:
448,192,129061,1,0,0:0:0:0:
192,192,129121,1,0,0:0:0:0:
64,192,129181,1,0,0:0:0:0:
320,192,129181,1,0,0:0:0:0:
64,192,129302,1,0,0:0:0:0:
192,192,129302,1,0,0:0:0:0:
448,192,129422,1,0,0:0:0:0:
64,192,129422,1,0,0:0:0:0:
320,192,129483,1,0,0:0:0:0:
192,192,129543,1,0,0:0:0:0:
448,192,129543,1,0,0:0:0:0:
64,192,129663,1,0,0:0:0:0:
320,192,129663,1,0,0:0:0:0:
192,192,129784,1,0,0:0:0:0:
320,192,129784,1,0,0:0:0:0:
192,192,129904,1,0,0:0:0:0:
448,192,129904,1,0,0:0:0:0:
64,192,129964,1,0,0:0:0:0:
320,192,130025,1,0,0:0:0:0:
448,192,130025,1,0,0:0:0:0:
64,192,130145,1,0,0:0:0:0:
192,192,130145,1,0,0:0:0:0:
448,192,130266,1,0,0:0:0:0:
192,192,130266,1,0,0:0:0:0:
320,192,130326,1,0,0:0:0:0:
64,192,130386,128,0,130868:0:0:0:0:
448,192,130386,128,0,130868:0:0:0:0:
192,192,130868,1,0,0:0:0:0:
320,192,130868,1,0,0:0:0:0:
448,192,130989,1,0,0:0:0:0:
320,192,130989,1,0,0:0:0:0:
192,192,131049,1,0,0:0:0:0:
64,192,131049,1,0,0:0:0:0:
320,192,131109,1,0,0:0:0:0:
448,192,131109,1,0,0:0:0:0:
64,192,131230,1,0,0:0:0:0:
448,192,131230,1,0,0:0:0:0:
64,192,131350,1,0,0:0:0:0:
192,192,131350,1,0,0:0:0:0:
320,192,131410,1,0,0:0:0:0:
448,192,131410,1,0,0:0:0:0:
192,192,131470,1,0,0:0:0:0:
64,192,131470,1,0,0:0:0:0:
448,192,131591,1,0,0:0:0:0:
64,192,131591,1,0,0:0:0:0:
192,192,131711,1,0,0:0:0:0:
320,192,131711,1,0,0:0:0:0:
448,192,131772,1,0,0:0:0:0:
320,192,131832,1,0,0:0:0:0:
192,192,131832,1,0,0:0:0:0:
64,192,131832,128,0,132073:0:0:0:0:
448,192,132073,128,0,132314:0:0:0:0:
320,192,132073,1,0,0:0:0:0:
192,192,132073,1,0,0:0:0:0:
64,192,132193,1,0,0:0:0:0:
64,192,132314,128,0,132555:0:0:0:0:
320,192,132314,1,0,0:0:0:0:
192,192,132314,1,0,0:0:0:0:
448,192,132555,128,0,132796:0:0:0:0:
320,192,132555,1,0,0:0:0:0:
192,192,132555,1,0,0:0:0:0:
320,192,132675,1,0,0:0:0:0:
64,192,132796,1,0,0:0:0:0:
320,192,132796,1,0,0:0:0:0:
192,192,132796,1,0,0:0:0:0:
448,192,132916,1,0,0:0:0:0:
320,192,132916,1,0,0:0:0:0:
448,192,132976,1,0,0:0:0:0:
192,192,133037,1,0,0:0:0:0:
64,192,133037,1,0,0:0:0:0:
320,192,133157,1,0,0:0:0:0:
448,192,133157,1,0,0:0:0:0:
64,192,133278,1,0,0:0:0:0:
192,192,133278,1,0,0:0:0:0:
64,192,133338,1,0,0:0:0:0:
320,192,133398,1,0,0:0:0:0:
448,192,133398,1,0,0:0:0:0:
64,192,133519,1,0,0:0:0:0:
192,192,133519,1,0,0:0:0:0:
448,192,133579,1,0,0:0:0:0:
320,192,133639,1,0,0:0:0:0:
192,192,133639,1,0,0:0:0:0:
64,192,133760,1,0,0:0:0:0:
448,192,133760,1,0,0:0:0:0:
192,192,133820,1,0,0:0:0:0:
320,192,133820,1,0,0:0:0:0:
64,192,133880,1,0,0:0:0:0:
448,192,133880,1,0,0:0:0:0:
192,192,133940,1,0,0:0:0:0:
320,192,134001,1,0,0:0:0:0:
448,192,134001,1,0,0:0:0:0:
192,192,134061,1,0,0:0:0:0:
64,192,134061,1,0,0:0:0:0:
320,192,134121,1,0,0:0:0:0:
448,192,134121,1,0,0:0:0:0:
192,192,134181,1,0,0:0:0:0:
448,192,134242,128,0,134723:0:0:0:0:
64,192,134242,128,0,134723:0:0:0:0:
192,192,134723,1,0,0:0:0:0:
320,192,134723,1,0,0:0:0:0:
448,192,134844,1,0,0:0:0:0:
320,192,134844,1,0,0:0:0:0:
320,192,134904,1,0,0:0:0:0:
448,192,134904,1,0,0:0:0:0:
192,192,134964,1,0,0:0:0:0:
64,192,134964,1,0,0:0:0:0:
448,192,135085,1,0,0:0:0:0:
320,192,135085,1,0,0:0:0:0:
64,192,135205,1,0,0:0:0:0:
192,192,135205,1,0,0:0:0:0:
64,192,135266,1,0,0:0:0:0:
192,192,135266,1,0,0:0:0:0:
320,192,135326,1,0,0:0:0:0:
448,192,135326,1,0,0:0:0:0:
64,192,135446,1,0,0:0:0:0:
192,192,135446,1,0,0:0:0:0:
448,192,135446,1,0,0:0:0:0:
320,192,135567,1,0,0:0:0:0:
192,192,135627,1,0,0:0:0:0:
320,192,135687,1,0,0:0:0:0:
192,192,135748,1,0,0:0:0:0:
320,192,135808,1,0,0:0:0:0:
64,192,135928,128,0,136290:0:0:0:0:
192,192,136049,128,0,136290:0:0:0:0:
448,192,136049,1,0,0:0:0:0:
320,192,136109,1,0,0:0:0:0:
448,192,136169,1,0,0:0:0:0:
320,192,136230,1,0,0:0:0:0:
448,192,136290,128,0,136590:0:0:0:0:
64,192,136590,1,0,0:0:0:0:
192,192,136590,1,0,0:0:0:0:
320,192,136650,1,0,0:0:0:0:
448,192,136650,1,0,0:0:0:0:
192,192,136710,1,0,0:0:0:0:
64,192,136710,1,0,0:0:0:0:
320,192,136770,1,0,0:0:0:0:
448,192,136770,1,0,0:0:0:0:
64,192,136830,1,0,0:0:0:0:
192,192,136830,1,0,0:0:0:0:
320,192,136890,1,0,0:0:0:0:
448,192,136890,1,0,0:0:0:0:
192,192,136950,1,0,0:0:0:0:
64,192,136950,1,0,0:0:0:0:
320,192,137010,1,0,0:0:0:0:
448,192,137010,1,0,0:0:0:0:
192,192,137070,1,0,0:0:0:0:
64,192,137070,1,0,0:0:0:0:
320,192,137130,1,0,0:0:0:0:
448,192,137130,1,0,0:0:0:0:
192,192,137190,1,0,0:0:0:0:
64,192,137190,1,0,0:0:0:0:
320,192,137250,1,0,0:0:0:0:
448,192,137250,1,0,0:0:0:0:
192,192,137310,1,0,0:0:0:0:
64,192,137310,1,0,0:0:0:0:
320,192,137370,1,0,0:0:0:0:
448,192,137370,1,0,0:0:0:0:
192,192,137430,1,0,0:0:0:0:
64,192,137430,1,0,0:0:0:0:
320,192,137490,1,0,0:0:0:0:
448,192,137490,1,0,0:0:0:0:
192,192,137550,1,0,0:0:0:0:
64,192,137550,1,0,0:0:0:0:
448,192,137610,1,0,0:0:0:0:
320,192,137610,1,0,0:0:0:0:
192,192,137670,1,0,0:0:0:0:
64,192,137670,1,0,0:0:0:0:
320,192,137730,1,0,0:0:0:0:
448,192,137730,1,0,0:0:0:0:
192,192,137790,1,0,0:0:0:0:
64,192,137790,1,0,0:0:0:0:
448,192,137850,1,0,0:0:0:0:
320,192,137850,1,0,0:0:0:0:
192,192,137910,1,0,0:0:0:0:
64,192,137910,1,0,0:0:0:0:
448,192,137970,1,0,0:0:0:0:
320,192,137970,1,0,0:0:0:0:
192,192,138030,1,0,0:0:0:0:
64,192,138030,1,0,0:0:0:0:
320,192,138090,1,0,0:0:0:0:
448,192,138090,1,0,0:0:0:0:
192,192,138150,1,0,0:0:0:0:
64,192,138150,1,0,0:0:0:0:
448,192,138210,1,0,0:0:0:0:
320,192,138210,1,0,0:0:0:0:
64,192,138270,1,0,0:0:0:0:
192,192,138270,1,0,0:0:0:0:
448,192,138330,1,0,0:0:0:0:
320,192,138330,1,0,0:0:0:0:
192,192,138390,1,0,0:0:0:0:
64,192,138390,1,0,0:0:0:0:
320,192,138450,1,0,0:0:0:0:
448,192,138450,1,0,0:0:0:0:
192,192,138510,1,0,0:0:0:0:
64,192,138510,1,0,0:0:0:0:
448,192,138570,1,0,0:0:0:0:
320,192,138570,1,0,0:0:0:0:
192,192,138630,1,0,0:0:0:0:
64,192,138630,1,0,0:0:0:0:
320,192,138690,1,0,0:0:0:0:
448,192,138690,1,0,0:0:0:0:
192,192,138750,1,0,0:0:0:0:
64,192,138750,1,0,0:0:0:0:
320,192,138810,1,0,0:0:0:0:
448,192,138810,1,0,0:0:0:0:
192,192,138870,1,0,0:0:0:0:
64,192,138870,1,0,0:0:0:0:
320,192,138930,1,0,0:0:0:0:
448,192,138930,1,0,0:0:0:0:
192,192,138990,1,0,0:0:0:0:
64,192,138990,1,0,0:0:0:0:
320,192,139050,1,0,0:0:0:0:
448,192,139050,1,0,0:0:0:0:
192,192,139110,1,0,0:0:0:0:
64,192,139110,1,0,0:0:0:0:
320,192,139170,1,0,0:0:0:0:
448,192,139170,1,0,0:0:0:0:
64,192,139230,1,0,0:0:0:0:
192,192,139230,1,0,0:0:0:0:
320,192,139290,1,0,0:0:0:0:
448,192,139290,1,0,0:0:0:0:
192,192,139350,1,0,0:0:0:0:
64,192,139350,1,0,0:0:0:0:
448,192,139380,1,0,0:0:0:0:
320,192,139440,1,0,0:0:0:0:
192,192,139470,1,0,0:0:0:0:
64,192,139500,1,0,0:0:0:0:
448,192,139530,1,0,0:0:0:0:
64,192,139650,1,0,0:0:0:0:
192,192,139680,1,0,0:0:0:0:
320,192,139710,1,0,0:0:0:0:
448,192,139740,1,0,0:0:0:0:
64,192,139770,1,0,0:0:0:0:
320,192,139890,1,0,0:0:0:0:
448,192,139890,1,0,0:0:0:0:
192,192,139950,1,0,0:0:0:0:
64,192,139950,1,0,0:0:0:0:
320,192,140010,1,0,0:0:0:0:
448,192,140010,1,0,0:0:0:0:
192,192,140070,1,0,0:0:0:0:
64,192,140070,1,0,0:0:0:0:
320,192,140130,1,0,0:0:0:0:
448,192,140130,1,0,0:0:0:0:
64,192,140250,1,0,0:0:0:0:
192,192,140250,1,0,0:0:0:0:
320,192,140310,1,0,0:0:0:0:
448,192,140310,1,0,0:0:0:0:
192,192,140370,1,0,0:0:0:0:
64,192,140370,1,0,0:0:0:0:
320,192,140430,1,0,0:0:0:0:
448,192,140430,1,0,0:0:0:0:
192,192,140490,1,0,0:0:0:0:
64,192,140490,1,0,0:0:0:0:
320,192,140550,1,0,0:0:0:0:
448,192,140550,1,0,0:0:0:0:
192,192,140610,1,0,0:0:0:0:
64,192,140610,1,0,0:0:0:0:
320,192,140670,1,0,0:0:0:0:
448,192,140670,1,0,0:0:0:0:
192,192,140730,1,0,0:0:0:0:
64,192,140730,1,0,0:0:0:0:
320,192,140790,1,0,0:0:0:0:
448,192,140790,1,0,0:0:0:0:
64,192,140850,1,0,0:0:0:0:
192,192,140850,1,0,0:0:0:0:
320,192,140910,1,0,0:0:0:0:
448,192,140910,1,0,0:0:0:0:
64,192,140970,1,0,0:0:0:0:
192,192,140970,1,0,0:0:0:0:
320,192,141030,1,0,0:0:0:0:
448,192,141030,1,0,0:0:0:0:
64,192,141090,1,0,0:0:0:0:
192,192,141090,1,0,0:0:0:0:
320,192,141150,1,0,0:0:0:0:
448,192,141150,1,0,0:0:0:0:
64,192,141210,1,0,0:0:0:0:
192,192,141210,1,0,0:0:0:0:
320,192,141270,1,0,0:0:0:0:
448,192,141270,1,0,0:0:0:0:
192,192,141330,1,0,0:0:0:0:
64,192,141330,1,0,0:0:0:0:
448,192,141390,1,0,0:0:0:0:
320,192,141390,1,0,0:0:0:0:
192,192,141450,1,0,0:0:0:0:
64,192,141450,1,0,0:0:0:0:
448,192,141510,1,0,0:0:0:0:
320,192,141510,1,0,0:0:0:0:
192,192,141570,1,0,0:0:0:0:
64,192,141570,1,0,0:0:0:0:
448,192,141630,1,0,0:0:0:0:
320,192,141630,1,0,0:0:0:0:
192,192,141690,1,0,0:0:0:0:
64,192,141690,1,0,0:0:0:0:
448,192,141750,1,0,0:0:0:0:
320,192,141750,1,0,0:0:0:0:
64,192,141810,1,0,0:0:0:0:
192,192,141810,1,0,0:0:0:0:
320,192,141870,1,0,0:0:0:0:
448,192,141870,1,0,0:0:0:0:
64,192,141930,1,0,0:0:0:0:
192,192,141930,1,0,0:0:0:0:
320,192,141990,1,0,0:0:0:0:
448,192,141990,1,0,0:0:0:0:
64,192,142050,1,0,0:0:0:0:
192,192,142050,1,0,0:0:0:0:
320,192,142110,1,0,0:0:0:0:
448,192,142110,1,0,0:0:0:0:
64,192,142170,1,0,0:0:0:0:
192,192,142170,1,0,0:0:0:0:
320,192,142230,1,0,0:0:0:0:
448,192,142230,1,0,0:0:0:0:
192,192,142290,1,0,0:0:0:0:
64,192,142290,1,0,0:0:0:0:
448,192,142350,1,0,0:0:0:0:
320,192,142350,1,0,0:0:0:0:
192,192,142410,1,0,0:0:0:0:
64,192,142410,1,0,0:0:0:0:
448,192,142470,1,0,0:0:0:0:
320,192,142470,1,0,0:0:0:0:
192,192,142530,1,0,0:0:0:0:
64,192,142530,1,0,0:0:0:0:
448,192,142590,1,0,0:0:0:0:
320,192,142590,1,0,0:0:0:0:
192,192,142650,1,0,0:0:0:0:
64,192,142650,1,0,0:0:0:0:
448,192,142710,1,0,0:0:0:0:
320,192,142710,1,0,0:0:0:0:
64,192,142770,1,0,0:0:0:0:
192,192,142770,1,0,0:0:0:0:
320,192,142830,1,0,0:0:0:0:
448,192,142830,1,0,0:0:0:0:
64,192,142890,1,0,0:0:0:0:
192,192,142890,1,0,0:0:0:0:
320,192,142950,1,0,0:0:0:0:
448,192,142950,1,0,0:0:0:0:
64,192,143010,1,0,0:0:0:0:
192,192,143010,1,0,0:0:0:0:
320,192,143070,1,0,0:0:0:0:
448,192,143070,1,0,0:0:0:0:
64,192,143130,1,0,0:0:0:0:
192,192,143130,1,0,0:0:0:0:
320,192,143190,1,0,0:0:0:0:
448,192,143190,1,0,0:0:0:0:
64,192,143250,1,0,0:0:0:0:
192,192,143270,1,0,0:0:0:0:
320,192,143290,1,0,0:0:0:0:
448,192,143310,1,0,0:0:0:0:
192,192,143330,1,0,0:0:0:0:
64,192,143350,1,0,0:0:0:0:
448,192,143370,1,0,0:0:0:0:
320,192,143390,1,0,0:0:0:0:
64,192,143410,1,0,0:0:0:0:
192,192,143430,1,0,0:0:0:0:
320,192,143450,1,0,0:0:0:0:
448,192,143470,1,0,0:0:0:0:
64,192,143490,1,0,0:0:0:0:
192,192,143510,1,0,0:0:0:0:
448,192,143530,1,0,0:0:0:0:
320,192,143550,1,0,0:0:0:0:
192,192,143570,1,0,0:0:0:0:
64,192,143590,1,0,0:0:0:0:
448,192,143610,1,0,0:0:0:0:
320,192,143630,1,0,0:0:0:0:
64,192,143650,1,0,0:0:0:0:
192,192,143670,1,0,0:0:0:0:
320,192,143690,1,0,0:0:0:0:
448,192,143710,1,0,0:0:0:0:
64,192,143730,1,0,0:0:0:0:
192,192,143750,1,0,0:0:0:0:
448,192,143770,1,0,0:0:0:0:
320,192,143790,1,0,0:0:0:0:
192,192,143810,1,0,0:0:0:0:
64,192,143830,1,0,0:0:0:0:
448,192,143850,1,0,0:0:0:0:
320,192,143870,1,0,0:0:0:0:
64,192,143890,1,0,0:0:0:0:
192,192,143910,1,0,0:0:0:0:
320,192,143930,1,0,0:0:0:0:
448,192,143950,1,0,0:0:0:0:
64,192,143970,1,0,0:0:0:0:
192,192,143990,1,0,0:0:0:0:
448,192,144010,1,0,0:0:0:0:
320,192,144030,1,0,0:0:0:0:
192,192,144050,1,0,0:0:0:0:
64,192,144070,1,0,0:0:0:0:
448,192,144090,1,0,0:0:0:0:
320,192,144110,1,0,0:0:0:0:
64,192,144130,1,0,0:0:0:0:
192,192,144150,1,0,0:0:0:0:
320,192,144170,1,0,0:0:0:0:
448,192,144190,1,0,0:0:0:0:
192,192,144210,1,0,0:0:0:0:
64,192,144210,1,0,0:0:0:0:
448,192,145565,1,0,0:0:0:0:
192,192,145565,1,0,0:0:0:0:
64,192,145565,1,0,0:0:0:0:
320,192,145648,1,0,0:0:0:0:
448,192,145731,1,0,0:0:0:0:
64,192,145731,1,0,0:0:0:0:
320,192,145815,1,0,0:0:0:0:
192,192,145898,1,0,0:0:0:0:
448,192,145898,1,0,0:0:0:0:
320,192,145981,1,0,0:0:0:0:
448,192,146065,1,0,0:0:0:0:
64,192,146065,1,0,0:0:0:0:
320,192,146148,1,0,0:0:0:0:
448,192,146231,1,0,0:0:0:0:
64,192,146231,1,0,0:0:0:0:
320,192,146315,1,0,0:0:0:0:
448,192,146398,1,0,0:0:0:0:
192,192,146398,1,0,0:0:0:0:
320,192,146481,1,0,0:0:0:0:
448,192,146565,1,0,0:0:0:0:
64,192,146565,1,0,0:0:0:0:
192,192,146565,1,0,0:0:0:0:
320,192,146648,1,0,0:0:0:0:
448,192,146731,1,0,0:0:0:0:
64,192,146731,1,0,0:0:0:0:
320,192,146815,1,0,0:0:0:0:
192,192,146898,1,0,0:0:0:0:
448,192,146898,1,0,0:0:0:0:
64,192,146981,1,0,0:0:0:0:
192,192,147065,1,0,0:0:0:0:
448,192,147065,1,0,0:0:0:0:
64,192,147148,1,0,0:0:0:0:
192,192,147231,1,0,0:0:0:0:
320,192,147231,1,0,0:0:0:0:
64,192,147315,1,0,0:0:0:0:
192,192,147398,1,0,0:0:0:0:
448,192,147398,1,0,0:0:0:0:
64,192,147481,1,0,0:0:0:0:
192,192,147565,1,0,0:0:0:0:
448,192,147565,1,0,0:0:0:0:
64,192,147648,1,0,0:0:0:0:
192,192,147731,1,0,0:0:0:0:
320,192,147731,1,0,0:0:0:0:
64,192,147815,1,0,0:0:0:0:
192,192,147898,1,0,0:0:0:0:
448,192,147898,1,0,0:0:0:0:
320,192,147898,1,0,0:0:0:0:
64,192,147981,1,0,0:0:0:0:
192,192,148065,1,0,0:0:0:0:
320,192,148065,1,0,0:0:0:0:
64,192,148148,1,0,0:0:0:0:
192,192,148231,1,0,0:0:0:0:
448,192,148231,1,0,0:0:0:0:
320,192,148315,1,0,0:0:0:0:
192,192,148398,1,0,0:0:0:0:
64,192,148398,1,0,0:0:0:0:
320,192,148481,1,0,0:0:0:0:
192,192,148565,1,0,0:0:0:0:
448,192,148565,1,0,0:0:0:0:
320,192,148648,1,0,0:0:0:0:
192,192,148731,1,0,0:0:0:0:
448,192,148731,1,0,0:0:0:0:
320,192,148815,1,0,0:0:0:0:
192,192,148898,1,0,0:0:0:0:
64,192,148898,1,0,0:0:0:0:
320,192,148981,1,0,0:0:0:0:
192,192,149065,1,0,0:0:0:0:
448,192,149065,1,0,0:0:0:0:
320,192,149148,1,0,0:0:0:0:
192,192,149231,1,0,0:0:0:0:
64,192,149231,1,0,0:0:0:0:
320,192,149315,1,0,0:0:0:0:
192,192,149398,1,0,0:0:0:0:
64,192,149398,1,0,0:0:0:0:
320,192,149481,1,0,0:0:0:0:
448,192,149565,1,0,0:0:0:0:
64,192,149565,1,0,0:0:0:0:
192,192,149648,1,0,0:0:0:0:
320,192,149648,1,0,0:0:0:0:
64,192,149731,1,0,0:0:0:0:
448,192,149731,1,0,0:0:0:0:
192,192,149815,1,0,0:0:0:0:
320,192,149815,1,0,0:0:0:0:
64,192,149898,1,0,0:0:0:0:
192,192,149981,1,0,0:0:0:0:
448,192,149981,1,0,0:0:0:0:
64,192,150065,1,0,0:0:0:0:
320,192,150065,1,0,0:0:0:0:
192,192,150148,1,0,0:0:0:0:
448,192,150231,1,0,0:0:0:0:
64,192,150231,1,0,0:0:0:0:
320,192,150315,1,0,0:0:0:0:
192,192,150315,1,0,0:0:0:0:
448,192,150398,1,0,0:0:0:0:
64,192,150398,1,0,0:0:0:0:
320,192,150481,1,0,0:0:0:0:
448,192,150565,1,0,0:0:0:0:
192,192,150565,1,0,0:0:0:0:
64,192,150565,1,0,0:0:0:0:
320,192,150648,1,0,0:0:0:0:
448,192,150731,1,0,0:0:0:0:
192,192,150731,1,0,0:0:0:0:
320,192,150815,1,0,0:0:0:0:
64,192,150815,1,0,0:0:0:0:
448,192,150898,1,0,0:0:0:0:
192,192,150898,1,0,0:0:0:0:
320,192,150898,1,0,0:0:0:0:
64,192,150981,1,0,0:0:0:0:
192,192,151065,1,0,0:0:0:0:
448,192,151065,1,0,0:0:0:0:
64,192,151148,1,0,0:0:0:0:
192,192,151231,1,0,0:0:0:0:
320,192,151231,1,0,0:0:0:0:
448,192,151315,1,0,0:0:0:0:
64,192,151398,1,0,0:0:0:0:
320,192,151398,1,0,0:0:0:0:
192,192,151481,1,0,0:0:0:0:
448,192,151565,1,0,0:0:0:0:
64,192,151565,1,0,0:0:0:0:
320,192,151648,1,0,0:0:0:0:
192,192,151731,1,0,0:0:0:0:
448,192,151731,1,0,0:0:0:0:
320,192,151815,1,0,0:0:0:0:
64,192,151898,1,0,0:0:0:0:
448,192,151898,1,0,0:0:0:0:
192,192,151898,1,0,0:0:0:0:
320,192,151981,1,0,0:0:0:0:
64,192,152065,1,0,0:0:0:0:
448,192,152065,1,0,0:0:0:0:
192,192,152148,1,0,0:0:0:0:
64,192,152231,1,0,0:0:0:0:
320,192,152231,1,0,0:0:0:0:
448,192,152315,1,0,0:0:0:0:
320,192,152398,1,0,0:0:0:0:
64,192,152398,1,0,0:0:0:0:
192,192,152481,1,0,0:0:0:0:
448,192,152565,1,0,0:0:0:0:
64,192,152565,1,0,0:0:0:0:
320,192,152648,1,0,0:0:0:0:
192,192,152731,1,0,0:0:0:0:
448,192,152731,1,0,0:0:0:0:
64,192,152815,1,0,0:0:0:0:
320,192,152898,1,0,0:0:0:0:
192,192,152898,1,0,0:0:0:0:
64,192,152981,1,0,0:0:0:0:
192,192,153065,1,0,0:0:0:0:
448,192,153065,1,0,0:0:0:0:
320,192,153148,1,0,0:0:0:0:
64,192,153231,1,0,0:0:0:0:
448,192,153231,1,0,0:0:0:0:
192,192,153231,1,0,0:0:0:0:
320,192,153315,1,0,0:0:0:0:
448,192,153398,1,0,0:0:0:0:
192,192,153398,1,0,0:0:0:0:
320,192,153481,1,0,0:0:0:0:
64,192,153565,1,0,0:0:0:0:
192,192,153565,1,0,0:0:0:0:
448,192,153565,1,0,0:0:0:0:
320,192,153648,1,0,0:0:0:0:
64,192,153731,1,0,0:0:0:0:
448,192,153731,1,0,0:0:0:0:
192,192,153815,1,0,0:0:0:0:
64,192,153898,1,0,0:0:0:0:
320,192,153898,1,0,0:0:0:0:
448,192,153981,1,0,0:0:0:0:
192,192,154065,1,0,0:0:0:0:
320,192,154065,1,0,0:0:0:0:
64,192,154148,1,0,0:0:0:0:
448,192,154231,1,0,0:0:0:0:
192,192,154231,1,0,0:0:0:0:
320,192,154315,1,0,0:0:0:0:
64,192,154398,1,0,0:0:0:0:
448,192,154398,1,0,0:0:0:0:
320,192,154481,1,0,0:0:0:0:
192,192,154565,1,0,0:0:0:0:
448,192,154565,1,0,0:0:0:0:
64,192,154648,1,0,0:0:0:0:
192,192,154731,1,0,0:0:0:0:
320,192,154731,1,0,0:0:0:0:
64,192,154815,1,0,0:0:0:0:
448,192,154898,1,0,0:0:0:0:
192,192,154898,1,0,0:0:0:0:
64,192,154981,1,0,0:0:0:0:
320,192,154981,1,0,0:0:0:0:
192,192,155065,1,0,0:0:0:0:
448,192,155065,1,0,0:0:0:0:
64,192,155148,1,0,0:0:0:0:
320,192,155148,1,0,0:0:0:0:
192,192,155231,1,0,0:0:0:0:
64,192,155315,1,0,0:0:0:0:
448,192,155315,1,0,0:0:0:0:
192,192,155398,1,0,0:0:0:0:
320,192,155398,1,0,0:0:0:0:
64,192,155481,1,0,0:0:0:0:
448,192,155481,1,0,0:0:0:0:
320,192,155565,1,0,0:0:0:0:
448,192,155648,1,0,0:0:0:0:
192,192,155648,1,0,0:0:0:0:
64,192,155731,1,0,0:0:0:0:
320,192,155731,1,0,0:0:0:0:
448,192,155815,1,0,0:0:0:0:
64,192,155898,1,0,0:0:0:0:
320,192,155898,1,0,0:0:0:0:
192,192,155898,1,0,0:0:0:0:
448,192,155981,1,0,0:0:0:0:
320,192,156065,1,0,0:0:0:0:
192,192,156065,1,0,0:0:0:0:
448,192,156148,1,0,0:0:0:0:
64,192,156148,1,0,0:0:0:0:
192,192,156231,1,0,0:0:0:0:
320,192,156231,1,0,0:0:0:0:
448,192,156231,1,0,0:0:0:0:
64,192,156315,1,0,0:0:0:0:
192,192,156398,1,0,0:0:0:0:
320,192,156398,1,0,0:0:0:0:
448,192,156481,1,0,0:0:0:0:
64,192,156565,1,0,0:0:0:0:
320,192,156565,1,0,0:0:0:0:
192,192,156648,1,0,0:0:0:0:
448,192,156731,1,0,0:0:0:0:
64,192,156731,1,0,0:0:0:0:
320,192,156815,1,0,0:0:0:0:
64,192,156898,1,0,0:0:0:0:
192,192,156898,1,0,0:0:0:0:
448,192,156940,1,0,0:0:0:0:
320,192,156981,1,0,0:0:0:0:
64,192,156981,1,0,0:0:0:0:
192,192,157023,1,0,0:0:0:0:
448,192,157065,1,0,0:0:0:0:
320,192,157065,1,0,0:0:0:0:
192,192,157106,1,0,0:0:0:0:
64,192,157148,1,0,0:0:0:0:
448,192,157148,1,0,0:0:0:0:
320,192,157190,1,0,0:0:0:0:
192,192,157231,1,0,0:0:0:0:
64,192,157231,1,0,0:0:0:0:
448,192,157231,1,0,0:0:0:0:
320,192,157315,1,0,0:0:0:0:
64,192,157398,1,0,0:0:0:0:
448,192,157398,1,0,0:0:0:0:
192,192,157481,1,0,0:0:0:0:
448,192,157565,1,0,0:0:0:0:
64,192,157565,1,0,0:0:0:0:
320,192,157648,1,0,0:0:0:0:
192,192,157731,1,0,0:0:0:0:
448,192,157731,1,0,0:0:0:0:
320,192,157815,1,0,0:0:0:0:
64,192,157898,1,0,0:0:0:0:
192,192,157898,1,0,0:0:0:0:
448,192,157981,1,0,0:0:0:0:
320,192,158065,1,0,0:0:0:0:
64,192,158065,1,0,0:0:0:0:
192,192,158148,1,0,0:0:0:0:
448,192,158231,1,0,0:0:0:0:
64,192,158231,1,0,0:0:0:0:
320,192,158315,1,0,0:0:0:0:
192,192,158398,1,0,0:0:0:0:
448,192,158398,1,0,0:0:0:0:
64,192,158440,1,0,0:0:0:0:
320,192,158481,1,0,0:0:0:0:
192,192,158481,1,0,0:0:0:0:
448,192,158523,1,0,0:0:0:0:
64,192,158565,1,0,0:0:0:0:
320,192,158565,1,0,0:0:0:0:
192,192,158606,1,0,0:0:0:0:
448,192,158648,1,0,0:0:0:0:
64,192,158648,1,0,0:0:0:0:
320,192,158690,1,0,0:0:0:0:
192,192,158731,1,0,0:0:0:0:
448,192,158731,1,0,0:0:0:0:
320,192,158815,1,0,0:0:0:0:
64,192,158898,1,0,0:0:0:0:
448,192,158898,1,0,0:0:0:0:
192,192,158981,1,0,0:0:0:0:
64,192,159065,1,0,0:0:0:0:
320,192,159065,1,0,0:0:0:0:
448,192,159148,1,0,0:0:0:0:
192,192,159231,1,0,0:0:0:0:
320,192,159231,1,0,0:0:0:0:
64,192,159315,1,0,0:0:0:0:
448,192,159398,1,0,0:0:0:0:
192,192,159398,1,0,0:0:0:0:
320,192,159481,1,0,0:0:0:0:
64,192,159565,1,0,0:0:0:0:
448,192,159565,1,0,0:0:0:0:
192,192,159648,1,0,0:0:0:0:
320,192,159731,1,0,0:0:0:0:
64,192,159731,1,0,0:0:0:0:
448,192,159815,1,0,0:0:0:0:
320,192,159856,1,0,0:0:0:0:
192,192,159898,1,0,0:0:0:0:
64,192,159898,1,0,0:0:0:0:
448,192,159939,1,0,0:0:0:0:
64,192,159981,1,0,0:0:0:0:
192,192,159981,1,0,0:0:0:0:
448,192,160023,1,0,0:0:0:0:
64,192,160064,1,0,0:0:0:0:
320,192,160064,1,0,0:0:0:0:
448,192,160106,1,0,0:0:0:0:
64,192,160148,1,0,0:0:0:0:
320,192,160148,1,0,0:0:0:0:
448,192,160189,1,0,0:0:0:0:
64,192,160231,1,0,0:0:0:0:
192,192,160252,1,0,0:0:0:0:
448,192,160314,1,0,0:0:0:0:
320,192,160335,1,0,0:0:0:0:
64,192,160398,1,0,0:0:0:0:
448,192,160419,1,0,0:0:0:0:
320,192,160481,1,0,0:0:0:0:
192,192,160502,1,0,0:0:0:0:
320,192,160564,1,0,0:0:0:0:
448,192,160585,1,0,0:0:0:0:
64,192,160648,1,0,0:0:0:0:
192,192,160669,1,0,0:0:0:0:
448,192,160731,1,0,0:0:0:0:
64,192,160752,1,0,0:0:0:0:
320,192,160814,1,0,0:0:0:0:
448,192,160835,1,0,0:0:0:0:
192,192,160898,1,0,0:0:0:0:
320,192,160919,1,0,0:0:0:0:
64,192,160981,1,0,0:0:0:0:
192,192,161002,1,0,0:0:0:0:
320,192,161064,1,0,0:0:0:0:
448,192,161085,1,0,0:0:0:0:
64,192,161148,1,0,0:0:0:0:
448,192,161169,1,0,0:0:0:0:
192,192,161231,1,0,0:0:0:0:
64,192,161231,1,0,0:0:0:0:
320,192,161287,1,0,0:0:0:0:
448,192,161342,1,0,0:0:0:0:
64,192,161398,1,0,0:0:0:0:
192,192,161398,1,0,0:0:0:0:
448,192,161453,1,0,0:0:0:0:
320,192,161509,1,0,0:0:0:0:
64,192,161564,1,0,0:0:0:0:
448,192,161564,1,0,0:0:0:0:
192,192,161648,1,0,0:0:0:0:
64,192,161731,1,0,0:0:0:0:
320,192,161731,1,0,0:0:0:0:
448,192,161814,1,0,0:0:0:0:
320,192,161898,1,0,0:0:0:0:
192,192,161898,1,0,0:0:0:0:
64,192,161981,1,0,0:0:0:0:
448,192,162064,1,0,0:0:0:0:
192,192,162064,1,0,0:0:0:0:
320,192,162148,1,0,0:0:0:0:
64,192,162231,1,0,0:0:0:0:
448,192,162231,1,0,0:0:0:0:
192,192,162273,1,0,0:0:0:0:
320,192,162314,1,0,0:0:0:0:
448,192,162314,1,0,0:0:0:0:
192,192,162356,1,0,0:0:0:0:
64,192,162398,1,0,0:0:0:0:
320,192,162398,1,0,0:0:0:0:
448,192,162439,1,0,0:0:0:0:
64,192,162481,1,0,0:0:0:0:
192,192,162481,1,0,0:0:0:0:
320,192,162523,1,0,0:0:0:0:
448,192,162564,1,0,0:0:0:0:
64,192,162564,1,0,0:0:0:0:
192,192,162564,1,0,0:0:0:0:
320,192,162648,1,0,0:0:0:0:
448,192,162731,1,0,0:0:0:0:
64,192,162731,1,0,0:0:0:0:
320,192,162814,1,0,0:0:0:0:
192,192,162898,1,0,0:0:0:0:
448,192,162898,1,0,0:0:0:0:
64,192,162981,1,0,0:0:0:0:
192,192,163064,1,0,0:0:0:0:
448,192,163064,1,0,0:0:0:0:
320,192,163148,1,0,0:0:0:0:
64,192,163231,1,0,0:0:0:0:
448,192,163231,1,0,0:0:0:0:
192,192,163314,1,0,0:0:0:0:
64,192,163398,1,0,0:0:0:0:
320,192,163398,1,0,0:0:0:0:
192,192,163481,1,0,0:0:0:0:
64,192,163564,1,0,0:0:0:0:
448,192,163564,1,0,0:0:0:0:
192,192,163648,1,0,0:0:0:0:
64,192,163731,1,0,0:0:0:0:
320,192,163731,1,0,0:0:0:0:
192,192,163787,1,0,0:0:0:0:
320,192,163842,1,0,0:0:0:0:
448,192,163898,1,0,0:0:0:0:
64,192,163898,1,0,0:0:0:0:
192,192,163898,1,0,0:0:0:0:
320,192,163939,1,0,0:0:0:0:
192,192,163981,1,0,0:0:0:0:
448,192,163981,1,0,0:0:0:0:
64,192,164023,1,0,0:0:0:0:
320,192,164064,1,0,0:0:0:0:
448,192,164064,1,0,0:0:0:0:
192,192,164106,1,0,0:0:0:0:
64,192,164148,1,0,0:0:0:0:
320,192,164148,1,0,0:0:0:0:
448,192,164189,1,0,0:0:0:0:
192,192,164231,1,0,0:0:0:0:
64,192,164231,1,0,0:0:0:0:
448,192,164314,1,0,0:0:0:0:
64,192,164398,1,0,0:0:0:0:
320,192,164398,1,0,0:0:0:0:
192,192,164481,1,0,0:0:0:0:
448,192,164564,1,0,0:0:0:0:
64,192,164564,1,0,0:0:0:0:
320,192,164648,1,0,0:0:0:0:
192,192,164731,1,0,0:0:0:0:
448,192,164731,1,0,0:0:0:0:
320,192,164814,1,0,0:0:0:0:
448,192,164898,1,0,0:0:0:0:
64,192,164898,1,0,0:0:0:0:
192,192,164981,1,0,0:0:0:0:
64,192,165064,1,0,0:0:0:0:
320,192,165064,1,0,0:0:0:0:
192,192,165148,1,0,0:0:0:0:
320,192,165231,1,0,0:0:0:0:
448,192,165231,1,0,0:0:0:0:
64,192,165273,1,0,0:0:0:0:
192,192,165314,1,0,0:0:0:0:
448,192,165314,1,0,0:0:0:0:
320,192,165356,1,0,0:0:0:0:
64,192,165398,1,0,0:0:0:0:
192,192,165398,1,0,0:0:0:0:
448,192,165439,1,0,0:0:0:0:
320,192,165481,1,0,0:0:0:0:
64,192,165481,1,0,0:0:0:0:
192,192,165523,1,0,0:0:0:0:
448,192,165564,1,0,0:0:0:0:
64,192,165585,1,0,0:0:0:0:
192,192,165648,1,0,0:0:0:0:
320,192,165669,1,0,0:0:0:0:
64,192,165731,1,0,0:0:0:0:
192,192,165752,1,0,0:0:0:0:
448,192,165814,1,0,0:0:0:0:
320,192,165835,1,0,0:0:0:0:
192,192,165898,1,0,0:0:0:0:
320,192,165919,1,0,0:0:0:0:
64,192,165981,1,0,0:0:0:0:
448,192,166002,1,0,0:0:0:0:
192,192,166064,1,0,0:0:0:0:
448,192,166085,1,0,0:0:0:0:
320,192,166148,1,0,0:0:0:0:
64,192,166169,1,0,0:0:0:0:
192,192,166231,1,0,0:0:0:0:
320,192,166252,1,0,0:0:0:0:
448,192,166314,1,0,0:0:0:0:
192,192,166335,1,0,0:0:0:0:
320,192,166398,1,0,0:0:0:0:
64,192,166419,1,0,0:0:0:0:
192,192,166481,1,0,0:0:0:0:
64,192,166502,1,0,0:0:0:0:
448,192,166564,1,0,0:0:0:0:
320,192,166585,1,0,0:0:0:0:
192,192,166648,1,0,0:0:0:0:
448,192,166676,1,0,0:0:0:0:
64,192,166731,1,0,0:0:0:0:
320,192,166731,1,0,0:0:0:0:
192,192,166787,1,0,0:0:0:0:
320,192,166842,1,0,0:0:0:0:
448,192,166898,1,0,0:0:0:0:
64,192,166898,1,0,0:0:0:0:
192,192,166939,1,0,0:0:0:0:
320,192,166981,1,0,0:0:0:0:
448,192,167023,1,0,0:0:0:0:
64,192,167064,1,0,0:0:0:0:
192,192,167064,1,0,0:0:0:0:
320,192,167106,1,0,0:0:0:0:
448,192,167148,1,0,0:0:0:0:
192,192,167189,1,0,0:0:0:0:
64,192,167231,1,0,0:0:0:0:
320,192,167231,1,0,0:0:0:0:
448,192,167273,1,0,0:0:0:0:
192,192,167314,1,0,0:0:0:0:
64,192,167356,1,0,0:0:0:0:
320,192,167398,1,0,0:0:0:0:
448,192,167398,1,0,0:0:0:0:
192,192,167439,1,0,0:0:0:0:
64,192,167481,1,0,0:0:0:0:
448,192,167523,1,0,0:0:0:0:
192,192,167564,1,0,0:0:0:0:
320,192,167564,1,0,0:0:0:0:
64,192,167606,1,0,0:0:0:0:
448,192,167648,1,0,0:0:0:0:
192,192,167648,1,0,0:0:0:0:
320,192,167689,1,0,0:0:0:0:
64,192,167731,1,0,0:0:0:0:
192,192,167731,1,0,0:0:0:0:
448,192,167773,1,0,0:0:0:0:
64,192,167814,1,0,0:0:0:0:
320,192,167814,1,0,0:0:0:0:
192,192,167856,1,0,0:0:0:0:
320,192,167898,1,0,0:0:0:0:
448,192,167898,1,0,0:0:0:0:
64,192,167898,1,0,0:0:0:0:
192,192,167939,1,0,0:0:0:0:
320,192,167981,1,0,0:0:0:0:
448,192,168023,1,0,0:0:0:0:
64,192,168064,1,0,0:0:0:0:
192,192,168064,1,0,0:0:0:0:
320,192,168106,1,0,0:0:0:0:
448,192,168148,1,0,0:0:0:0:
192,192,168189,1,0,0:0:0:0:
64,192,168231,1,0,0:0:0:0:
320,192,168231,1,0,0:0:0:0:
448,192,168273,1,0,0:0:0:0:
192,192,168314,1,0,0:0:0:0:
64,192,168356,1,0,0:0:0:0:
320,192,168398,1,0,0:0:0:0:
448,192,168398,1,0,0:0:0:0:
192,192,168439,1,0,0:0:0:0:
64,192,168481,1,0,0:0:0:0:
448,192,168523,1,0,0:0:0:0:
320,192,168564,1,0,0:0:0:0:
64,192,168564,1,0,0:0:0:0:
192,192,168606,1,0,0:0:0:0:
448,192,168648,1,0,0:0:0:0:
320,192,168689,1,0,0:0:0:0:
192,192,168731,1,0,0:0:0:0:
64,192,168731,1,0,0:0:0:0:
448,192,168773,1,0,0:0:0:0:
320,192,168814,1,0,0:0:0:0:
192,192,168856,1,0,0:0:0:0:
64,192,168898,1,0,0:0:0:0:
320,192,168898,1,0,0:0:0:0:
448,192,168939,1,0,0:0:0:0:
192,192,168981,1,0,0:0:0:0:
320,192,169023,1,0,0:0:0:0:
448,192,169064,1,0,0:0:0:0:
64,192,169064,1,0,0:0:0:0:
192,192,169106,1,0,0:0:0:0:
320,192,169148,1,0,0:0:0:0:
448,192,169148,1,0,0:0:0:0:
192,192,169189,1,0,0:0:0:0:
64,192,169231,1,0,0:0:0:0:
320,192,169231,1,0,0:0:0:0:
448,192,169231,1,0,0:0:0:0:
192,192,169273,1,0,0:0:0:0:
448,192,169314,1,0,0:0:0:0:
320,192,169314,1,0,0:0:0:0:
64,192,169356,1,0,0:0:0:0:
192,192,169398,1,0,0:0:0:0:
448,192,169398,1,0,0:0:0:0:
320,192,169439,1,0,0:0:0:0:
192,192,169481,1,0,0:0:0:0:
64,192,169523,1,0,0:0:0:0:
448,192,169564,1,0,0:0:0:0:
320,192,169564,1,0,0:0:0:0:
192,192,169606,1,0,0:0:0:0:
64,192,169648,1,0,0:0:0:0:
320,192,169648,1,0,0:0:0:0:
448,192,169689,1,0,0:0:0:0:
64,192,169731,1,0,0:0:0:0:
192,192,169731,1,0,0:0:0:0:
320,192,169773,1,0,0:0:0:0:
448,192,169814,1,0,0:0:0:0:
192,192,169814,1,0,0:0:0:0:
64,192,169856,1,0,0:0:0:0:
320,192,169898,1,0,0:0:0:0:
448,192,169898,1,0,0:0:0:0:
192,192,169939,1,0,0:0:0:0:
64,192,169981,1,0,0:0:0:0:
320,192,169981,1,0,0:0:0:0:
448,192,170023,1,0,0:0:0:0:
192,192,170064,1,0,0:0:0:0:
64,192,170064,1,0,0:0:0:0:
320,192,170106,1,0,0:0:0:0:
192,192,170148,1,0,0:0:0:0:
448,192,170148,1,0,0:0:0:0:
64,192,170189,1,0,0:0:0:0:
320,192,170231,1,0,0:0:0:0:
448,192,170231,1,0,0:0:0:0:
192,192,170273,1,0,0:0:0:0:
320,192,170314,1,0,0:0:0:0:
64,192,170314,1,0,0:0:0:0:
448,192,170356,1,0,0:0:0:0:
192,192,170398,1,0,0:0:0:0:
64,192,170398,1,0,0:0:0:0:
320,192,170439,1,0,0:0:0:0:
192,192,170481,1,0,0:0:0:0:
448,192,170481,1,0,0:0:0:0:
64,192,170523,1,0,0:0:0:0:
320,192,170564,1,0,0:0:0:0:
448,192,170564,1,0,0:0:0:0:
192,192,170606,1,0,0:0:0:0:
64,192,170648,1,0,0:0:0:0:
320,192,170648,1,0,0:0:0:0:
448,192,170689,1,0,0:0:0:0:
192,192,170731,1,0,0:0:0:0:
64,192,170731,1,0,0:0:0:0:
320,192,170773,1,0,0:0:0:0:
192,192,170814,1,0,0:0:0:0:
448,192,170814,1,0,0:0:0:0:
64,192,170856,1,0,0:0:0:0:
320,192,170898,1,0,0:0:0:0:
448,192,170898,1,0,0:0:0:0:
192,192,170898,1,0,0:0:0:0:
64,192,170939,1,0,0:0:0:0:
320,192,170981,1,0,0:0:0:0:
448,192,171023,1,0,0:0:0:0:
64,192,171064,1,0,0:0:0:0:
192,192,171064,1,0,0:0:0:0:
320,192,171106,1,0,0:0:0:0:
192,192,171148,1,0,0:0:0:0:
64,192,171189,1,0,0:0:0:0:
448,192,171231,1,0,0:0:0:0:
320,192,171231,1,0,0:0:0:0:
192,192,171273,1,0,0:0:0:0:
64,192,171314,1,0,0:0:0:0:
448,192,171356,1,0,0:0:0:0:
320,192,171398,1,0,0:0:0:0:
192,192,171398,1,0,0:0:0:0:
64,192,171439,1,0,0:0:0:0:
448,192,171481,1,0,0:0:0:0:
192,192,171523,1,0,0:0:0:0:
448,192,171564,1,0,0:0:0:0:
320,192,171564,1,0,0:0:0:0:
64,192,171606,1,0,0:0:0:0:
192,192,171648,1,0,0:0:0:0:
320,192,171648,1,0,0:0:0:0:
448,192,171689,1,0,0:0:0:0:
64,192,171731,1,0,0:0:0:0:
192,192,171731,1,0,0:0:0:0:
320,192,171773,1,0,0:0:0:0:
448,192,171814,1,0,0:0:0:0:
64,192,171814,1,0,0:0:0:0:
192,192,171856,1,0,0:0:0:0:
448,192,171898,1,0,0:0:0:0:
320,192,171898,1,0,0:0:0:0:
64,192,171898,1,0,0:0:0:0:
192,192,171939,1,0,0:0:0:0:
320,192,171981,1,0,0:0:0:0:
448,192,172023,1,0,0:0:0:0:
64,192,172064,1,0,0:0:0:0:
192,192,172064,1,0,0:0:0:0:
320,192,172106,1,0,0:0:0:0:
448,192,172148,1,0,0:0:0:0:
192,192,172189,1,0,0:0:0:0:
64,192,172231,1,0,0:0:0:0:
320,192,172231,1,0,0:0:0:0:
448,192,172273,1,0,0:0:0:0:
192,192,172314,1,0,0:0:0:0:
64,192,172356,1,0,0:0:0:0:
320,192,172398,1,0,0:0:0:0:
448,192,172398,1,0,0:0:0:0:
64,192,172439,1,0,0:0:0:0:
192,192,172481,1,0,0:0:0:0:
320,192,172523,1,0,0:0:0:0:
192,192,172564,1,0,0:0:0:0:
448,192,172564,1,0,0:0:0:0:
64,192,172606,1,0,0:0:0:0:
320,192,172648,1,0,0:0:0:0:
192,192,172689,1,0,0:0:0:0:
64,192,172731,1,0,0:0:0:0:
448,192,172731,1,0,0:0:0:0:
320,192,172773,1,0,0:0:0:0:
192,192,172814,1,0,0:0:0:0:
64,192,172856,1,0,0:0:0:0:
320,192,172898,1,0,0:0:0:0:
448,192,172898,1,0,0:0:0:0:
192,192,172939,1,0,0:0:0:0:
64,192,172981,1,0,0:0:0:0:
320,192,173023,1,0,0:0:0:0:
448,192,173064,1,0,0:0:0:0:
192,192,173064,1,0,0:0:0:0:
64,192,173106,1,0,0:0:0:0:
320,192,173148,1,0,0:0:0:0:
448,192,173148,1,0,0:0:0:0:
192,192,173189,1,0,0:0:0:0:
64,192,173231,1,0,0:0:0:0:
320,192,173231,1,0,0:0:0:0:
448,192,173231,1,0,0:0:0:0:
192,192,173273,1,0,0:0:0:0:
64,192,173314,1,0,0:0:0:0:
448,192,173314,1,0,0:0:0:0:
320,192,173356,1,0,0:0:0:0:
64,192,173398,1,0,0:0:0:0:
192,192,173398,1,0,0:0:0:0:
448,192,173439,1,0,0:0:0:0:
320,192,173481,1,0,0:0:0:0:
192,192,173523,1,0,0:0:0:0:
64,192,173564,1,0,0:0:0:0:
448,192,173564,1,0,0:0:0:0:
320,192,173606,1,0,0:0:0:0:
192,192,173648,1,0,0:0:0:0:
64,192,173648,1,0,0:0:0:0:
448,192,173689,1,0,0:0:0:0:
320,192,173731,1,0,0:0:0:0:
192,192,173731,1,0,0:0:0:0:
64,192,173773,1,0,0:0:0:0:
448,192,173814,1,0,0:0:0:0:
320,192,173814,1,0,0:0:0:0:
192,192,173856,1,0,0:0:0:0:
64,192,173898,1,0,0:0:0:0:
448,192,173898,1,0,0:0:0:0:
320,192,173939,1,0,0:0:0:0:
192,192,173981,1,0,0:0:0:0:
64,192,173981,1,0,0:0:0:0:
320,192,174023,1,0,0:0:0:0:
192,192,174064,1,0,0:0:0:0:
448,192,174064,1,0,0:0:0:0:
64,192,174106,1,0,0:0:0:0:
320,192,174148,1,0,0:0:0:0:
448,192,174148,1,0,0:0:0:0:
192,192,174189,1,0,0:0:0:0:
64,192,174231,1,0,0:0:0:0:
320,192,174231,1,0,0:0:0:0:
448,192,174273,1,0,0:0:0:0:
64,192,174314,1,0,0:0:0:0:
192,192,174314,1,0,0:0:0:0:
320,192,174356,1,0,0:0:0:0:
64,192,174398,1,0,0:0:0:0:
448,192,174398,1,0,0:0:0:0:
192,192,174439,1,0,0:0:0:0:
320,192,174481,1,0,0:0:0:0:
448,192,174481,1,0,0:0:0:0:
64,192,174523,1,0,0:0:0:0:
192,192,174564,1,0,0:0:0:0:
320,192,174564,1,0,0:0:0:0:
448,192,174606,1,0,0:0:0:0:
64,192,174648,1,0,0:0:0:0:
192,192,174648,1,0,0:0:0:0:
448,192,174689,1,0,0:0:0:0:
320,192,174731,1,0,0:0:0:0:
64,192,174731,1,0,0:0:0:0:
192,192,174773,1,0,0:0:0:0:
320,192,174814,1,0,0:0:0:0:
448,192,174814,1,0,0:0:0:0:
64,192,174856,1,0,0:0:0:0:
448,192,174898,1,0,0:0:0:0:
192,192,174898,1,0,0:0:0:0:
320,192,174898,1,0,0:0:0:0:
64,192,174981,1,0,0:0:0:0:
192,192,175148,1,0,0:0:0:0:
320,192,175148,1,0,0:0:0:0:
448,192,175148,1,0,0:0:0:0:
64,192,175231,1,0,0:0:0:0:
192,192,175398,1,0,0:0:0:0:
320,192,175398,1,0,0:0:0:0:
448,192,175398,1,0,0:0:0:0:
64,192,175481,128,0,178231:0:0:0:0:
