osu file format v14

[General]
AudioFilename: Chronoxia.mp3
AudioLeadIn: 0
PreviewTime: 22479
Countdown: 0
SampleSet: Soft
StackLeniency: 0.7
Mode: 2
LetterboxInBreaks: 0
WidescreenStoryboard: 0

[Editor]
Bookmarks: 22563,37063,54547,65213,75880,97813
DistanceSpacing: 1.3
BeatDivisor: 4
GridSize: 4
TimelineZoom: 2.5

[Metadata]
Title:Chronoxia
TitleUnicode:Chronoxia
Artist:DJ Totoriott
ArtistUnicode:DJ Totoriott
Creator:Kyuare
Version:Crystal's Salad
Source:REFLEC BEAT groovin'!!
Tags:CLSW WildOne94 JBHyperion Kurokami Furely konami bemani totto
BeatmapID:950823
BeatmapSetID:429184

[Difficulty]
HPDrainRate:5
CircleSize:3.2
OverallDifficulty:7
ApproachRate:7
SliderMultiplier:1.6
SliderTickRate:1

[Events]
//Background and Video events
0,0,"Konachan.com - 201426 brown_hair dress headdress isis_(p&d) long_hair maiwetea purple_eyes puzzle_&_dragons water white.jpg",0,0
//Break Periods
2,65429,74996
//Storyboard Layer 0 (Background)
//Storyboard Layer 1 (Fail)
//Storyboard Layer 2 (Pass)
//Storyboard Layer 3 (Foreground)
//Storyboard Sound Samples

[TimingPoints]
1230,333.333333333333,4,2,0,60,1,0
81229,-100,4,2,0,60,0,1
102563,-100,4,2,0,60,0,0

[Colours]
Combo1 : 115,69,152
Combo2 : 65,95,118
Combo3 : 205,224,252
Combo4 : 255,255,191

[HitObjects]
448,144,1230,5,4,0:0:0:0:
176,192,1896,1,8,0:0:0:0:
448,240,2563,5,8,0:0:0:0:
208,144,3229,2,0,P|192:176|224:256,1,106.666666666667,2|0,0:0|0:0,0:0:0:0:
304,144,3563,2,0,P|320:176|288:256,1,106.666666666667,2|0,0:0|0:0,0:0:0:0:
208,242,3896,5,8,0:0:0:0:
480,272,4563,1,8,0:0:0:0:
208,304,5229,5,8,0:0:0:0:
304,304,5563,1,0,0:0:0:0:
400,304,5896,2,0,P|416:240|392:216,1,106.666666666667,2|0,0:0|0:0,0:0:0:0:
308,160,6229,2,0,L|200:160,1,106.666666666667,2|0,0:0|0:0,0:0:0:0:
120,216,6563,5,4,0:0:0:0:
392,260,7229,1,8,0:0:0:0:
120,304,7896,5,8,0:0:0:0:
360,208,8562,2,0,P|376:240|344:320,1,106.666666666667,2|0,0:0|0:0,0:0:0:0:
264,208,8896,2,0,P|248:240|280:320,1,106.666666666667,2|0,0:0|0:0,0:0:0:0:
360,306,9229,5,8,0:0:0:0:
159,308,9895,1,8,0:0:0:0:
360,306,10562,5,8,0:0:0:0:
232,304,10896,1,0,0:0:0:0:
112,304,11229,2,0,P|96:240|120:216,1,106.666666666667,2|0,0:0|0:0,0:0:0:0:
204,160,11562,2,0,L|312:160,1,106.666666666667,2|0,0:0|0:0,0:0:0:0:
392,216,11896,5,4,0:0:0:0:
120,216,12563,1,8,0:0:0:0:
392,288,13229,5,8,0:0:0:0:
144,160,13896,2,0,P|104:190|115:239,1,106.666666666667,2|0,0:0|0:0,0:0:0:0:
204,240,14229,2,0,P|244:270|233:319,1,106.666666666667,2|0,0:0|0:0,0:0:0:0:
144,320,14563,5,4,0:0:0:0:
416,284,15230,1,8,0:0:0:0:
144,248,15896,5,8,0:0:0:0:
368,160,16563,2,0,P|408:190|397:239,1,106.666666666667,2|0,0:0|0:0,0:0:0:0:
308,240,16896,2,0,P|268:270|279:319,1,106.666666666667,2|0,0:0|0:0,0:0:0:0:
368,320,17229,6,0,P|408:280|392:184,1,160,4|8,0:0|0:0,0:0:0:0:
232,320,17896,2,0,P|172:272|188:180,1,160,2|8,0:0|0:0,0:0:0:0:
384,196,18563,6,0,P|403:120|367:50,1,160,4|8,0:0|0:0,0:0:0:0:
208,48,19229,2,0,P|192:128|216:200,1,160,2|8,0:0|0:0,0:0:0:0:
480,76,19896,5,4,0:0:0:0:
296,76,20229,1,8,0:0:0:0:
480,144,20563,2,0,P|456:192|408:204,1,106.666666666667,2|0,0:0|0:0,0:0:0:0:
328,136,20896,2,0,P|352:88|400:76,1,106.666666666667,8|0,0:0|0:0,0:0:0:0:
480,76,21229,5,4,0:0:0:0:
256,192,21563,12,4,22563,0:0:0:0:
160,144,23229,5,8,0:0:0:0:
368,144,23896,1,2,0:0:0:0:
256,144,24229,1,0,0:0:0:0:
144,144,24563,2,2,P|108:212|128:288,1,160,2|10,0:0|0:0,0:0:0:0:
392,280,25229,6,0,L|400:200,1,80,4|4,0:0|0:0,0:0:0:0:
160,188,25896,1,8,0:0:0:0:
272,188,26229,1,0,0:0:0:0:
384,188,26563,5,2,0:0:0:0:
384,176,26896,1,0,0:0:0:0:
224,176,27229,2,0,P|152:144|192:80,1,160,2|8,0:0|0:0,0:0:0:0:
444,184,27896,6,0,P|476:232|396:280,1,160,4|8,0:0|0:0,0:0:0:0:
220,284,28563,2,0,L|396:284,1,160,2|8,0:0|0:0,0:0:0:0:
292,284,29063,1,0,0:0:0:0:
204,284,29229,6,0,P|139:249|168:182,1,160,2|8,0:0|0:0,0:0:0:0:
360,184,29896,2,0,L|184:184,1,160,2|8,0:0|0:0,0:0:0:0:
464,312,30563,6,0,P|500:240|464:176,1,160,4|8,0:0|0:0,0:0:0:0:
264,176,31229,2,0,P|192:208|184:284,1,160,2|8,0:0|0:0,0:0:0:0:
448,176,31896,2,0,P|484:244|448:312,1,160,4|8,0:0|0:0,0:0:0:0:
184,312,32563,1,4,0:0:0:0:
104,192,32729,1,0,0:0:0:0:
184,72,32896,1,8,0:0:0:0:
448,72,33229,6,0,L|320:168,3,160,4|8|2|8,0:0|0:0|0:0|0:0,0:0:0:0:
228,144,34396,1,0,0:0:0:0:
136,112,34563,6,0,L|264:208,1,160,2|8,0:0|0:0,0:0:0:0:
424,112,35229,2,0,L|296:208,1,160,2|8,0:0|0:0,0:0:0:0:
104,104,35896,5,2,0:0:0:0:
272,104,36229,1,8,0:0:0:0:
104,168,36563,1,2,0:0:0:0:
272,168,36896,1,8,0:0:0:0:
188,168,37063,1,0,0:0:0:0:
104,168,37229,6,0,P|84:240|148:280,1,160,2|8,0:0|0:0,0:0:0:0:
324,168,37896,2,0,P|344:240|280:280,1,160,2|8,0:0|0:0,0:0:0:0:
16,284,38563,6,0,P|16:236|103:183,1,160,4|8,0:0|0:0,0:0:0:0:
296,184,39229,2,0,P|296:136|209:83,1,160,2|8,0:0|0:0,0:0:0:0:
120,84,39729,1,0,0:0:0:0:
32,84,39896,6,0,P|0:156|28:228,1,160,2|8,0:0|0:0,0:0:0:0:
220,144,40563,2,0,P|252:216|216:288,1,160,2|8,0:0|0:0,0:0:0:0:
27,227,41229,5,2,0:0:0:0:
170,319,41563,1,8,0:0:0:0:
28,320,41896,1,2,0:0:0:0:
169,228,42229,1,8,0:0:0:0:
360,148,42563,5,2,0:0:0:0:
318,102,42729,1,0,0:0:0:0:
276,56,42896,1,8,0:0:0:0:
84,144,43229,2,0,L|220:56,1,160,2|8,0:0|0:0,0:0:0:0:
484,144,43896,6,0,P|476:220|404:240,1,160,4|8,0:0|0:0,0:0:0:0:
212,240,44563,2,0,L|372:240,1,160,2|8,0:0|0:0,0:0:0:0:
294,187,45063,1,0,0:0:0:0:
216,136,45229,2,0,P|136:136|228:136,1,160,2|8,0:0|0:0,0:0:0:0:
372,240,45896,2,0,L|212:240,1,160,2|8,0:0|0:0,0:0:0:0:
404,240,46563,6,0,P|444:169|404:109,1,160,2|8,0:0|0:0,0:0:0:0:
212,104,47229,1,2,0:0:0:0:
405,109,47563,1,8,0:0:0:0:
316,108,47729,1,0,0:0:0:0:
228,108,47896,6,0,P|160:116|148:40,1,160,4|8,0:0|0:0,0:0:0:0:
340,40,48563,1,2,0:0:0:0:
147,40,48896,1,8,0:0:0:0:
412,40,49229,6,0,P|428:104|348:120,1,160,4|8,0:0|0:0,0:0:0:0:
272,124,49729,1,0,0:0:0:0:
192,123,49896,2,0,L|352:123,1,160,2|8,0:0|0:0,0:0:0:0:
88,124,50563,6,0,P|72:188|152:204,1,160,4|8,0:0|0:0,0:0:0:0:
228,208,51063,1,0,0:0:0:0:
308,207,51229,2,0,L|148:207,1,160,2|8,0:0|0:0,0:0:0:0:
404,208,51896,6,0,L|488:72,2,160,4|8|2,0:0|0:0|0:0,0:0:0:0:
204,208,52896,2,0,L|124:208,2,80,8|0|2,0:0|0:0|0:0,0:0:0:0:
396,208,53563,1,4,0:0:0:0:
228,192,53896,1,2,0:0:0:0:
420,160,54229,1,4,0:0:0:0:
156,160,54563,6,0,L|52:192,1,106.666666666667,2|0,0:0|0:0,0:0:0:0:
44,236,54896,2,0,L|204:236,1,160,8|2,0:0|0:0,0:0:0:0:
212,308,55452,1,0,0:0:0:0:
177,307,55563,1,8,0:0:0:0:
52,308,55785,1,0,0:0:0:0:
88,308,55896,1,2,0:0:0:0:
212,236,56118,1,0,0:0:0:0:
176,236,56229,6,0,L|68:236,1,106.666666666667,8|0,0:0|0:0,0:0:0:0:
60,196,56563,2,0,P|76:148|124:128,1,106.666666666667,2|0,0:0|0:0,0:0:0:0:
160,164,56896,1,8,0:0:0:0:
363,161,57229,5,2,0:0:0:0:
187,113,57563,2,0,P|163:161|195:209,1,106.666666666667,8|0,0:0|0:0,0:0:0:0:
251,209,57896,2,0,P|275:257|243:305,1,106.666666666667,2|0,0:0|0:0,0:0:0:0:
187,297,58229,2,0,P|139:241|187:185,1,160,8|2,0:0|0:0,0:0:0:0:
345,190,58785,5,0,0:0:0:0:
310,189,58896,1,8,0:0:0:0:
186,185,59118,1,0,0:0:0:0:
221,184,59229,1,2,0:0:0:0:
347,233,59452,1,0,0:0:0:0:
396,236,59563,2,0,P|428:188|396:164,1,106.666666666667,8|0,0:0|0:0,0:0:0:0:
347,161,59896,5,4,0:0:0:0:
165,161,60229,1,8,0:0:0:0:
347,119,60563,2,0,P|395:167|395:215,1,106.666666666667,2|0,0:0|0:0,0:0:0:0:
331,215,60896,2,0,L|227:191,1,106.666666666667,8|0,0:0|0:0,0:0:0:0:
299,231,61229,6,0,P|347:279|347:327,1,106.666666666667,2|0,0:0|0:0,0:0:0:0:
283,327,61563,2,0,L|179:303,1,106.666666666667,8|0,0:0|0:0,0:0:0:0:
112,276,61896,2,0,P|93:243|177:203,1,160,2|8,0:0|0:0,0:0:0:0:
356,77,62563,5,2,0:0:0:0:
462,77,62896,2,0,L|356:77,1,106.666666666667,8|0,0:0|0:0,0:0:0:0:
288,145,63229,2,0,P|208:177|208:209,1,106.666666666667,2|0,0:0|0:0,0:0:0:0:
272,185,63563,2,0,P|352:217|352:249,1,106.666666666667,8|0,0:0|0:0,0:0:0:0:
292,225,63896,2,0,B|212:224|212:224|304:224,1,160,2|8,0:0|0:0,0:0:0:0:
400,296,64563,6,0,L|292:296,1,106.666666666667,2|0,0:0|0:0,0:0:0:0:
212,256,64896,2,8,L|190:208,2,53.3333333333333
296,224,65229,5,4,0:0:0:0:
190,128,75896,6,0,P|174:176|286:192,1,160,4|8,0:0|0:0,0:0:0:0:
320,128,76563,2,0,P|336:176|224:192,1,160,2|8,0:0|0:0,0:0:0:0:
144,160,77229,6,0,P|128:208|240:224,1,160,2|8,0:0|0:0,0:0:0:0:
368,160,77896,2,0,P|384:208|272:224,1,160,2|8,0:0|0:0,0:0:0:0:
216,231,78396,1,0,0:0:0:0:
128,208,78563,6,0,P|112:256|224:272,1,160,2|8,0:0|0:0,0:0:0:0:
384,208,79230,2,0,P|400:256|288:272,1,160,2|8,0:0|0:0,0:0:0:0:
112,256,79896,6,0,P|96:304|208:320,1,160,2|8,0:0|0:0,0:0:0:0:
432,248,80563,1,8,0:0:0:0:
408,128,80896,1,2,0:0:0:0:
120,124,81229,6,0,P|64:180|80:252,1,160,4|8,0:0|0:0,0:0:0:0:
280,252,81896,2,0,P|356:238|352:168,1,160,2|8,0:0|0:0,0:0:0:0:
88,168,82563,6,0,L|40:240,2,80,2|2|8,0:0|0:0|0:0,0:0:0:0:
264,256,83229,2,0,P|320:200|280:144,1,160,2|8,0:0|0:0,0:0:0:0:
200,144,83729,1,0,0:0:0:0:
120,144,83896,6,0,P|148:72|216:32,1,160,2|8,0:0|0:0,0:0:0:0:
376,148,84563,2,0,P|408:196|356:276,1,160,2|8,0:0|0:0,0:0:0:0:
176,276,85229,6,0,L|336:276,3,160,2|8|2|8,0:0|0:0|0:0|0:0,0:0:0:0:
80,256,86563,6,0,P|72:176|136:152,1,160,4|8,0:0|0:0,0:0:0:0:
224,152,87063,1,0,0:0:0:0:
312,152,87229,2,0,L|152:152,1,160,2|8,0:0|0:0,0:0:0:0:
416,152,87896,6,0,L|464:224,2,80,2|2|8,0:0|0:0|0:0,0:0:0:0:
216,152,88563,2,0,P|140:160|116:232,1,160,2|8,0:0|0:0,0:0:0:0:
244,264,89063,1,0,0:0:0:0:
372,300,89229,6,0,L|476:176,3,160,4|8|2|8,0:0|0:0|0:0|0:0,0:0:0:0:
384,180,90396,1,0,0:0:0:0:
292,180,90563,5,4,0:0:0:0:
474,177,90896,2,0,P|446:109|370:81,1,160,8|2,0:0|0:0,0:0:0:0:
292,80,91396,1,0,0:0:0:0:
236,80,91563,1,8,0:0:0:0:
220,80,91729,1,0,0:0:0:0:
332,192,91896,6,0,P|404:160|436:88,1,160,4|8,0:0|0:0,0:0:0:0:
244,192,92563,2,0,L|84:192,1,160,2|8,0:0|0:0,0:0:0:0:
348,92,93229,6,0,L|364:172,1,80,2|0,0:0|0:0,0:0:0:0:
269,171,93563,2,0,L|253:251,1,80,8|0,0:0|0:0,0:0:0:0:
348,252,93896,6,0,P|386:190|353:115,1,160,2|8,0:0|0:0,0:0:0:0:
272,116,94396,1,0,0:0:0:0:
192,120,94563,6,0,P|154:182|187:257,1,160,2|8,0:0|0:0,0:0:0:0:
376,108,95229,2,0,L|460:244,1,160,2|8,0:0|0:0,0:0:0:0:
364,244,95729,1,0,0:0:0:0:
268,244,95896,6,0,P|230:182|263:107,1,160,2|8,0:0|0:0,0:0:0:0:
432,112,96562,2,0,L|272:112,1,160,2|8,0:0|0:0,0:0:0:0:
176,112,97063,1,0,0:0:0:0:
80,112,97229,6,0,P|108:185|177:222,1,160,4|8,0:0|0:0,0:0:0:0:
372,224,97896,2,0,P|441:187|468:114,1,160,2|8,0:0|0:0,0:0:0:0:
365,114,98396,1,0,0:0:0:0:
261,114,98563,6,0,L|245:194,1,80,4|0,0:0|0:0,0:0:0:0:
341,194,98896,2,0,L|357:274,1,80,8|0,0:0|0:0,0:0:0:0:
245,274,99229,2,0,P|181:234|141:162,1,160,2|8,0:0|0:0,0:0:0:0:
404,268,99896,6,0,P|468:224|472:148,1,160,4|8,0:0|0:0,0:0:0:0:
368,144,100396,1,0,0:0:0:0:
264,128,100563,6,0,L|248:208,1,80,4|0,0:0|0:0,0:0:0:0:
344,208,100896,2,0,L|360:288,1,80,8|0,0:0|0:0,0:0:0:0:
249,206,101229,6,0,P|181:250|181:322,1,160,4|8,0:0|0:0,0:0:0:0:
390,322,101896,2,0,P|456:281|459:204,1,160,2|8,0:0|0:0,0:0:0:0:
344,208,102396,1,0,0:0:0:0:
232,208,102563,5,4,0:0:0:0:
256,192,102896,12,0,105229,0:0:0:0:
