osu file format v14

[General]
AudioFilename: Chronoxia.mp3
AudioLeadIn: 0
PreviewTime: 22479
Countdown: 0
SampleSet: Soft
StackLeniency: 0.7
Mode: 2
LetterboxInBreaks: 0
WidescreenStoryboard: 0

[Editor]
Bookmarks: 22563,54547,65213,75880
DistanceSpacing: 1.4
BeatDivisor: 12
GridSize: 8
TimelineZoom: 4.199998

[Metadata]
Title:Chronoxia
TitleUnicode:Chronoxia
Artist:DJ Totoriott
ArtistUnicode:DJ Totoriott
Creator:Kyuare
Version:Chronos
Source:REFLEC BEAT groovin'!!
Tags:CLSW WildOne94 JBHyperion Kurokami Furely konami bemani totto
BeatmapID:926084
BeatmapSetID:429184

[Difficulty]
HPDrainRate:7
CircleSize:4.2
OverallDifficulty:9.6
ApproachRate:9.6
SliderMultiplier:1.92
SliderTickRate:1

[Events]
//Background and Video events
0,0,"Konachan.com - 201426 brown_hair dress headdress isis_(p&d) long_hair maiwetea purple_eyes puzzle_&_dragons water white.jpg",0,0
//Break Periods
2,65429,75387
//Storyboard Layer 0 (Background)
//Storyboard Layer 1 (Fail)
//Storyboard Layer 2 (Pass)
//Storyboard Layer 3 (Foreground)
//Storyboard Sound Samples

[TimingPoints]
1230,333.333333333333,4,2,0,60,1,0
81229,-100,4,2,0,60,0,1
102563,-100,4,2,0,60,0,0

[Colours]
Combo1 : 115,69,152
Combo2 : 65,95,118
Combo3 : 205,224,252
Combo4 : 255,255,191

[HitObjects]
256,224,1007,5,0,0:0:0:0:
352,192,1118,1,0,0:0:0:0:
160,192,1230,6,0,B|64:192|64:192|176:192,1,192,4|0,0:0|0:0,0:0:0:0:
240,176,1674,1,0,0:0:0:0:
160,144,1785,1,0,0:0:0:0:
352,192,1896,2,0,B|448:192|448:192|336:192,1,192,8|0,0:0|0:0,0:0:0:0:
272,176,2341,1,0,0:0:0:0:
352,144,2452,1,0,0:0:0:0:
128,192,2563,2,0,B|32:192|32:192|144:192,1,192,2|0,0:0|0:0,0:0:0:0:
208,176,3007,1,0,0:0:0:0:
128,144,3118,1,0,0:0:0:0:
304,144,3229,5,8,0:0:0:0:
224,192,3341,1,0,0:0:0:0:
304,240,3452,1,0,0:0:0:0:
128,192,3563,1,8,0:0:0:0:
192,224,3674,1,0,0:0:0:0:
128,256,3785,1,0,0:0:0:0:
352,192,3896,6,0,B|448:192|448:192|336:192,1,192,2|0,0:0|0:0,0:0:0:0:
272,144,4341,1,0,0:0:0:0:
352,96,4452,1,0,0:0:0:0:
160,192,4563,2,0,B|64:192|64:192|176:192,1,192,8|0,0:0|0:0,0:0:0:0:
240,144,5007,1,0,0:0:0:0:
160,96,5118,1,0,0:0:0:0:
384,192,5229,2,0,B|480:192|480:192|368:192,1,192,2|0,0:0|0:0,0:0:0:0:
304,144,5674,1,0,0:0:0:0:
384,144,5785,1,0,0:0:0:0:
160,144,5896,5,8,0:0:0:0:
240,192,6007,1,0,0:0:0:0:
160,240,6118,1,0,0:0:0:0:
352,144,6229,1,8,0:0:0:0:
288,192,6341,1,0,0:0:0:0:
352,240,6452,1,0,0:0:0:0:
113,255,6563,6,0,B|1:255|1:191|113:191,1,192,4|0,0:0|0:0,0:0:0:0:
208,192,7007,1,0,0:0:0:0:
304,192,7118,1,0,0:0:0:0:
400,192,7229,2,0,B|448:192|448:192|448:96|448:96|392:96,1,192,8|0,0:0|0:0,0:0:0:0:
304,128,7674,1,0,0:0:0:0:
208,128,7785,1,0,0:0:0:0:
112,128,7896,2,0,B|48:128|48:128|128:128,1,128,2|0,0:0|0:0,0:0:0:0:
208,128,8229,1,0,0:0:0:0:
288,128,8341,1,0,0:0:0:0:
368,128,8452,1,0,0:0:0:0:
160,128,8563,5,8,0:0:0:0:
240,96,8674,1,0,0:0:0:0:
160,64,8785,1,0,0:0:0:0:
352,64,8896,1,8,0:0:0:0:
272,96,9007,1,0,0:0:0:0:
352,128,9118,1,0,0:0:0:0:
160,128,9229,6,0,P|96:128|64:192,1,128,2|0,0:0|0:0,0:0:0:0:
176,176,9563,1,0,0:0:0:0:
240,208,9674,1,0,0:0:0:0:
176,240,9785,1,0,0:0:0:0:
352,128,9896,2,0,P|416:128|448:192,1,128,8|0,0:0|0:0,0:0:0:0:
336,176,10229,1,0,0:0:0:0:
272,208,10341,1,0,0:0:0:0:
336,240,10452,1,0,0:0:0:0:
160,240,10563,2,0,P|112:192|128:128,1,128,2|0,0:0|0:0,0:0:0:0:
224,112,10896,1,0,0:0:0:0:
160,80,11007,1,0,0:0:0:0:
224,48,11118,1,0,0:0:0:0:
32,64,11229,5,8,0:0:0:0:
112,96,11341,1,0,0:0:0:0:
32,128,11452,1,0,0:0:0:0:
256,128,11563,1,8,0:0:0:0:
176,160,11674,1,0,0:0:0:0:
256,192,11785,1,0,0:0:0:0:
32,192,11896,6,0,L|224:192,1,192,4|0,0:0|0:0,0:0:0:0:
144,160,12341,1,0,0:0:0:0:
224,128,12452,1,0,0:0:0:0:
480,256,12563,2,0,L|288:256,1,192,8|0,0:0|0:0,0:0:0:0:
368,224,13007,1,0,0:0:0:0:
288,192,13118,1,0,0:0:0:0:
32,256,13229,2,0,L|224:256,1,192,8|0,0:0|0:0,0:0:0:0:
144,224,13674,1,0,0:0:0:0:
224,184,13785,1,0,0:0:0:0:
480,64,13896,5,8,0:0:0:0:
400,96,14007,1,0,0:0:0:0:
480,128,14118,1,0,0:0:0:0:
256,128,14229,1,8,0:0:0:0:
336,160,14341,1,0,0:0:0:0:
256,192,14452,1,0,0:0:0:0:
480,192,14563,6,0,L|288:192,1,192,4|0,0:0|0:0,0:0:0:0:
368,160,15007,1,0,0:0:0:0:
288,128,15118,1,0,0:0:0:0:
32,256,15229,2,0,L|224:256,1,192,8|0,0:0|0:0,0:0:0:0:
144,224,15674,1,0,0:0:0:0:
224,192,15785,1,0,0:0:0:0:
480,256,15896,2,0,L|288:256,1,192,8|0,0:0|0:0,0:0:0:0:
368,224,16341,1,0,0:0:0:0:
288,192,16452,1,0,0:0:0:0:
112,256,16563,5,8,0:0:0:0:
192,208,16674,1,0,0:0:0:0:
112,160,16785,1,0,0:0:0:0:
288,112,16896,1,8,0:0:0:0:
368,168,17007,1,0,0:0:0:0:
288,224,17119,1,0,0:0:0:0:
32,128,17229,6,0,B|32:192|32:192|96:192,1,128,4|0,0:0|0:0,0:0:0:0:
336,256,17563,1,8,0:0:0:0:
256,256,17674,1,0,0:0:0:0:
176,256,17785,1,0,0:0:0:0:
480,128,17896,2,0,B|480:192|480:192|416:192,1,128,2|0,0:0|0:0,0:0:0:0:
160,256,18229,1,8,0:0:0:0:
256,256,18340,1,0,0:0:0:0:
352,256,18451,1,0,0:0:0:0:
144,256,18563,6,0,B|80:256|80:256|80:192,1,128,4|0,0:0|0:0,0:0:0:0:
176,192,18896,1,8,0:0:0:0:
112,160,19007,1,0,0:0:0:0:
176,128,19118,1,0,0:0:0:0:
368,160,19229,1,2,0:0:0:0:
288,128,19340,1,0,0:0:0:0:
368,96,19451,1,0,0:0:0:0:
144,160,19563,1,8,0:0:0:0:
224,128,19674,1,0,0:0:0:0:
144,96,19785,1,0,0:0:0:0:
368,96,19896,5,4,0:0:0:0:
448,128,20007,1,2,0:0:0:0:
368,160,20118,1,0,0:0:0:0:
144,96,20229,1,8,0:0:0:0:
64,128,20340,1,0,0:0:0:0:
144,160,20451,1,2,0:0:0:0:
344,160,20563,5,8,0:0:0:0:
256,160,20674,1,8,0:0:0:0:
168,160,20785,1,8,0:0:0:0:
424,96,20896,1,8,0:0:0:0:
256,96,21007,1,8,0:0:0:0:
88,96,21118,1,8,0:0:0:0:
336,288,21229,6,0,P|384:288|448:176,1,192,4|8,0:0|0:0,0:0:0:0:
288,176,21729,1,8,0:0:0:0:
256,144,21785,1,0,0:0:0:0:
288,112,21841,1,0,0:0:0:0:
400,112,21896,5,2,0:0:0:0:
432,112,21979,1,0,0:0:0:0:
256,112,22063,1,8,0:0:0:0:
224,112,22146,1,0,0:0:0:0:
400,176,22229,1,8,0:0:0:0:
424,176,22271,1,0,0:0:0:0:
448,176,22313,1,8,0:0:0:0:
256,176,22396,1,8,0:0:0:0:
224,176,22438,1,0,0:0:0:0:
192,176,22479,1,8,0:0:0:0:
400,240,22563,6,0,L|496:240,1,96,4|0,0:0|0:0,0:0:0:0:
416,240,22813,1,0,0:0:0:0:
336,240,22896,1,2,0:0:0:0:
464,304,23063,1,0,0:0:0:0:
400,304,23146,1,0,0:0:0:0:
256,304,23229,2,2,L|352:304,1,96
192,304,23563,1,2,0:0:0:0:
128,304,23618,1,0,0:0:0:0:
96,288,23674,1,0,0:0:0:0:
80,256,23729,1,0,0:0:0:0:
304,256,23896,5,2,0:0:0:0:
176,208,24063,1,0,0:0:0:0:
240,160,24146,1,0,0:0:0:0:
176,112,24229,1,2,0:0:0:0:
336,208,24396,1,0,0:0:0:0:
272,160,24479,1,0,0:0:0:0:
336,112,24563,1,2,0:0:0:0:
208,112,24729,1,0,0:0:0:0:
176,112,24813,1,0,0:0:0:0:
320,112,24896,1,2,0:0:0:0:
376,112,24951,1,0,0:0:0:0:
408,96,25007,1,0,0:0:0:0:
424,64,25062,1,0,0:0:0:0:
136,40,25229,5,4,0:0:0:0:
376,40,25396,1,4,0:0:0:0:
448,96,25479,1,0,0:0:0:0:
376,152,25563,1,2,0:0:0:0:
256,152,25729,1,0,0:0:0:0:
184,216,25813,1,0,0:0:0:0:
256,272,25896,2,0,L|352:272,1,96,2|0,0:0|0:0,0:0:0:0:
200,272,26229,1,2,0:0:0:0:
136,272,26285,1,0,0:0:0:0:
104,256,26341,1,0,0:0:0:0:
88,224,26396,1,0,0:0:0:0:
240,192,26563,5,2,0:0:0:0:
88,192,26729,1,0,0:0:0:0:
128,128,26813,1,0,0:0:0:0:
272,128,26896,2,0,L|368:128,1,96,2|0,0:0|0:0,0:0:0:0:
288,152,27146,1,0,0:0:0:0:
208,176,27229,1,2,0:0:0:0:
368,128,27396,1,2,0:0:0:0:
128,200,27563,1,4,0:0:0:0:
368,192,27729,1,2,0:0:0:0:
128,272,27896,6,0,B|80:272|80:272|144:272,1,96,4|0,0:0|0:0,0:0:0:0:
200,272,28146,1,0,0:0:0:0:
272,272,28229,1,8,0:0:0:0:
128,200,28396,1,0,0:0:0:0:
200,200,28479,1,0,0:0:0:0:
352,200,28563,2,0,B|400:200|400:200|400:176|376:160,1,96,2|0,0:0|0:0,0:0:0:0:
304,128,28813,1,0,0:0:0:0:
160,96,28896,1,8,0:0:0:0:
96,104,28952,1,0,0:0:0:0:
56,136,29007,1,0,0:0:0:0:
48,192,29063,1,0,0:0:0:0:
112,248,29146,1,0,0:0:0:0:
400,128,29229,6,0,P|432:160|432:208,1,96,2|0,0:0|0:0,0:0:0:0:
360,208,29479,1,0,0:0:0:0:
288,208,29562,1,8,0:0:0:0:
432,272,29729,1,0,0:0:0:0:
360,272,29812,1,0,0:0:0:0:
160,200,29896,2,0,B|112:200|112:200|112:176|136:160,1,96,2|0,0:0|0:0,0:0:0:0:
208,128,30146,1,0,0:0:0:0:
352,96,30229,1,8,0:0:0:0:
416,104,30285,1,0,0:0:0:0:
456,136,30340,1,0,0:0:0:0:
464,192,30396,1,0,0:0:0:0:
400,248,30479,1,0,0:0:0:0:
256,96,30563,6,0,P|216:112|208:160,1,96,4|0,0:0|0:0,0:0:0:0:
288,160,30813,1,0,0:0:0:0:
368,160,30896,2,0,P|408:176|416:224,1,96,8|0,0:0|0:0,0:0:0:0:
320,224,31146,1,0,0:0:0:0:
224,224,31229,2,0,P|191:190|191:143,1,96,2|0,0:0|0:0,0:0:0:0:
416,144,31563,2,0,P|448:110|448:63,1,96,8|0,0:0|0:0,0:0:0:0:
288,64,31813,1,0,0:0:0:0:
112,64,31896,6,0,L|96:112,1,48,4|0,0:0|0:0,0:0:0:0:
256,112,32063,2,0,L|256:160,1,48,8|0,0:0|0:0,0:0:0:0:
400,64,32229,2,0,L|416:112,1,48,8|0,0:0|0:0,0:0:0:0:
128,160,32396,2,0,L|112:208,1,48,8|0,0:0|0:0,0:0:0:0:
384,160,32563,5,4,2:0:0:0:
336,160,32646,1,0,2:0:0:0:
128,160,32729,1,2,2:0:0:0:
176,160,32813,1,2,2:0:0:0:
384,224,32896,2,0,L|336:224,1,48,8|0,0:0|0:0,0:0:0:0:
128,288,33063,1,8,0:0:0:0:
112,224,33118,1,0,0:0:0:0:
176,208,33174,1,0,0:0:0:0:
320,240,33229,5,4,0:0:0:0:
400,240,33313,1,0,0:0:0:0:
400,176,33396,1,0,0:0:0:0:
320,176,33479,1,0,0:0:0:0:
112,176,33563,2,0,P|80:144|80:96,1,96,2|0,0:0|0:0,0:0:0:0:
160,80,33813,1,0,0:0:0:0:
320,112,33896,2,0,L|416:112,1,96,8|0,0:0|0:0,0:0:0:0:
256,80,34229,1,2,0:0:0:0:
192,96,34285,1,0,0:0:0:0:
176,128,34341,1,0,0:0:0:0:
192,160,34396,1,0,0:0:0:0:
256,184,34479,1,0,0:0:0:0:
448,176,34563,6,0,P|480:208|480:256,1,96,4|0,0:0|0:0,0:0:0:0:
400,256,34813,1,0,0:0:0:0:
256,256,34896,1,8,0:0:0:0:
344,320,35063,1,0,0:0:0:0:
256,320,35146,1,0,0:0:0:0:
168,320,35229,1,2,0:0:0:0:
400,256,35563,1,8,0:0:0:0:
160,240,35896,5,2,0:0:0:0:
80,240,35980,1,0,0:0:0:0:
80,176,36063,1,0,0:0:0:0:
160,176,36146,1,0,0:0:0:0:
384,224,36230,2,0,B|432:224|432:224|368:224,1,96,8|0,0:0|0:0,0:0:0:0:
320,224,36480,1,0,0:0:0:0:
176,176,36563,6,0,L|80:176,1,96,2|2,0:0|0:0,0:0:0:0:
336,176,36896,2,0,L|432:176,1,96,8|0,0:0|0:0,0:0:0:0:
368,128,37146,1,0,0:0:0:0:
224,128,37229,2,0,L|128:128,1,96,2|0,0:0|0:0,0:0:0:0:
208,104,37479,1,0,0:0:0:0:
288,80,37563,2,0,B|336:80|336:80|272:80,1,96,8|0,0:0|0:0,0:0:0:0:
208,80,37813,1,0,0:0:0:0:
128,80,37896,5,2,0:0:0:0:
128,128,37979,1,0,0:0:0:0:
208,128,38063,1,0,0:0:0:0:
256,128,38146,1,0,0:0:0:0:
176,192,38229,1,10,0:0:0:0:
128,192,38312,1,0,0:0:0:0:
208,224,38396,1,8,0:0:0:0:
208,272,38479,1,0,0:0:0:0:
32,272,38563,5,4,0:0:0:0:
24,240,38646,1,0,0:0:0:0:
56,200,38729,1,0,0:0:0:0:
128,192,38813,1,0,0:0:0:0:
352,224,38896,2,0,L|256:224,1,96,8|0,0:0|0:0,0:0:0:0:
328,224,39146,1,0,0:0:0:0:
400,224,39229,2,0,L|496:224,1,96,2|0,0:0|0:0,0:0:0:0:
256,160,39563,1,8,0:0:0:0:
192,160,39618,1,0,0:0:0:0:
144,160,39674,1,0,0:0:0:0:
128,160,39729,1,0,0:0:0:0:
144,112,39813,1,0,0:0:0:0:
288,112,39896,6,0,L|384:112,1,96,2|0,0:0|0:0,0:0:0:0:
304,192,40146,1,0,0:0:0:0:
384,272,40229,2,0,L|288:272,1,96,8|0,0:0|0:0,0:0:0:0:
64,192,40563,1,2,0:0:0:0:
304,112,40897,1,8,0:0:0:0:
64,192,41229,6,0,L|120:112,1,96,2|0,0:0|0:0,0:0:0:0:
188,136,41479,1,0,0:0:0:0:
256,160,41563,2,0,B|304:160|304:160|240:160,1,96,8|0,0:0|0:0,0:0:0:0:
176,160,41813,1,0,0:0:0:0:
96,160,41896,2,0,B|48:160|48:160|112:160,1,96,2|0,0:0|0:0,0:0:0:0:
184,128,42146,1,0,0:0:0:0:
272,128,42229,2,0,B|320:128|320:128|256:128,1,96,8|0,0:0|0:0,0:0:0:0:
176,96,42479,1,0,0:0:0:0:
80,96,42563,5,2,0:0:0:0:
208,96,42729,1,2,0:0:0:0:
80,160,42896,1,2,0:0:0:0:
208,160,43063,1,0,0:0:0:0:
432,216,43229,2,8,L|336:216,1,96
144,304,43563,1,0,3:0:0:0:
72,272,43618,1,0,3:0:0:0:
48,208,43674,1,0,3:0:0:0:
48,176,43729,1,0,3:0:0:0:
72,112,43785,1,0,3:0:0:0:
144,80,43841,1,0,3:0:0:0:
304,80,43896,5,4,0:0:0:0:
352,80,43979,1,0,0:0:0:0:
208,80,44063,1,2,0:0:0:0:
160,80,44146,1,0,0:0:0:0:
368,208,44229,2,0,P|400:240|400:288,1,96,8|0,0:0|0:0,0:0:0:0:
328,288,44479,1,0,0:0:0:0:
256,288,44563,2,0,L|352:288,1,96,2|0,0:0|0:0,0:0:0:0:
184,288,44896,1,8,0:0:0:0:
120,288,44952,1,0,0:0:0:0:
88,288,45007,1,0,0:0:0:0:
72,288,45063,1,0,0:0:0:0:
88,224,45146,1,0,0:0:0:0:
256,240,45229,6,0,L|352:240,1,96,4|0,0:0|0:0,0:0:0:0:
280,216,45479,1,0,0:0:0:0:
136,208,45563,2,0,P|104:176|104:128,1,96,8|0,0:0|0:0,0:0:0:0:
176,120,45813,1,0,0:0:0:0:
336,96,45896,1,2,0:0:0:0:
432,96,46063,1,0,0:0:0:0:
176,96,46229,1,8,0:0:0:0:
80,96,46396,1,0,0:0:0:0:
304,80,46563,5,2,0:0:0:0:
352,128,46646,1,0,0:0:0:0:
208,80,46730,1,0,0:0:0:0:
160,128,46813,1,0,0:0:0:0:
364,208,46896,2,0,P|396:240|396:288,1,96,8|0,0:0|0:0,0:0:0:0:
328,288,47146,1,0,0:0:0:0:
184,224,47229,5,2,0:0:0:0:
328,224,47396,1,2,0:0:0:0:
184,288,47563,1,2,0:0:0:0:
328,288,47729,1,0,0:0:0:0:
264,288,47813,1,0,0:0:0:0:
80,304,47896,6,0,P|48:272|48:224,1,96,4|0,0:0|0:0,0:0:0:0:
112,192,48146,1,0,0:0:0:0:
272,176,48229,1,8,0:0:0:0:
336,128,48313,1,0,0:0:0:0:
176,128,48396,1,0,0:0:0:0:
152,160,48452,1,0,0:0:0:0:
160,192,48507,1,0,0:0:0:0:
352,192,48563,6,0,B|400:192|400:192|400:240,1,96,8|0,0:0|0:0,0:0:0:0:
336,288,48813,1,0,0:0:0:0:
192,288,48896,1,2,0:0:0:0:
128,288,48979,1,0,0:0:0:0:
320,288,49063,1,2,0:0:0:0:
384,288,49146,1,0,0:0:0:0:
176,224,49229,6,0,L|80:224,1,96,4|0,0:0|0:0,0:0:0:0:
224,192,49563,1,8,0:0:0:0:
240,144,49646,1,0,0:0:0:0:
208,88,49729,1,0,0:0:0:0:
144,72,49813,1,0,0:0:0:0:
336,224,49896,2,0,L|432:224,1,96,2|0,0:0|0:0,0:0:0:0:
192,144,50229,2,0,L|288:144,1,96,8|0,0:0|0:0,0:0:0:0:
64,224,50563,6,0,L|48:128,1,96,4|0,0:0|0:0,0:0:0:0:
304,272,50896,2,0,L|208:272,1,96,8|0,0:0|0:0,0:0:0:0:
464,224,51229,2,0,L|480:128,1,96,2|0,0:0|0:0,0:0:0:0:
256,128,51563,2,0,L|352:128,1,96,8|0,0:0|0:0,0:0:0:0:
128,272,51896,6,0,L|32:272,1,96,4|0,0:0|0:0,0:0:0:0:
96,272,52146,1,0,0:0:0:0:
256,224,52229,2,0,L|160:224,1,96,8|0,0:0|0:0,0:0:0:0:
224,224,52479,1,0,0:0:0:0:
384,160,52563,2,0,L|480:160,1,96,2|0,0:0|0:0,0:0:0:0:
416,160,52813,1,0,0:0:0:0:
224,80,52896,1,8,0:0:0:0:
160,80,52979,1,0,0:0:0:0:
352,80,53063,1,0,0:0:0:0:
416,80,53146,1,0,0:0:0:0:
224,192,53229,5,2,0:0:0:0:
368,192,53396,1,8,0:0:0:0:
144,192,53563,2,0,B|96:192|96:240|144:304,1,144,4|0,0:0|0:0,0:0:0:0:
288,192,53896,5,2,0:0:0:0:
144,192,54063,1,8,0:0:0:0:
368,192,54229,2,0,B|416:192|416:240|368:304,1,144,4|0,0:0|0:0,0:0:0:0:
96,240,54563,5,2,0:0:0:0:
176,192,54674,1,0,0:0:0:0:
96,144,54785,1,0,0:0:0:0:
336,208,54896,1,8,0:0:0:0:
256,192,55007,1,0,0:0:0:0:
176,176,55118,1,0,0:0:0:0:
416,240,55229,5,2,0:0:0:0:
336,192,55340,1,0,0:0:0:0:
416,144,55451,1,0,0:0:0:0:
176,208,55562,1,8,0:0:0:0:
256,192,55673,1,0,0:0:0:0:
336,176,55784,1,0,0:0:0:0:
128,240,55896,5,2,0:0:0:0:
208,192,56007,1,0,0:0:0:0:
128,144,56118,1,0,0:0:0:0:
384,240,56229,1,8,0:0:0:0:
304,192,56340,1,0,0:0:0:0:
384,144,56451,1,0,0:0:0:0:
160,192,56563,5,8,0:0:0:0:
352,128,56674,1,8,0:0:0:0:
160,64,56785,1,8,0:0:0:0:
256,64,56896,1,2,0:0:0:0:
160,128,57007,1,2,0:0:0:0:
160,192,57118,1,2,0:0:0:0:
432,160,57229,5,2,0:0:0:0:
432,208,57341,1,0,0:0:0:0:
256,208,57452,1,0,0:0:0:0:
344,240,57563,1,8,0:0:0:0:
248,272,57674,1,0,0:0:0:0:
352,304,57785,1,2,0:0:0:0:
80,160,57896,5,2,0:0:0:0:
80,208,58008,1,0,0:0:0:0:
256,208,58119,1,0,0:0:0:0:
168,240,58230,1,8,0:0:0:0:
264,272,58341,1,0,0:0:0:0:
160,304,58452,1,2,0:0:0:0:
384,288,58563,5,2,0:0:0:0:
304,320,58674,1,0,0:0:0:0:
384,352,58785,1,0,0:0:0:0:
128,288,58896,1,8,0:0:0:0:
208,320,59007,1,0,0:0:0:0:
128,352,59118,1,0,0:0:0:0:
352,184,59229,5,8,0:0:0:0:
160,128,59340,1,8,0:0:0:0:
352,64,59451,1,8,0:0:0:0:
160,64,59563,2,2,P|96:64|160:64,1,128,2|0,0:0|0:0,0:0:0:0:
384,96,59896,5,4,0:0:0:0:
288,96,60007,1,0,0:0:0:0:
192,96,60118,1,0,0:0:0:0:
384,160,60229,1,8,0:0:0:0:
304,208,60341,1,0,0:0:0:0:
384,256,60452,1,0,0:0:0:0:
128,96,60563,5,2,0:0:0:0:
224,96,60674,1,0,0:0:0:0:
320,96,60785,1,0,0:0:0:0:
128,160,60896,1,8,0:0:0:0:
208,208,61008,1,0,0:0:0:0:
128,256,61119,1,0,0:0:0:0:
352,160,61229,5,2,0:0:0:0:
272,208,61341,1,0,0:0:0:0:
352,256,61452,1,0,0:0:0:0:
160,320,61563,1,8,0:0:0:0:
256,320,61674,1,0,0:0:0:0:
352,320,61785,1,0,0:0:0:0:
128,256,61896,5,8,0:0:0:0:
320,224,62007,1,8,0:0:0:0:
128,192,62118,1,8,0:0:0:0:
224,192,62229,1,2,0:0:0:0:
128,160,62341,1,2,0:0:0:0:
128,96,62452,1,2,0:0:0:0:
352,64,62563,5,4,0:0:0:0:
272,96,62674,1,0,0:0:0:0:
352,128,62785,1,0,0:0:0:0:
144,160,62896,1,8,0:0:0:0:
224,192,63007,1,8,0:0:0:0:
144,224,63118,1,8,0:0:0:0:
352,224,63229,5,8,0:0:0:0:
448,192,63341,1,8,0:0:0:0:
256,192,63452,1,2,0:0:0:0:
336,160,63563,5,2,0:0:0:0:
240,128,63674,1,2,0:0:0:0:
352,96,63785,1,2,0:0:0:0:
160,224,63896,5,8,0:0:0:0:
64,192,64008,1,8,0:0:0:0:
256,192,64119,1,8,0:0:0:0:
176,160,64229,5,2,0:0:0:0:
272,128,64341,1,2,0:0:0:0:
160,96,64452,1,2,0:0:0:0:
376,96,64563,5,8,0:0:0:0:
288,128,64674,1,8,0:0:0:0:
376,160,64785,1,8,0:0:0:0:
136,96,64896,5,8,0:0:0:0:
224,128,65007,1,8,0:0:0:0:
136,160,65118,1,8,0:0:0:0:
376,160,65229,5,4,0:0:0:0:
256,192,75896,5,4,0:0:0:0:
304,0,76146,1,0,0:0:0:0:
208,0,76229,1,8,0:0:0:0:
192,64,76479,1,0,0:0:0:0:
288,64,76562,1,2,0:0:0:0:
384,64,76729,2,0,L|432:64,1,48
288,128,76896,1,8,0:0:0:0:
176,128,77063,2,0,L|128:128,1,48
272,192,77229,1,2,0:0:0:0:
384,128,77396,5,0,0:0:0:0:
336,128,77479,1,0,0:0:0:0:
192,128,77563,1,8,0:0:0:0:
128,192,77729,5,0,0:0:0:0:
176,192,77812,1,0,0:0:0:0:
320,192,77896,1,2,0:0:0:0:
200,256,78063,1,0,0:0:0:0:
256,256,78146,1,0,0:0:0:0:
312,256,78229,1,8,0:0:0:0:
168,304,78396,1,0,0:0:0:0:
216,304,78479,1,0,0:0:0:0:
432,256,78563,6,0,L|432:208,1,48,2|0,0:0|0:0,0:0:0:0:
280,208,78729,2,0,L|280:160,1,48,8|0,0:0|0:0,0:0:0:0:
448,240,78896,2,0,L|448:192,1,48,2|0,0:0|0:0,0:0:0:0:
296,192,79063,2,0,L|296:144,1,48,8|0,0:0|0:0,0:0:0:0:
80,256,79229,6,0,L|72:208,1,48,2|0,0:0|0:0,0:0:0:0:
224,208,79395,2,0,L|232:160,1,48,8|0,0:0|0:0,0:0:0:0:
64,208,79562,2,0,L|56:160,1,48,2|0,0:0|0:0,0:0:0:0:
208,160,79729,2,0,L|216:112,1,48,8|0,0:0|0:0,0:0:0:0:
432,256,79896,6,0,L|480:256,1,48,2|0,0:0|0:0,0:0:0:0:
296,192,80063,2,0,L|248:192,1,48,8|0,0:0|0:0,0:0:0:0:
448,192,80229,2,0,L|496:192,1,48,8|0,0:0|0:0,0:0:0:0:
312,128,80396,2,0,L|264:128,1,48,8|0,0:0|0:0,0:0:0:0:
464,128,80563,5,4,0:0:0:0:
344,128,80729,1,2,0:0:0:0:
480,176,80896,1,2,0:0:0:0:
328,176,81063,1,8,0:0:0:0:
384,176,81146,1,8,0:0:0:0:
184,176,81229,6,0,L|88:176,1,96,4|0,0:0|0:0,0:0:0:0:
192,272,81563,1,8,0:0:0:0:
128,272,81646,1,0,0:0:0:0:
272,272,81729,1,0,0:0:0:0:
336,272,81812,1,0,0:0:0:0:
160,224,81896,2,0,P|128:192|128:144,1,96,2|0,0:0|0:0,0:0:0:0:
208,128,82146,1,0,0:0:0:0:
352,224,82229,2,0,P|384:192|384:144,1,96,8|0,0:0|0:0,0:0:0:0:
304,128,82479,1,0,0:0:0:0:
128,144,82563,5,2,0:0:0:0:
64,144,82646,1,2,0:0:0:0:
207,200,82729,1,2,0:0:0:0:
159,200,82812,1,2,0:0:0:0:
304,240,82896,1,10,0:0:0:0:
288,304,82979,1,2,0:0:0:0:
144,304,83063,1,2,0:0:0:0:
208,304,83146,1,0,0:0:0:0:
384,208,83229,6,0,P|432:208|360:208,1,96,2|0,0:0|0:0,0:0:0:0:
304,192,83479,1,0,0:0:0:0:
224,176,83563,1,8,0:0:0:0:
384,128,83729,1,0,0:0:0:0:
304,112,83813,1,0,0:0:0:0:
160,112,83896,2,0,P|112:112|80:144,1,96,2|0,0:0|0:0,0:0:0:0:
256,192,84229,2,0,P|304:192|336:160,1,96,8|0,0:0|0:0,0:0:0:0:
272,112,84479,1,0,0:0:0:0:
112,80,84563,5,2,0:0:0:0:
256,80,84729,1,2,0:0:0:0:
256,192,84896,1,10,0:0:0:0:
112,192,85063,1,2,0:0:0:0:
400,144,85229,5,4,0:0:0:0:
160,192,85396,1,8,0:0:0:0:
384,238,85563,2,0,L|400:142,1,96,4|0,0:0|0:0,0:0:0:0:
128,240,85896,1,4,0:0:0:0:
288,304,86063,1,0,0:0:0:0:
208,304,86146,1,0,0:0:0:0:
128,304,86229,1,6,0:0:0:0:
256,240,86396,1,8,0:0:0:0:
32,240,86563,5,4,0:0:0:0:
160,240,86729,1,0,0:0:0:0:
304,240,86896,1,8,0:0:0:0:
352,240,86979,1,0,0:0:0:0:
208,240,87063,1,0,0:0:0:0:
160,240,87146,1,0,0:0:0:0:
352,224,87229,2,0,P|400:224|432:192,1,96,2|0,0:0|0:0,0:0:0:0:
352,160,87479,1,0,0:0:0:0:
176,160,87563,2,0,P|128:160|96:128,1,96,8|0,0:0|0:0,0:0:0:0:
192,96,87813,1,0,0:0:0:0:
352,144,87896,5,2,0:0:0:0:
416,144,87979,1,2,0:0:0:0:
272,192,88062,1,2,0:0:0:0:
320,192,88145,1,2,0:0:0:0:
176,240,88229,1,10,0:0:0:0:
224,304,88312,1,2,0:0:0:0:
368,304,88396,1,2,0:0:0:0:
304,304,88479,1,2,0:0:0:0:
80,232,88563,6,0,P|32:232|104:232,1,96,2|0,0:0|0:0,0:0:0:0:
160,216,88812,1,0,0:0:0:0:
240,200,88896,1,8,0:0:0:0:
80,128,89062,1,0,0:0:0:0:
160,112,89146,1,0,0:0:0:0:
352,112,89229,6,0,L|448:112,1,96,4|0,0:0|0:0,0:0:0:0:
368,144,89479,1,0,0:0:0:0:
288,176,89563,2,0,L|384:176,1,96,8|0,0:0|0:0,0:0:0:0:
304,208,89813,1,0,0:0:0:0:
224,240,89896,2,0,L|320:240,1,96,8|0,0:0|0:0,0:0:0:0:
240,272,90146,1,0,0:0:0:0:
160,304,90229,2,0,L|64:304,1,96,8|0,0:0|0:0,0:0:0:0:
352,304,90563,5,4,0:0:0:0:
432,256,90646,1,0,0:0:0:0:
352,240,90729,1,0,0:0:0:0:
288,208,90813,1,0,0:0:0:0:
272,160,90854,1,0,0:0:0:0:
288,112,90896,1,2,0:0:0:0:
352,80,90979,1,0,0:0:0:0:
432,64,91063,1,2,0:0:0:0:
208,64,91229,5,4,0:0:0:0:
432,128,91396,1,8,0:0:0:0:
208,128,91563,1,4,0:0:0:0:
432,192,91730,1,8,0:0:0:0:
144,128,91896,6,0,P|112:160|112:208,1,96,4|0,0:0|0:0,0:0:0:0:
336,208,92229,1,8,0:0:0:0:
312,176,92313,1,0,0:0:0:0:
264,160,92396,1,0,0:0:0:0:
200,160,92479,1,0,0:0:0:0:
352,160,92563,2,0,L|448:160,1,96,2|0,0:0|0:0,0:0:0:0:
384,208,92813,1,0,0:0:0:0:
208,208,92896,1,8,0:0:0:0:
128,208,92979,1,0,0:0:0:0:
128,272,93063,1,0,0:0:0:0:
208,272,93146,1,0,0:0:0:0:
416,192,93229,5,2,0:0:0:0:
464,192,93313,1,2,0:0:0:0:
320,128,93396,1,2,0:0:0:0:
352,80,93480,1,2,0:0:0:0:
176,192,93563,1,10,0:0:0:0:
128,192,93647,1,2,0:0:0:0:
288,128,93729,1,2,0:0:0:0:
256,80,93814,1,2,0:0:0:0:
80,80,93896,5,2,0:0:0:0:
32,144,94063,1,0,0:0:0:0:
256,144,94229,1,8,0:0:0:0:
400,144,94396,1,0,0:0:0:0:
112,304,94563,1,2,0:0:0:0:
240,256,94729,1,0,0:0:0:0:
160,224,94813,1,0,0:0:0:0:
80,192,94896,2,0,L|176:192,1,96,8|0,0:0|0:0,0:0:0:0:
256,160,95146,1,0,0:0:0:0:
336,128,95229,6,0,L|240:128,1,96,2|0,0:0|0:0,0:0:0:0:
480,80,95563,2,0,L|384:80,1,96,8|0,0:0|0:0,0:0:0:0:
128,80,95896,5,4,0:0:0:0:
384,128,96063,1,8,0:0:0:0:
128,192,96229,2,0,L|224:192,1,96,4|0,0:0|0:0,0:0:0:0:
480,192,96563,1,4,0:0:0:0:
320,144,96729,1,8,0:0:0:0:
240,144,96813,1,0,0:0:0:0:
384,144,96896,1,2,0:0:0:0:
448,176,96979,1,2,0:0:0:0:
472,240,97063,1,2,0:0:0:0:
448,304,97146,1,2,0:0:0:0:
256,320,97229,6,0,L|160:320,1,96,4|0,0:0|0:0,0:0:0:0:
240,288,97479,1,0,0:0:0:0:
320,256,97563,2,0,L|224:256,1,96,8|0,0:0|0:0,0:0:0:0:
304,224,97813,1,0,0:0:0:0:
384,192,97896,2,0,L|288:192,1,96,2|0,0:0|0:0,0:0:0:0:
368,160,98146,1,0,0:0:0:0:
448,128,98229,2,0,L|352:128,1,96,8|0,0:0|0:0,0:0:0:0:
272,128,98479,1,0,0:0:0:0:
128,128,98563,5,4,0:0:0:0:
64,128,98646,1,0,0:0:0:0:
208,128,98729,1,8,0:0:0:0:
144,128,98812,1,0,0:0:0:0:
288,192,98896,1,2,0:0:0:0:
352,192,98979,1,0,0:0:0:0:
208,256,99063,1,8,0:0:0:0:
272,256,99146,1,0,0:0:0:0:
128,256,99229,6,0,B|80:256|80:256|80:208,1,96,2|0,0:0|0:0,0:0:0:0:
224,128,99563,2,0,L|128:128,1,96,8|0,0:0|0:0,0:0:0:0:
208,160,99813,1,0,0:0:0:0:
448,192,99896,5,4,0:0:0:0:
336,192,100063,1,0,0:0:0:0:
464,256,100229,1,8,0:0:0:0:
320,256,100396,1,0,0:0:0:0:
72,192,100563,5,4,0:0:0:0:
32,144,100646,1,0,3:0:0:0:
192,192,100729,1,0,3:0:0:0:
224,144,100813,1,0,3:0:0:0:
72,256,100896,1,0,3:0:0:0:
32,208,100979,1,0,3:0:0:0:
192,256,101063,1,0,3:0:0:0:
224,208,101146,1,0,3:0:0:0:
72,320,101229,5,4,0:0:0:0:
16,256,101313,1,0,0:0:0:0:
16,208,101354,1,0,0:0:0:0:
32,160,101396,1,0,0:0:0:0:
72,128,101438,1,0,0:0:0:0:
128,112,101479,1,0,0:0:0:0:
304,112,101563,2,0,L|352:112,2,48,8|0|8,0:0|0:0|0:0,0:0:0:0:
128,112,101896,5,2,0:0:0:0:
80,112,101979,1,0,0:0:0:0:
240,112,102063,1,2,0:0:0:0:
288,112,102146,1,0,0:0:0:0:
144,176,102229,1,8,0:0:0:0:
96,176,102313,1,0,0:0:0:0:
272,176,102396,1,8,0:0:0:0:
320,176,102479,1,0,0:0:0:0:
112,240,102563,6,0,L|16:240,1,96,4|0,0:0|0:0,0:0:0:0:
32,304,102813,1,0,0:0:0:0:
128,304,102896,1,8,0:0:0:0:
224,304,103063,1,0,0:0:0:0:
288,304,103146,1,0,0:0:0:0:
144,272,103229,2,0,P|96:272|144:272,1,96,2|2,0:0|0:0,0:0:0:0:
192,272,103479,1,0,0:0:0:0:
336,272,103563,1,2,0:0:0:0:
384,272,103618,1,0,0:0:0:0:
416,256,103674,1,0,0:0:0:0:
432,224,103729,1,0,0:0:0:0:
208,224,103896,5,4,0:0:0:0:
352,160,104063,1,0,0:0:0:0:
280,144,104146,1,0,0:0:0:0:
208,128,104229,1,8,0:0:0:0:
352,64,104396,1,0,0:0:0:0:
416,64,104479,1,0,0:0:0:0:
272,64,104563,2,2,L|176:64,1,96
224,80,104813,1,0,0:0:0:0:
368,80,104896,1,2,0:0:0:0:
416,64,104951,1,0,0:0:0:0:
424,32,105007,1,0,0:0:0:0:
408,16,105062,1,0,0:0:0:0:
184,16,105229,5,4,0:0:0:0:
328,64,105396,1,0,0:0:0:0:
256,64,105479,1,0,0:0:0:0:
184,64,105563,1,8,0:0:0:0:
184,112,105729,1,0,0:0:0:0:
256,112,105813,1,0,0:0:0:0:
328,112,105896,2,2,L|424:112,1,96
200,160,106230,1,2,0:0:0:0:
136,160,106285,1,0,0:0:0:0:
104,144,106341,1,0,0:0:0:0:
88,112,106396,1,0,0:0:0:0:
312,112,106563,5,4,0:0:0:0:
184,112,106729,1,0,0:0:0:0:
248,80,106813,1,0,0:0:0:0:
312,48,106896,2,0,L|216:48,1,96,8|0,0:0|0:0,0:0:0:0:
168,64,107146,1,0,0:0:0:0:
312,144,107229,1,2,0:0:0:0:
192,144,107396,1,2,0:0:0:0:
256,200,107479,1,0,0:0:0:0:
320,256,107563,1,8,0:0:0:0:
192,256,107729,1,8,0:0:0:0:
447,175,107896,6,0,P|480:209|480:256,1,96,4|0,0:0|0:0,0:0:0:0:
384,240,108146,1,0,0:0:0:0:
288,224,108229,2,0,P|255:190|255:143,1,96,8|0,0:0|0:0,0:0:0:0:
336,176,108479,1,0,0:0:0:0:
416,208,108562,2,0,P|448:174|448:127,1,96,2|0,0:0|0:0,0:0:0:0:
192,96,108896,1,8,0:0:0:0:
256,96,108952,1,0,0:0:0:0:
304,96,109007,1,0,0:0:0:0:
320,96,109063,1,0,0:0:0:0:
280,64,109146,1,0,0:0:0:0:
64,175,109229,6,0,P|31:209|32:256,1,96,4|0,0:0|0:0,0:0:0:0:
120,240,109479,1,0,0:0:0:0:
208,224,109562,2,0,P|240:192|240:144,1,96,8|0,0:0|0:0,0:0:0:0:
168,176,109812,1,0,0:0:0:0:
96,208,109896,2,0,P|64:174|64:127,1,96,2|0,0:0|0:0,0:0:0:0:
320,96,110229,1,8,0:0:0:0:
256,96,110285,1,0,0:0:0:0:
208,96,110340,1,0,0:0:0:0:
192,96,110396,1,0,0:0:0:0:
232,64,110479,1,0,0:0:0:0:
432,144,110563,5,4,0:0:0:0:
320,144,110729,1,2,0:0:0:0:
448,176,110896,1,8,0:0:0:0:
304,176,111062,1,2,0:0:0:0:
64,144,111229,5,4,0:0:0:0:
192,144,111395,1,2,0:0:0:0:
32,176,111562,1,8,0:0:0:0:
192,176,111728,1,2,0:0:0:0:
432,144,111896,6,0,L|448:192,1,48,4|0,0:0|0:0,0:0:0:0:
240,112,112063,2,0,L|288:112,1,48,8|0,0:0|0:0,0:0:0:0:
448,144,112229,2,0,L|464:192,1,48,4|0,0:0|0:0,0:0:0:0:
240,160,112396,2,0,L|192:160,1,48,8|0,0:0|0:0,0:0:0:0:
464,144,112563,2,0,L|480:192,1,48,4|0,0:0|0:0,0:0:0:0:
144,208,112729,2,0,L|192:208,1,48,4|0,0:0|0:0,0:0:0:0:
480,144,112896,1,4,0:0:0:0:
192,208,113063,1,4,0:0:0:0:
