osu file format v14

[General]
AudioFilename: Chronoxia.mp3
AudioLeadIn: 0
PreviewTime: 22479
Countdown: 0
SampleSet: Soft
StackLeniency: 0.7
Mode: 2
LetterboxInBreaks: 0
WidescreenStoryboard: 0

[Editor]
DistanceSpacing: 1.2
BeatDivisor: 4
GridSize: 4
TimelineZoom: 2.2

[Metadata]
Title:Chronoxia
TitleUnicode:Chronoxia
Artist:DJ Totoriott
ArtistUnicode:DJ Totoriott
Creator:Kyuare
Version:Hyperion's Cup
Source:REFLEC BEAT groovin'!!
Tags:CLSW WildOne94 JBHyperion Kurokami Furely konami bemani totto
BeatmapID:928521
BeatmapSetID:429184

[Difficulty]
HPDrainRate:4
CircleSize:3
OverallDifficulty:6
ApproachRate:6
SliderMultiplier:1.2
SliderTickRate:1

[Events]
//Background and Video events
0,0,"Konachan.com - 201426 brown_hair dress headdress isis_(p&d) long_hair maiwetea purple_eyes puzzle_&_dragons water white.jpg",0,0
//Break Periods
2,22763,23846
2,25595,26513
2,65563,71896
//Storyboard Layer 0 (Background)
//Storyboard Layer 1 (Fail)
//Storyboard Layer 2 (Pass)
//Storyboard Layer 3 (Foreground)
//Storyboard Sound Samples

[TimingPoints]
1230,333.333333333333,4,2,0,60,1,0
19896,-100,4,2,0,40,0,0
20563,-100,4,2,0,45,0,0
21229,-100,4,2,0,50,0,0
21896,-100,4,2,0,55,0,0
22563,-100,4,2,0,60,0,0
81229,-100,4,2,0,60,0,1
102563,-100,4,2,0,60,0,0

[Colours]
Combo1 : 115,69,152
Combo2 : 65,95,118
Combo3 : 205,224,252
Combo4 : 255,255,191

[HitObjects]
212,192,1230,5,4,0:0:0:0:
332,192,1563,2,0,L|420:104,1,120,0|8,0:0|0:0,0:0:0:0:
296,108,2229,2,0,L|176:108,1,120,0|2,0:0|0:0,0:0:0:0:
272,192,2896,1,0,0:0:0:0:
392,192,3229,1,8,0:0:0:0:
272,192,3563,1,8,0:0:0:0:
128,192,3896,5,2,0:0:0:0:
248,192,4229,2,0,L|132:272,1,120,0|8,0:0|0:0,0:0:0:0:
28,192,4896,2,0,L|136:116,1,120,0|2,0:0|0:0,0:0:0:0:
260,124,5563,2,0,L|384:140,2,120,0|8|8,0:0|0:0|0:0,0:0:0:0:
104,124,6563,5,4,0:0:0:0:
224,120,6896,2,0,P|256:168|224:212,1,120,0|8,0:0|0:0,0:0:0:0:
104,212,7563,2,0,L|224:212,1,120,0|2,0:0|0:0,0:0:0:0:
128,308,8229,1,0,0:0:0:0:
248,308,8562,1,8,0:0:0:0:
116,308,8896,1,8,0:0:0:0:
272,308,9229,5,2,0:0:0:0:
392,304,9563,2,0,P|424:258|392:211,1,120,0|8,0:0|0:0,0:0:0:0:
272,212,10229,1,0,0:0:0:0:
416,212,10563,2,0,P|476:192|500:136,1,120,2|0,0:0|0:0,0:0:0:0:
380,148,11229,2,0,L|292:64,1,120,8|8,0:0|0:0,0:0:0:0:
136,64,11896,5,4,0:0:0:0:
268,64,12229,2,0,L|388:64,1,120,2|8,0:0|0:0,0:0:0:0:
244,64,12896,2,0,L|136:140,1,120,0|10,0:0|0:0,0:0:0:0:
268,228,13563,1,0,0:0:0:0:
136,228,13896,1,8,0:0:0:0:
280,228,14230,1,8,0:0:0:0:
436,228,14563,5,4,0:0:0:0:
304,228,14896,2,0,L|188:188,1,120,2|8,0:0|0:0,0:0:0:0:
72,188,15563,1,0,0:0:0:0:
228,160,15897,2,0,P|288:180|312:236,1,120,10|0,0:0|0:0,0:0:0:0:
192,228,16563,2,0,L|320:228,1,120,8|8,0:0|0:0,0:0:0:0:
456,228,17229,6,0,L|464:104,1,120,4|2,0:0|0:0,0:0:0:0:
320,108,17896,2,0,L|328:228,1,120,8|2,0:0|0:0,0:0:0:0:
484,228,18563,2,0,L|364:228,1,120,4|2,0:0|0:0,0:0:0:0:
220,192,19229,2,0,L|340:192,1,120,8|2,0:0|0:0,0:0:0:0:
256,192,19896,12,0,22229,0:0:0:0:
260,192,22563,5,4,0:0:0:0:
172,192,24896,5,2,0:0:0:0:
316,192,25229,2,0,L|337:131,1,60,12|8,0:0|0:0,0:0:0:0:
304,192,27563,5,4,0:0:0:0:
160,192,27896,6,0,L|52:140,1,120,8|2,0:0|0:0,0:0:0:0:
176,68,28563,2,0,L|284:120,1,120,2|2,0:0|0:0,0:0:0:0:
160,192,29229,2,0,L|112:304,1,120,2|2,0:0|0:0,0:0:0:0:
256,304,29896,1,8,0:0:0:0:
136,304,30229,1,2,0:0:0:0:
292,304,30563,6,0,L|420:304,1,120,4|2,0:0|0:0,0:0:0:0:
292,208,31229,1,8,0:0:0:0:
436,204,31563,1,2,0:0:0:0:
280,208,31896,6,0,L|160:192,1,120,4|0,0:0|0:0,0:0:0:0:
316,128,32563,1,4,0:0:0:0:
172,128,32896,2,0,L|124:88,1,60,8|0,0:0|0:0,0:0:0:0:
84,48,33229,6,0,B|24:48|24:48|88:48,1,120,2|0,0:0|0:0,0:0:0:0:
228,48,33896,2,0,L|336:104,1,120,10|0,0:0|0:0,0:0:0:0:
204,192,34563,1,2,0:0:0:0:
338,191,34896,2,0,P|352:296|232:356,1,240,2|0,0:0|0:0,0:0:0:0:
392,308,35896,6,0,P|448:284|468:228,1,120,2|0,0:0|0:0,0:0:0:0:
348,232,36563,1,10,0:0:0:0:
480,232,36896,1,0,0:0:0:0:
324,232,37229,1,2,0:0:0:0:
180,228,37563,2,0,L|88:140,2,120,4|8|8,0:0|0:0|0:0,0:0:0:0:
324,232,38563,6,0,L|200:264,1,120,4|2,0:0|0:0,0:0:0:0:
352,320,39229,2,0,P|368:264|324:232,1,120,8|2,0:0|0:0,0:0:0:0:
192,232,39896,1,2,0:0:0:0:
324,232,40229,2,0,P|408:168|324:100,1,240,2|0,0:0|0:0,0:0:0:0:
212,96,41229,5,4,0:0:0:0:
92,96,41563,1,0,0:0:0:0:
236,96,41896,1,8,0:0:0:0:
380,96,42229,1,0,0:0:0:0:
236,96,42563,2,0,L|120:136,1,120,4|0,0:0|0:0,0:0:0:0:
244,132,43229,2,0,P|276:180|244:228,1,120,8|4,0:0|0:0,0:0:0:0:
88,356,43896,6,0,B|28:356|28:356|16:292,1,120,4|8,0:0|0:0,0:0:0:0:
148,292,44563,2,0,L|256:236,1,120,2|8,0:0|0:0,0:0:0:0:
124,240,45230,1,2,0:0:0:0:
255,237,45563,2,0,B|256:176|256:176|144:132|144:132|144:64,1,240,2|0,0:0|0:0,0:0:0:0:
288,72,46563,6,0,B|348:72|348:72|380:136,1,120,2|8,0:0|0:0,0:0:0:0:
256,176,47230,1,2,0:0:0:0:
388,176,47563,1,8,0:0:0:0:
232,176,47896,1,2,0:0:0:0:
88,176,48229,2,0,P|32:196|8:248,2,120,4|8|8,0:0|0:0|0:0,0:0:0:0:
244,176,49229,6,0,L|344:104,1,120,4|8,0:0|0:0,0:0:0:0:
208,72,49896,2,0,L|332:72,1,120,2|8,0:0|0:0,0:0:0:0:
184,72,50563,2,0,P|104:124|80:208,2,180,4|2|8,0:0|0:0|0:0,0:0:0:0:
328,72,51896,6,0,B|400:72|424:128|192:128|220:180|288:180,1,240,4|8,0:0|0:0,0:0:0:0:
408,180,52896,1,2,0:0:0:0:
252,180,53229,6,0,L|252:240,1,60,8|8,0:0|0:0,0:0:0:0:
468,240,53896,2,0,L|468:300,1,60,8|8,0:0|0:0,0:0:0:0:
256,344,54563,6,0,P|184:264|260:184,1,240,4|2,0:0|0:0,0:0:0:0:
388,184,55563,1,0,0:0:0:0:
244,184,55896,2,0,L|124:148,1,120,2|0,0:0|0:0,0:0:0:0:
260,100,56563,1,8,0:0:0:0:
116,100,56896,1,8,0:0:0:0:
248,100,57229,6,0,P|356:138|371:251,1,240,2|2,0:0|0:0,0:0:0:0:
252,252,58229,1,0,0:0:0:0:
396,252,58562,2,0,L|304:336,1,120,2|0,0:0|0:0,0:0:0:0:
176,332,59229,1,8,0:0:0:0:
332,332,59562,1,8,0:0:0:0:
176,332,59896,6,0,L|72:248,1,120,4|0,0:0|0:0,0:0:0:0:
228,256,60563,2,0,L|256:140,1,120,2|0,0:0|0:0,0:0:0:0:
112,140,61229,2,0,L|236:140,1,120,2|0,0:0|0:0,0:0:0:0:
364,140,61896,1,8,0:0:0:0:
208,140,62229,1,8,0:0:0:0:
364,140,62563,5,4,0:0:0:0:
196,140,62896,1,2,0:0:0:0:
51,144,63229,2,0,P|64:200|116:236,1,120,8|2,0:0|0:0,0:0:0:0:
256,236,63896,2,0,P|311:217|332:163,1,120,8|2,0:0|0:0,0:0:0:0:
189,163,64563,1,8,0:0:0:0:
332,163,64896,1,8,0:0:0:0:
177,163,65229,5,4,0:0:0:0:
256,192,73229,12,0,75563,0:0:0:0:
216,272,75896,6,0,L|195:153,1,120,4|0,0:0|0:0,0:0:0:0:
316,152,76563,2,0,L|337:29,1,120,2|0,0:0|0:0,0:0:0:0:
204,32,77229,2,0,P|172:76|204:124,1,120,2|0,0:0|0:0,0:0:0:0:
324,124,77896,2,0,L|424:192,1,120,2|0,0:0|0:0,0:0:0:0:
292,192,78563,6,0,L|164:192,1,120,2|0,0:0|0:0,0:0:0:0:
40,268,79229,2,0,L|160:268,1,120,2|0,0:0|0:0,0:0:0:0:
304,268,79896,5,8,0:0:0:0:
160,268,80229,2,0,L|88:268,1,60,8|8,0:0|0:0,0:0:0:0:
256,208,80729,2,0,L|324:208,2,60,2|0|0,0:0|0:0|0:0,0:0:0:0:
196,208,81229,6,0,L|72:208,1,120,4|8,0:0|0:0,0:0:0:0:
220,120,81896,2,0,P|241:162|196:208,1,120,2|8,0:0|0:0,0:0:0:0:
40,212,82563,2,0,L|117:120,2,120,2|8|2,0:0|0:0|0:0,0:0:0:0:
172,212,83563,2,0,L|240:212,1,60,8|0,0:0|0:0,0:0:0:0:
292,212,83896,6,0,L|412:212,1,120,2|8,0:0|0:0,0:0:0:0:
280,132,84563,1,2,0:0:0:0:
436,132,84896,1,8,0:0:0:0:
292,132,85229,2,0,L|172:88,2,120,2|8|2,0:0|0:0|0:0,0:0:0:0:
412,132,86229,1,8,0:0:0:0:
352,132,86396,1,8,0:0:0:0:
292,132,86563,6,0,L|172:132,1,120,4|8,0:0|0:0,0:0:0:0:
32,212,87229,2,0,L|164:212,1,120,2|8,0:0|0:0,0:0:0:0:
308,212,87896,1,2,0:0:0:0:
164,212,88229,2,0,B|121:254,2,60,8|0|0,0:0|0:0|0:0,0:0:0:0:
308,212,88896,1,8,0:0:0:0:
176,212,89229,6,0,P|104:132|184:56,1,240,2|0,0:0|0:0,0:0:0:0:
304,112,90229,1,8,0:0:0:0:
148,112,90563,2,0,L|32:156,1,120,2|8,0:0|0:0,0:0:0:0:
192,152,91229,2,0,L|212:216,2,60,2|2|8,0:0|0:0|0:0,0:0:0:0:
24,280,91896,6,0,L|168:280,1,120,4|8,0:0|0:0,0:0:0:0:
288,360,92563,2,0,L|144:360,1,120,2|8,0:0|0:0,0:0:0:0:
324,252,93229,2,0,L|232:176,2,120,2|8|2,0:0|0:0|0:0,0:0:0:0:
192,252,94229,2,0,L|124:252,1,60,8|0,0:0|0:0,0:0:0:0:
192,252,94562,6,0,L|312:252,1,120,2|8,0:0|0:0,0:0:0:0:
180,172,95229,1,2,0:0:0:0:
36,172,95562,1,8,0:0:0:0:
168,172,95896,2,0,L|288:128,2,120,2|8|2,0:0|0:0|0:0,0:0:0:0:
288,212,96896,1,8,0:0:0:0:
348,212,97063,1,8,0:0:0:0:
408,132,97230,6,0,L|288:132,1,120,4|8,0:0|0:0,0:0:0:0:
144,48,97896,2,0,P|108:96|144:136,1,120,2|8,0:0|0:0,0:0:0:0:
304,216,98563,1,4,0:0:0:0:
160,216,98896,2,0,L|108:256,2,60,8|0|2,0:0|0:0|0:0,0:0:0:0:
316,216,99563,1,8,0:0:0:0:
172,216,99896,6,0,L|40:216,1,120,4|8,0:0|0:0,0:0:0:0:
196,216,100563,1,4,0:0:0:0:
64,216,100896,1,8,0:0:0:0:
208,216,101229,2,0,L|332:216,1,120,4|8,0:0|0:0,0:0:0:0:
184,140,101896,2,0,B|132:110,2,60,2|0|8,0:0|0:0|0:0,0:0:0:0:
340,140,102563,6,0,L|456:88,1,120,4|8,0:0|0:0,0:0:0:0:
316,92,103229,1,2,0:0:0:0:
449,90,103563,1,8,0:0:0:0:
304,92,103896,2,0,L|168:92,1,120,2|8,0:0|0:0,0:0:0:0:
64,164,104563,2,0,P|32:216|60:264,1,120,2|8,0:0|0:0,0:0:0:0:
216,216,105229,6,0,L|100:164,1,120,2|8,0:0|0:0,0:0:0:0:
240,168,105895,1,2,0:0:0:0:
372,168,106229,1,8,0:0:0:0:
227,170,106563,1,2,0:0:0:0:
384,168,106896,1,8,0:0:0:0:
264,172,107229,2,0,L|160:252,1,120,2|8,0:0|0:0,0:0:0:0:
324,296,107896,6,0,L|208:244,1,120,4|8,0:0|0:0,0:0:0:0:
84,248,108562,1,2,0:0:0:0:
222,246,108896,1,8,0:0:0:0:
360,164,109229,2,0,L|224:164,1,120,2|8,0:0|0:0,0:0:0:0:
120,164,109896,2,0,P|88:112|116:64,1,120,2|8,0:0|0:0,0:0:0:0:
176,64,110396,1,8,0:0:0:0:
236,64,110563,6,0,L|356:64,1,120,4|8,0:0|0:0,0:0:0:0:
224,152,111229,2,0,L|96:152,1,120,4|8,0:0|0:0,0:0:0:0:
224,152,111896,1,4,0:0:0:0:
356,152,112229,1,8,0:0:0:0:
212,152,112563,5,4,0:0:0:0:
380,152,112896,2,0,L|448:152,1,60,8|8,0:0|0:0,0:0:0:0:
