osu file format v14

[General]
AudioFilename: Chronoxia.mp3
AudioLeadIn: 0
PreviewTime: 22479
Countdown: 0
SampleSet: Soft
StackLeniency: 0.7
Mode: 2
LetterboxInBreaks: 0
WidescreenStoryboard: 0

[Editor]
Bookmarks: 22547,54547,65213,75880
DistanceSpacing: 1
BeatDivisor: 3
GridSize: 8
TimelineZoom: 4.199998

[Metadata]
Title:Chronoxia
TitleUnicode:Chronoxia
Artist:DJ Totoriott
ArtistUnicode:DJ Totoriott
Creator:Kyuare
Version:Furely's Overdose
Source:REFLEC BEAT groovin'!!
Tags:CLSW WildOne94 JBHyperion Kurokami Furely konami bemani totto
BeatmapID:928522
BeatmapSetID:429184

[Difficulty]
HPDrainRate:6.5
CircleSize:4
OverallDifficulty:9.3
ApproachRate:9.3
SliderMultiplier:1.92
SliderTickRate:1

[Events]
//Background and Video events
0,0,"Konachan.com - 201426 brown_hair dress headdress isis_(p&d) long_hair maiwetea purple_eyes puzzle_&_dragons water white.jpg",0,0
//Break Periods
2,22763,24342
2,25596,27009
2,65429,75342
//Storyboard Layer 0 (Background)
//Storyboard Layer 1 (Fail)
//Storyboard Layer 2 (Pass)
//Storyboard Layer 3 (Foreground)
//Storyboard Sound Samples

[TimingPoints]
1230,333.333333333333,4,2,0,60,1,0
81229,-100,4,2,0,60,0,1
102563,-100,4,2,0,60,0,0

[Colours]
Combo1 : 115,69,152
Combo2 : 65,95,118
Combo3 : 205,224,252
Combo4 : 255,255,191

[HitObjects]
320,160,1007,5,0,0:0:0:0:
224,192,1118,1,0,0:0:0:0:
416,192,1230,1,4,0:0:0:0:
416,80,1563,6,0,L|352:80,2,64
224,80,1896,1,8,0:0:0:0:
224,152,2229,2,0,L|288:152,2,64
416,152,2562,1,8,0:0:0:0:
240,240,2896,5,0,0:0:0:0:
152,240,3007,1,0,0:0:0:0:
64,240,3118,1,0,0:0:0:0:
240,192,3229,1,2,0:0:0:0:
304,152,3341,1,0,0:0:0:0:
240,112,3452,1,0,0:0:0:0:
416,192,3563,1,8,0:0:0:0:
480,248,3674,1,0,0:0:0:0:
416,304,3785,1,0,0:0:0:0:
136,248,3896,5,8,0:0:0:0:
312,136,4229,2,0,L|376:136,2,64
136,136,4563,1,8,0:0:0:0:
200,72,4895,1,0,0:0:0:0:
136,128,5006,1,0,0:0:0:0:
200,184,5118,1,0,0:0:0:0:
376,184,5229,1,8,0:0:0:0:
256,248,5562,5,0,0:0:0:0:
176,224,5673,1,0,0:0:0:0:
104,192,5784,1,0,0:0:0:0:
280,192,5895,1,8,0:0:0:0:
216,136,6006,1,0,0:0:0:0:
280,80,6118,1,0,0:0:0:0:
104,80,6229,1,8,0:0:0:0:
40,136,6340,1,0,0:0:0:0:
104,192,6451,1,0,0:0:0:0:
360,192,6562,5,4,0:0:0:0:
360,192,6896,5,0,0:0:0:0:
432,160,7007,1,0,0:0:0:0:
360,128,7118,1,0,0:0:0:0:
152,128,7229,1,8,0:0:0:0:
152,192,7563,5,0,0:0:0:0:
80,160,7674,1,0,0:0:0:0:
152,128,7785,1,0,0:0:0:0:
360,128,7896,1,8,0:0:0:0:
360,128,8229,5,0,0:0:0:0:
432,192,8341,1,0,0:0:0:0:
360,248,8452,1,0,0:0:0:0:
256,248,8563,1,8,0:0:0:0:
192,192,8674,1,0,0:0:0:0:
256,136,8785,1,0,0:0:0:0:
144,136,8896,1,8,0:0:0:0:
64,80,9007,1,0,0:0:0:0:
144,24,9118,1,0,0:0:0:0:
328,80,9229,5,8,0:0:0:0:
144,192,9563,2,0,L|200:224,2,64
368,192,9896,1,8,0:0:0:0:
168,160,10229,2,0,L|104:160,2,64
344,160,10563,1,8,0:0:0:0:
104,80,10896,5,0,0:0:0:0:
40,136,11007,1,0,0:0:0:0:
104,192,11118,1,0,0:0:0:0:
272,248,11229,1,8,0:0:0:0:
352,304,11341,1,0,0:0:0:0:
272,360,11452,1,0,0:0:0:0:
440,192,11563,1,8,0:0:0:0:
504,136,11674,1,0,0:0:0:0:
424,80,11785,1,0,0:0:0:0:
176,80,11896,6,0,P|96:120|112:208,1,192,4|0,0:0|0:0,0:0:0:0:
208,192,12341,1,0,0:0:0:0:
304,192,12452,1,0,0:0:0:0:
400,192,12563,2,0,P|480:232|464:320,1,192,8|0,0:0|0:0,0:0:0:0:
360,248,13007,1,0,0:0:0:0:
264,248,13118,1,0,0:0:0:0:
168,248,13229,6,0,B|96:248|96:248|96:184|96:184|160:184,1,192,8|0,0:0|0:0,0:0:0:0:
248,192,13674,1,0,0:0:0:0:
344,192,13785,1,0,0:0:0:0:
176,136,13896,1,8,0:0:0:0:
96,80,14007,1,0,0:0:0:0:
192,24,14118,1,0,0:0:0:0:
360,248,14229,1,8,0:0:0:0:
440,304,14340,1,0,0:0:0:0:
344,360,14451,1,0,0:0:0:0:
103,359,14563,6,0,P|127:255|159:175,1,192,4|0,0:0|0:0,0:0:0:0:
256,192,15007,1,0,0:0:0:0:
353,177,15118,1,0,0:0:0:0:
64,312,15229,2,0,P|64:248|160:176,1,192,8|0,0:0|0:0,0:0:0:0:
256,192,15674,1,0,0:0:0:0:
160,248,15785,1,0,0:0:0:0:
448,312,15896,6,0,P|448:248|352:176,1,192,8|0,0:0|0:0,0:0:0:0:
256,192,16341,1,0,0:0:0:0:
160,248,16452,1,0,0:0:0:0:
328,304,16563,1,8,0:0:0:0:
408,248,16674,1,0,0:0:0:0:
352,192,16785,1,0,0:0:0:0:
184,304,16896,1,8,0:0:0:0:
104,248,17007,1,0,0:0:0:0:
160,192,17118,1,0,0:0:0:0:
352,80,17229,6,0,B|416:80|416:80|328:80,1,128,4|0,0:0|0:0,0:0:0:0:
160,80,17563,2,0,B|96:80|96:80|184:80,1,128,8|0,0:0|0:0,0:0:0:0:
352,80,17896,2,0,B|416:80|431:128|431:128|400:128,1,128,2|0,0:0|0:0,0:0:0:0:
160,80,18229,1,8,0:0:0:0:
104,112,18341,1,0,0:0:0:0:
160,144,18452,1,0,0:0:0:0:
360,80,18563,6,0,P|440:104|472:136,1,128,4|0,0:0|0:0,0:0:0:0:
296,192,18896,2,0,P|344:248|360:312,1,128,8|0,0:0|0:0,0:0:0:0:
152,80,19229,2,0,P|72:104|40:136,1,128,2|0,0:0|0:0,0:0:0:0:
216,192,19563,1,8,0:0:0:0:
160,224,19675,1,0,0:0:0:0:
216,256,19786,1,0,0:0:0:0:
392,256,19896,6,0,B|408:200|408:200|352:160,1,128,4|0,0:0|0:0,0:0:0:0:
168,192,20229,1,8,0:0:0:0:
104,136,20341,1,0,0:0:0:0:
168,80,20452,1,0,0:0:0:0:
344,80,20563,5,8,0:0:0:0:
256,136,20674,1,8,0:0:0:0:
344,192,20785,1,8,0:0:0:0:
168,192,20896,1,8,0:0:0:0:
256,192,21007,1,8,0:0:0:0:
360,192,21118,1,8,0:0:0:0:
168,192,21229,6,0,P|88:216|56:320,1,192,4|8,0:0|0:0,0:0:0:0:
312,80,21729,1,8,0:0:0:0:
160,80,21896,2,0,L|152:128,1,48,2|0,0:0|0:0,0:0:0:0:
352,80,22063,2,0,L|360:128,1,48
88,88,22230,5,8,0:0:0:0:
72,112,22271,1,0,0:0:0:0:
64,144,22313,1,0,0:0:0:0:
72,176,22355,1,0,0:0:0:0:
88,208,22396,1,0,0:0:0:0:
120,232,22438,1,0,0:0:0:0:
160,240,22480,1,0,0:0:0:0:
352,240,22563,1,4,0:0:0:0:
392,192,24896,5,8,0:0:0:0:
120,192,25229,1,4,0:0:0:0:
392,192,25396,1,4,0:0:0:0:
96,192,27563,5,8,0:0:0:0:
416,192,27896,1,4,0:0:0:0:
256,112,28063,1,0,0:0:0:0:
320,80,28146,1,0,0:0:0:0:
256,48,28229,1,8,0:0:0:0:
128,48,28396,1,0,0:0:0:0:
64,80,28479,1,0,0:0:0:0:
128,112,28563,2,0,L|232:112,1,96,2|0,0:0|0:0,0:0:0:0:
376,136,28896,2,0,L|416:136,1,32,8|0,0:0|0:0,0:0:0:0:
440,160,29007,2,0,L|408:160,1,32
184,192,29229,6,0,L|88:192,1,96,2|0,0:0|0:0,0:0:0:0:
160,248,29479,1,0,0:0:0:0:
240,248,29563,1,8,0:0:0:0:
400,304,29729,1,0,0:0:0:0:
320,304,29813,1,0,0:0:0:0:
240,304,29896,2,0,L|336:304,1,96,2|0,0:0|0:0,0:0:0:0:
168,304,30229,2,0,L|128:304,1,32,8|0,0:0|0:0,0:0:0:0:
104,328,30340,2,0,L|136:328,1,32
376,192,30563,5,4,0:0:0:0:
432,192,30646,1,0,0:0:0:0:
464,160,30729,1,0,0:0:0:0:
448,112,30813,1,0,0:0:0:0:
256,120,30896,1,8,0:0:0:0:
240,192,31063,2,0,L|288:192,1,48
136,192,31229,2,0,L|96:104,1,96,2|0,0:0|0:0,0:0:0:0:
376,192,31563,2,0,L|416:280,1,96,8|0,0:0|0:0,0:0:0:0:
48,288,31896,5,4,0:0:0:0:
160,288,32063,1,8,0:0:0:0:
32,192,32229,1,8,0:0:0:0:
176,192,32396,1,8,0:0:0:0:
400,112,32563,2,0,L|408:160,1,48,4|0,0:0|0:0,0:0:0:0:
240,112,32730,2,0,L|232:160,1,48
400,112,32896,2,8,L|496:112,1,96
448,224,33146,1,0,0:0:0:0:
288,224,33229,5,4,0:0:0:0:
224,224,33312,1,0,0:0:0:0:
224,160,33395,1,0,0:0:0:0:
288,160,33479,1,0,0:0:0:0:
144,120,33562,1,8,0:0:0:0:
112,192,33729,2,0,L|160:192,1,48
376,192,33896,2,0,L|472:192,1,96,2|0,0:0|0:0,0:0:0:0:
176,328,34229,2,0,L|144:328,1,32,8|0,0:0|0:0,0:0:0:0:
104,264,34340,2,0,L|136:264,1,32
376,264,34563,6,0,L|416:176,1,96,2|0,0:0|0:0,0:0:0:0:
336,176,34813,1,0,0:0:0:0:
256,176,34896,2,0,L|296:88,1,96,8|0,0:0|0:0,0:0:0:0:
224,88,35146,1,0,0:0:0:0:
152,88,35229,2,0,L|112:176,1,96,2|0,0:0|0:0,0:0:0:0:
184,176,35479,1,0,0:0:0:0:
336,80,35563,2,0,L|440:80,1,96,8|0,0:0|0:0,0:0:0:0:
368,144,35813,1,0,0:0:0:0:
144,192,35896,5,2,0:0:0:0:
64,192,35979,1,0,0:0:0:0:
64,128,36062,1,0,0:0:0:0:
144,128,36146,1,0,0:0:0:0:
376,120,36229,1,8,0:0:0:0:
424,192,36396,2,0,L|376:192,1,48
224,192,36563,2,0,L|184:104,1,96,2|0,0:0|0:0,0:0:0:0:
368,232,36896,2,0,L|408:144,1,96,8|0,0:0|0:0,0:0:0:0:
144,304,37229,5,4,0:0:0:0:
32,192,37396,2,0,L|80:192,1,48
256,120,37563,2,0,L|304:120,1,48,8|0,0:0|0:0,0:0:0:0:
224,192,37729,2,0,L|176:192,1,48
376,64,37896,5,2,0:0:0:0:
440,80,37979,1,0,0:0:0:0:
440,152,38063,1,0,0:0:0:0:
376,192,38146,1,0,0:0:0:0:
208,192,38229,2,0,L|160:192,1,48,8|0,0:0|0:0,0:0:0:0:
224,256,38396,2,0,L|176:256,1,48,8|0,0:0|0:0,0:0:0:0:
376,248,38563,6,0,L|424:248,1,48,2|0,0:0|0:0,0:0:0:0:
376,152,38729,2,0,L|328:152,1,48
144,136,38896,1,8,0:0:0:0:
64,192,39063,2,0,L|112:192,1,48
256,128,39229,2,0,B|304:128|304:128|248:128,1,96,2|0,0:0|0:0,0:0:0:0:
128,128,39563,2,0,L|88:128,1,32,8|0,0:0|0:0,0:0:0:0:
64,96,39674,2,0,L|96:96,1,32
328,80,39896,6,0,P|368:120|368:168,1,96,4|0,0:0|0:0,0:0:0:0:
288,168,40146,1,0,0:0:0:0:
96,160,40229,2,0,P|64:192|64:240,1,96,8|0,0:0|0:0,0:0:0:0:
144,256,40479,1,0,0:0:0:0:
328,80,40563,2,0,P|368:120|368:168,1,96,2|0,0:0|0:0,0:0:0:0:
296,192,40813,1,0,0:0:0:0:
448,192,40896,2,0,P|488:232|488:280,1,96,8|0,0:0|0:0,0:0:0:0:
408,304,41146,1,0,0:0:0:0:
96,304,41229,6,0,L|192:304,1,96,4|0,0:0|0:0,0:0:0:0:
256,304,41479,1,0,0:0:0:0:
432,232,41563,2,0,L|336:232,1,96,8|0,0:0|0:0,0:0:0:0:
272,232,41813,1,0,0:0:0:0:
72,136,41896,2,0,L|168:136,1,96,2|0,0:0|0:0,0:0:0:0:
240,136,42146,1,0,0:0:0:0:
456,80,42229,2,0,L|360:80,1,96,8|0,0:0|0:0,0:0:0:0:
288,80,42479,1,0,0:0:0:0:
120,80,42563,6,0,L|160:168,1,96,2|0,0:0|0:0,0:0:0:0:
384,80,42896,1,8,0:0:0:0:
160,304,43063,1,2,0:0:0:0:
384,304,43229,2,8,L|344:216,1,96,10|8,0:0|0:0,0:0:0:0:
88,184,43563,1,2,2:0:0:0:
56,160,43604,1,0,3:0:0:0:
40,120,43646,1,0,3:0:0:0:
40,88,43688,1,0,3:0:0:0:
56,56,43729,1,0,3:0:0:0:
88,32,43771,1,0,3:0:0:0:
128,24,43813,1,0,3:0:0:0:
304,80,43896,5,4,0:0:0:0:
320,80,43979,1,0,0:0:0:0:
288,80,44063,1,2,0:0:0:0:
224,80,44146,1,0,0:0:0:0:
368,80,44229,1,8,0:0:0:0:
240,144,44396,2,0,L|192:144,1,48
376,192,44563,2,0,L|416:280,1,96,2|0,0:0|0:0,0:0:0:0:
136,192,44896,2,0,L|96:192,1,32,8|0,0:0|0:0,0:0:0:0:
72,160,45007,2,0,L|120:160,1,32
336,112,45229,6,0,L|432:112,1,96,4|0,0:0|0:0,0:0:0:0:
384,64,45479,1,0,0:0:0:0:
128,64,45563,2,0,L|113:158,1,96,8|0,0:0|0:0,0:0:0:0:
256,160,45896,2,0,L|272:264,1,96,2|0,0:0|0:0,0:0:0:0:
432,192,46229,2,0,L|416:296,1,96,8|0,0:0|0:0,0:0:0:0:
168,80,46563,6,0,L|120:80,1,48,2|0,0:0|0:0,0:0:0:0:
216,136,46729,2,0,L|264:136,1,48
120,192,46896,2,0,L|216:192,1,96,8|0,0:0|0:0,0:0:0:0:
280,192,47146,1,0,0:0:0:0:
480,192,47229,1,2,0:0:0:0:
352,192,47396,1,2,0:0:0:0:
480,256,47563,1,2,0:0:0:0:
352,256,47729,1,2,0:0:0:0:
120,256,47896,1,4,0:0:0:0:
304,288,48063,6,0,L|352:288,1,48
304,224,48229,2,0,L|256:224,1,48,2|0,0:0|0:0,0:0:0:0:
304,160,48396,2,0,L|360:160,1,48
152,88,48563,5,8,0:0:0:0:
88,128,48646,1,0,0:0:0:0:
88,216,48730,1,0,0:0:0:0:
152,248,48813,1,0,0:0:0:0:
336,248,48896,2,0,L|384:248,1,48,2|0,0:0|0:0,0:0:0:0:
336,304,49063,2,0,L|384:304,1,48,2|0,0:0|0:0,0:0:0:0:
176,304,49229,6,0,L|136:216,1,96,4|0,0:0|0:0,0:0:0:0:
256,192,49563,2,0,L|304:192,1,48,8|0,0:0|0:0,0:0:0:0:
256,136,49729,2,0,L|208:136,1,48
376,80,49896,2,0,L|416:168,1,96,2|0,0:0|0:0,0:0:0:0:
136,80,50229,2,0,L|96:168,1,96,8|0,0:0|0:0,0:0:0:0:
384,264,50563,5,4,0:0:0:0:
480,248,50729,1,0,0:0:0:0:
480,144,50896,1,8,0:0:0:0:
384,112,51063,1,2,0:0:0:0:
144,264,51229,5,4,0:0:0:0:
32,248,51395,1,0,0:0:0:0:
32,144,51562,1,8,0:0:0:0:
144,112,51729,1,2,0:0:0:0:
368,304,51896,6,0,L|368:208,1,96,4|0,0:0|0:0,0:0:0:0:
272,192,52146,1,0,0:0:0:0:
176,192,52229,2,0,L|176:96,1,96,8|0,0:0|0:0,0:0:0:0:
272,80,52479,1,0,0:0:0:0:
368,80,52563,2,0,L|368:176,1,96,2|0,0:0|0:0,0:0:0:0:
296,192,52813,1,0,0:0:0:0:
128,192,52896,2,0,L|80:192,1,48,8|0,0:0|0:0,0:0:0:0:
32,152,53063,2,0,L|80:152,1,48
368,80,53229,5,4,0:0:0:0:
144,304,53396,1,8,0:0:0:0:
368,144,53563,1,4,0:0:0:0:
144,80,53896,1,4,0:0:0:0:
368,208,54063,1,8,0:0:0:0:
144,144,54229,1,4,0:0:0:0:
304,192,54563,5,4,0:0:0:0:
368,248,54674,1,0,0:0:0:0:
304,304,54785,1,0,0:0:0:0:
192,304,54896,1,8,0:0:0:0:
128,248,55007,1,0,0:0:0:0:
192,192,55118,1,0,0:0:0:0:
304,80,55229,1,2,0:0:0:0:
368,136,55341,1,0,0:0:0:0:
432,192,55452,1,0,0:0:0:0:
216,304,55563,1,8,0:0:0:0:
152,248,55674,1,0,0:0:0:0:
88,192,55785,1,0,0:0:0:0:
280,24,55896,5,2,0:0:0:0:
336,80,56007,1,0,0:0:0:0:
264,136,56118,1,0,0:0:0:0:
152,184,56229,1,8,0:0:0:0:
248,248,56341,1,0,0:0:0:0:
152,304,56452,1,0,0:0:0:0:
352,192,56563,1,2,0:0:0:0:
272,192,56674,1,2,0:0:0:0:
192,192,56785,1,2,0:0:0:0:
384,256,56896,1,8,0:0:0:0:
192,80,57229,5,2,0:0:0:0:
128,136,57340,1,0,0:0:0:0:
192,192,57452,1,0,0:0:0:0:
320,192,57562,1,8,0:0:0:0:
384,248,57673,1,0,0:0:0:0:
320,304,57785,1,0,0:0:0:0:
192,248,57895,1,2,0:0:0:0:
128,192,58007,1,0,0:0:0:0:
64,136,58118,1,0,0:0:0:0:
256,80,58229,1,8,0:0:0:0:
320,136,58340,1,0,0:0:0:0:
384,192,58452,1,0,0:0:0:0:
192,304,58562,5,2,0:0:0:0:
128,248,58674,1,0,0:0:0:0:
192,192,58785,1,0,0:0:0:0:
320,136,58896,1,8,0:0:0:0:
224,80,59007,1,0,0:0:0:0:
320,24,59118,1,0,0:0:0:0:
88,80,59229,1,2,0:0:0:0:
24,136,59341,1,2,0:0:0:0:
88,192,59451,1,2,0:0:0:0:
320,192,59563,1,8,0:0:0:0:
192,192,59785,1,0,0:0:0:0:
400,80,59896,5,4,0:0:0:0:
464,136,60007,1,0,0:0:0:0:
400,192,60118,1,0,0:0:0:0:
288,192,60229,1,8,0:0:0:0:
224,248,60341,1,0,0:0:0:0:
288,304,60452,1,0,0:0:0:0:
176,248,60563,1,2,0:0:0:0:
112,192,60674,1,0,0:0:0:0:
176,136,60785,1,0,0:0:0:0:
352,248,60896,1,8,0:0:0:0:
416,192,61007,1,0,0:0:0:0:
352,136,61118,1,0,0:0:0:0:
176,136,61229,5,2,0:0:0:0:
112,192,61341,1,0,0:0:0:0:
176,248,61452,1,0,0:0:0:0:
288,24,61563,1,8,0:0:0:0:
368,80,61674,1,0,0:0:0:0:
288,136,61785,1,0,0:0:0:0:
160,192,61896,1,2,0:0:0:0:
256,248,62007,1,2,0:0:0:0:
160,304,62118,1,2,0:0:0:0:
368,360,62229,1,8,0:0:0:0:
160,360,62563,5,4,0:0:0:0:
224,304,62674,1,0,0:0:0:0:
160,248,62785,1,0,0:0:0:0:
328,304,62896,1,8,0:0:0:0:
256,248,63007,1,0,0:0:0:0:
328,192,63118,1,0,0:0:0:0:
160,192,63229,1,2,0:0:0:0:
256,192,63341,1,2,0:0:0:0:
344,192,63452,1,2,0:0:0:0:
160,248,63563,1,8,0:0:0:0:
88,192,63674,1,0,0:0:0:0:
160,136,63785,1,0,0:0:0:0:
368,136,63896,5,2,0:0:0:0:
280,136,64007,1,2,0:0:0:0:
192,136,64119,1,2,0:0:0:0:
400,192,64229,1,8,0:0:0:0:
472,136,64340,1,0,0:0:0:0:
400,80,64451,1,0,0:0:0:0:
168,80,64563,1,2,0:0:0:0:
240,136,64675,1,2,0:0:0:0:
168,192,64785,1,2,0:0:0:0:
344,80,64896,1,8,0:0:0:0:
272,136,65007,1,8,0:0:0:0:
344,192,65119,1,8,0:0:0:0:
104,192,65229,5,4,0:0:0:0:
344,192,75896,5,4,0:0:0:0:
168,192,76063,2,0,L|120:192,2,48,0|0|8,0:0|0:0|0:0,0:0:0:0:
344,192,76396,2,0,L|400:192,2,48,0|0|2,0:0|0:0|0:0,0:0:0:0:
120,80,76729,5,0,0:0:0:0:
168,80,76813,1,0,0:0:0:0:
216,80,76896,1,8,0:0:0:0:
440,80,77063,1,0,0:0:0:0:
392,80,77147,1,0,0:0:0:0:
344,80,77230,1,2,0:0:0:0:
120,192,77396,6,0,L|72:192,2,48,0|0|8,0:0|0:0|0:0,0:0:0:0:
344,192,77729,2,0,L|392:192,2,48,0|0|2,0:0|0:0|0:0,0:0:0:0:
112,304,78063,5,0,0:0:0:0:
64,304,78146,1,0,0:0:0:0:
16,304,78229,1,8,0:0:0:0:
240,304,78396,2,0,L|288:304,1,48
448,304,78563,5,2,0:0:0:0:
472,264,78646,1,0,0:0:0:0:
480,216,78729,1,0,0:0:0:0:
472,168,78812,1,0,0:0:0:0:
448,120,78896,1,8,0:0:0:0:
416,88,78979,1,0,0:0:0:0:
376,64,79062,1,0,0:0:0:0:
328,56,79146,1,0,0:0:0:0:
96,56,79229,5,2,0:0:0:0:
56,80,79312,1,0,0:0:0:0:
40,128,79395,1,0,0:0:0:0:
48,168,79478,1,0,0:0:0:0:
96,192,79563,1,8,0:0:0:0:
136,216,79646,1,0,0:0:0:0:
128,264,79729,1,0,0:0:0:0:
88,288,79812,1,0,0:0:0:0:
304,304,79896,5,2,0:0:0:0:
352,264,79979,1,0,0:0:0:0:
384,224,80062,1,8,0:0:0:0:
384,184,80145,1,0,0:0:0:0:
136,192,80229,1,2,0:0:0:0:
88,152,80312,1,0,0:0:0:0:
56,120,80395,1,2,0:0:0:0:
56,80,80478,1,0,0:0:0:0:
256,192,80563,5,8,0:0:0:0:
440,80,80729,2,2,P|480:120|480:168,2,96
88,144,81229,6,0,L|48:232,1,96,4|0,0:0|0:0,0:0:0:0:
328,80,81563,2,0,L|376:80,1,48,8|0,0:0|0:0,0:0:0:0:
304,144,81729,2,0,L|248:144,1,48
440,144,81896,2,0,L|480:232,1,96,2|0,0:0|0:0,0:0:0:0:
208,144,82229,6,0,L|160:144,1,48,8|0,0:0|0:0,0:0:0:0:
112,208,82396,2,0,L|160:208,1,48
376,264,82563,2,0,L|400:208,1,48,2|0,0:0|0:0,0:0:0:0:
232,192,82729,2,0,L|224:144,1,48,8|0,0:0|0:0,0:0:0:0:
416,176,82896,2,0,L|440:120,1,48,2|0,0:0|0:0,0:0:0:0:
272,104,83062,2,0,L|264:56,1,48,8|0,0:0|0:0,0:0:0:0:
480,88,83229,6,0,L|416:160,1,96,2|0,0:0|0:0,0:0:0:0:
256,192,83563,2,0,L|160:192,1,96,8|0,0:0|0:0,0:0:0:0:
416,264,83896,2,0,L|488:192,1,96,4|0,0:0|0:0,0:0:0:0:
216,192,84229,2,0,L|112:192,1,96,8|0,0:0|0:0,0:0:0:0:
168,136,84479,1,0,0:0:0:0:
344,136,84563,2,0,L|408:64,1,96,2|0,0:0|0:0,0:0:0:0:
168,136,84896,2,0,L|104:64,1,96,2|8,0:0|0:0,0:0:0:0:
376,136,85229,5,2,0:0:0:0:
256,192,85396,1,8,0:0:0:0:
376,248,85563,1,2,0:0:0:0:
136,248,85729,2,0,L|80:64,1,192,2|0,0:0|0:0,0:0:0:0:
152,64,86146,1,0,0:0:0:0:
360,136,86229,2,0,L|376:232,1,96,2|8,0:0|0:0,0:0:0:0:
72,80,86563,6,0,L|56:176,1,96,4|0,0:0|0:0,0:0:0:0:
304,80,86897,2,0,L|352:80,1,48,8|0,0:0|0:0,0:0:0:0:
304,144,87063,2,0,L|248:144,1,48
440,144,87230,2,0,L|480:232,1,96,2|0,0:0|0:0,0:0:0:0:
208,144,87563,6,0,L|160:144,1,48,8|0,0:0|0:0,0:0:0:0:
112,208,87730,2,0,L|160:208,1,48
384,256,87897,2,0,L|408:200,1,48,2|0,0:0|0:0,0:0:0:0:
232,192,88063,2,0,L|224:144,1,48,8|0,0:0|0:0,0:0:0:0:
416,192,88229,2,0,L|440:136,1,48,2|0,0:0|0:0,0:0:0:0:
256,128,88395,2,0,L|248:80,1,48,8|0,0:0|0:0,0:0:0:0:
448,128,88563,6,0,L|408:40,1,96,4|0,0:0|0:0,0:0:0:0:
256,16,88896,1,8,0:0:0:0:
104,40,89063,1,0,0:0:0:0:
360,192,89229,1,2,0:0:0:0:
480,192,89396,1,0,0:0:0:0:
480,128,89563,1,8,0:0:0:0:
360,128,89729,1,0,0:0:0:0:
32,80,89896,5,2,0:0:0:0:
144,80,90063,1,0,0:0:0:0:
480,192,90229,1,8,0:0:0:0:
344,192,90396,1,0,0:0:0:0:
32,192,90563,2,0,L|176:192,1,144,2|0,0:0|0:0,0:0:0:0:
256,160,90896,2,0,L|304:160,2,48,8|0|0,0:0|0:0|0:0,0:0:0:0:
176,128,91229,1,2,0:0:0:0:
344,192,91396,1,8,0:0:0:0:
112,192,91563,2,0,L|112:96,1,96,4|8,0:0|0:0,0:0:0:0:
360,80,91896,6,0,L|320:168,1,96,4|0,0:0|0:0,0:0:0:0:
32,136,92230,2,0,L|80:136,1,48,8|0,0:0|0:0,0:0:0:0:
224,192,92396,2,0,L|272:192,1,48
80,192,92563,2,0,L|16:264,1,96,2|0,0:0|0:0,0:0:0:0:
352,304,92896,6,0,L|400:304,1,48,8|0,0:0|0:0,0:0:0:0:
448,248,93063,2,0,L|400:248,1,48
208,248,93229,5,2,0:0:0:0:
160,248,93313,1,0,0:0:0:0:
160,184,93396,1,2,0:0:0:0:
208,184,93479,1,0,0:0:0:0:
352,80,93563,2,0,L|304:80,1,48,8|0,0:0|0:0,0:0:0:0:
448,136,93730,2,0,L|416:176,1,48,2|0,0:0|0:0,0:0:0:0:
208,80,93896,6,0,L|112:80,1,96,2|0,0:0|0:0,0:0:0:0:
336,192,94229,1,8,0:0:0:0:
176,192,94396,1,0,0:0:0:0:
418,173,94563,2,0,L|482:101,1,96,2|0,0:0|0:0,0:0:0:0:
104,304,94896,2,0,L|144:216,1,96,8|0,0:0|0:0,0:0:0:0:
208,216,95146,1,0,0:0:0:0:
378,85,95229,2,0,L|418:173,1,96,2|0,0:0|0:0,0:0:0:0:
256,280,95563,1,8,0:0:0:0:
415,239,95729,1,0,0:0:0:0:
128,24,95896,5,2,0:0:0:0:
256,112,96063,1,8,0:0:0:0:
128,192,96229,1,2,0:0:0:0:
384,264,96396,2,0,P|456:200|416:128,1,192
352,120,96813,1,0,0:0:0:0:
128,192,96896,2,0,L|88:280,1,96,2|8,0:0|0:0,0:0:0:0:
384,192,97229,6,0,L|424:280,1,96,4|0,0:0|0:0,0:0:0:0:
176,192,97563,2,0,L|128:192,1,48,8|0,0:0|0:0,0:0:0:0:
176,248,97729,2,0,L|232:248,1,48
48,304,97896,2,0,L|32:208,1,96,2|0,0:0|0:0,0:0:0:0:
336,88,98229,6,0,L|392:88,1,48,8|0,0:0|0:0,0:0:0:0:
336,136,98396,2,0,L|280:136,1,48
128,192,98563,2,0,L|176:192,1,48,4|0,0:0|0:0,0:0:0:0:
336,256,98729,2,0,L|288:256,1,48,8|0,0:0|0:0,0:0:0:0:
144,256,98896,2,0,L|184:216,1,48,2|0,0:0|0:0,0:0:0:0:
32,248,99063,2,0,L|72:208,1,48,8|0,0:0|0:0,0:0:0:0:
288,192,99229,6,0,P|376:176|280:80,1,288,2|8,0:0|0:0,0:0:0:0:
32,80,99896,1,4,0:0:0:0:
192,80,100063,1,8,0:0:0:0:
192,304,100229,1,2,0:0:0:0:
32,304,100396,1,8,0:0:0:0:
384,288,100563,5,4,0:0:0:0:
440,280,100646,1,0,0:0:0:0:
472,240,100729,1,0,0:0:0:0:
488,192,100812,1,0,0:0:0:0:
472,144,100896,1,0,0:0:0:0:
440,112,100979,1,0,0:0:0:0:
392,104,101062,1,0,0:0:0:0:
344,120,101146,1,0,0:0:0:0:
192,192,101229,6,0,L|96:192,1,96,4|0,0:0|0:0,0:0:0:0:
360,304,101563,1,8,0:0:0:0:
136,192,101729,2,0,L|184:192,1,48
360,80,101896,2,0,L|408:80,2,48,2|0|0,0:0|0:0|0:0,0:0:0:0:
136,192,102229,1,8,0:0:0:0:
376,192,102396,1,8,0:0:0:0:
136,80,102563,5,4,0:0:0:0:
256,80,102729,1,0,0:0:0:0:
304,136,102812,1,0,0:0:0:0:
256,192,102895,1,8,0:0:0:0:
136,192,103063,2,0,L|184:192,1,48
352,192,103229,2,0,L|448:192,1,96,2|0,0:0|0:0,0:0:0:0:
152,304,103563,2,0,L|112:304,1,32,8|0,0:0|0:0,0:0:0:0:
88,280,103674,2,0,L|120:280,1,32
352,192,103896,6,0,L|448:192,1,96,4|0,0:0|0:0,0:0:0:0:
376,136,104146,1,0,0:0:0:0:
304,80,104229,2,0,L|400:80,1,96,8|0,0:0|0:0,0:0:0:0:
336,24,104479,1,0,0:0:0:0:
184,80,104563,2,0,L|80:80,1,96,2|0,0:0|0:0,0:0:0:0:
376,192,104896,2,0,L|416:192,1,32,8|0,0:0|0:0,0:0:0:0:
440,216,105007,2,0,L|408:216,1,32
176,304,105229,6,0,L|120:224,1,96,4|0,0:0|0:0,0:0:0:0:
192,224,105479,1,0,0:0:0:0:
264,224,105563,2,0,L|304:136,1,96,8|0,0:0|0:0,0:0:0:0:
216,136,105813,1,0,0:0:0:0:
128,136,105896,2,0,L|88:224,1,96,2|0,0:0|0:0,0:0:0:0:
344,136,106229,2,0,L|384:136,1,32,8|0,0:0|0:0,0:0:0:0:
408,160,106340,2,0,L|376:160,1,32
136,160,106563,5,4,0:0:0:0:
360,80,106729,2,0,L|312:80,1,48
160,192,106896,1,8,0:0:0:0:
256,192,107063,2,0,L|312:192,1,48
160,192,107229,2,0,L|64:192,1,96,2|0,0:0|0:0,0:0:0:0:
224,160,107563,2,8,L|128:160,1,96
96,160,107813,1,0,0:0:0:0:
304,144,107896,5,4,0:0:0:0:
416,232,108063,2,0,L|464:232,1,48
304,192,108229,1,8,0:0:0:0:
416,192,108396,2,0,L|368:192,1,48
208,232,108563,2,0,L|104:232,1,96,2|0,0:0|0:0,0:0:0:0:
360,80,108896,2,0,L|392:80,1,32,8|0,0:0|0:0,0:0:0:0:
360,112,109007,2,0,L|328:112,1,32
104,80,109229,5,4,0:0:0:0:
248,192,109396,1,0,0:0:0:0:
200,192,109479,1,0,0:0:0:0:
152,192,109563,1,8,0:0:0:0:
288,256,109729,2,0,L|336:256,1,48
176,256,109896,2,0,L|80:256,1,96,2|0,0:0|0:0,0:0:0:0:
320,192,110229,5,8,0:0:0:0:
376,192,110285,1,0,0:0:0:0:
416,192,110341,1,0,0:0:0:0:
432,192,110396,1,0,0:0:0:0:
160,160,110563,5,4,0:0:0:0:
64,160,110729,1,0,0:0:0:0:
192,240,110896,1,8,0:0:0:0:
32,240,111063,1,0,0:0:0:0:
352,144,111229,5,4,0:0:0:0:
448,144,111395,1,0,0:0:0:0:
320,240,111562,1,8,0:0:0:0:
480,240,111729,1,0,0:0:0:0:
208,128,111896,5,4,0:0:0:0:
160,144,111979,1,0,0:0:0:0:
304,160,112063,1,8,0:0:0:0:
352,176,112146,1,0,0:0:0:0:
184,224,112229,5,4,0:0:0:0:
136,208,112312,1,0,0:0:0:0:
328,256,112396,1,8,0:0:0:0:
376,272,112479,1,0,0:0:0:0:
128,128,112563,5,4,0:0:0:0:
152,96,112646,1,0,0:0:0:0:
384,128,112730,1,4,0:0:0:0:
360,96,112813,1,0,0:0:0:0:
112,304,112896,1,4,0:0:0:0:
400,304,113063,1,4,0:0:0:0:
