osu file format v14

[General]
AudioFilename: audio.mp3
AudioLeadIn: 0
PreviewTime: 80092
Countdown: 0
SampleSet: Soft
StackLeniency: 0.7
Mode: 0
LetterboxInBreaks: 0
WidescreenStoryboard: 0

[Editor]
DistanceSpacing: 1.1
BeatDivisor: 8
GridSize: 4
TimelineZoom: 3.999998

[Metadata]
Title:Chronoxia
TitleUnicode:Chronoxia
Artist:DJ Totoriott
ArtistUnicode:DJ Totoriott
Creator:Icekalt
Version:Sunny Day
Source:REFLEC BEAT groovin'!!
Tags:corsace open 2020 qf fm1 pop'n music ラピストリア plus volzza 2 upper 悠久のリフレシア totto うさぎと猫と少年の夢 éclale eclale konami bemani video game instrumental electronic pop'n music ラピストリア MUSIC PACK 68 naotoshi nao tomori
BeatmapID:3057318
BeatmapSetID:1262520

[Difficulty]
HPDrainRate:6
CircleSize:4.3
OverallDifficulty:8.4
ApproachRate:9
SliderMultiplier:1.9
SliderTickRate:2

[Events]
//Background and Video events
0,0,"town 3.jpg",0,0
//Break Periods
//Storyboard Layer 0 (Background)
//Storyboard Layer 1 (Fail)
//Storyboard Layer 2 (Pass)
//Storyboard Layer 3 (Foreground)
//Storyboard Layer 4 (Overlay)
//Storyboard Sound Samples

[TimingPoints]
718,666.666666666667,4,2,1,65,1,0
718,-76.9230769230769,4,2,1,65,0,0
6384,-66.6666666666667,4,2,1,65,0,0
16718,-66.6666666666667,4,2,1,65,0,0
22051,333.333333333333,4,2,1,60,1,0
22051,-90.9090909090909,4,2,1,60,0,0
27050,-333.333333333333,4,2,1,70,0,0
27384,-83.3333333333333,4,2,1,70,0,0
42050,-71.4285714285714,4,2,1,70,0,0
43384,-76.9230769230769,4,2,1,70,0,0
52717,-66.6666666666667,4,2,1,80,0,0
53717,-200,4,2,1,80,0,0
54050,-83.3333333333333,4,2,1,75,0,0
64717,-133.333333333333,4,2,1,50,0,0
75384,-90.9090909090909,4,2,1,75,0,0
78050,-90.9090909090909,4,2,1,80,0,0
80217,-285.714285714284,4,2,1,50,0,0
80717,-71.4285714285714,4,2,1,80,0,0
102050,-71.4285714285714,4,2,1,70,0,0
110050,-71.4285714285714,4,2,1,80,0,0

[Colours]
Combo1 : 226,167,29
Combo2 : 119,190,12
Combo3 : 44,177,228
Combo4 : 218,118,143

[HitObjects]
109,156,495,5,2,0:0:0:0:
146,96,606,1,2,0:0:0:0:
215,113,718,2,0,P|252:123|283:78,1,82.3333295644126,4|0,0:0|0:0,0:0:0:0:
297,80,1051,1,2,0:0:0:0:
276,58,1162,1,2,0:0:0:0:
300,28,1273,1,2,0:0:0:0:
369,54,1384,2,0,L|389:164,1,82.3333295644126,8|0,0:0|0:0,0:0:0:0:
399,148,1718,5,2,0:0:0:0:
376,169,1829,1,2,0:0:0:0:
406,195,1940,1,2,0:0:0:0:
339,242,2051,2,0,B|291:251|298:220|237:230,1,82.3333295644126,8|0,0:0|0:0,0:0:0:0:
205,284,2384,2,0,L|214:330,2,41.1666647822063,2|2|2,0:0|0:0|0:0,0:0:0:0:
151,224,2718,5,8,0:0:0:0:
148,200,2829,1,2,3:2:0:0:
163,170,2940,1,2,3:2:0:0:
112,112,3051,5,8,0:0:0:0:
76,130,3162,1,2,3:2:0:0:
62,178,3273,1,2,3:2:0:0:
4,230,3384,5,4,0:0:0:0:
194,87,3718,5,2,0:0:0:0:
214,69,3829,1,2,0:0:0:0:
239,97,3940,1,2,0:0:0:0:
293,44,4051,2,0,P|322:33|394:40,1,82.3333295644126,8|0,0:0|0:0,0:0:0:0:
383,47,4384,1,2,0:0:0:0:
409,35,4495,1,2,0:0:0:0:
428,62,4606,1,2,0:0:0:0:
383,121,4718,2,0,P|374:161|414:189,1,82.3333295644126,8|0,0:0|0:0,0:0:0:0:
425,185,5051,1,2,0:0:0:0:
453,168,5162,1,2,0:0:0:0:
467,207,5273,1,2,0:0:0:0:
409,261,5384,5,8,0:0:0:0:
404,279,5495,1,2,3:2:0:0:
405,297,5606,1,2,3:2:0:0:
375,365,5718,5,8,0:0:0:0:
338,339,5829,1,2,3:2:0:0:
296,344,5940,1,2,3:2:0:0:
314,258,6051,5,4,0:0:0:0:
104,38,6384,5,2,0:0:0:0:
118,63,6495,1,2,0:0:0:0:
97,93,6606,1,2,0:0:0:0:
135,156,6718,2,0,P|92:192|58:179,1,95.0000036239625,8|0,0:0|0:0,0:0:0:0:
151,260,7051,1,2,0:0:0:0:
166,277,7162,1,2,0:0:0:0:
171,312,7273,1,2,0:0:0:0:
195,383,7384,2,0,P|207:336|254:329,1,95.0000036239625,8|0,0:0|0:0,0:0:0:0:
320,278,7718,2,0,P|318:254|308:230,2,47.5000018119813,2|2|2,0:0|0:0|0:0,0:0:0:0:
378,343,8051,5,8,0:0:0:0:
405,350,8162,1,2,3:2:0:0:
436,330,8273,1,2,3:2:0:0:
404,256,8384,5,8,0:0:0:0:
397,218,8495,1,2,3:2:0:0:
427,178,8606,1,2,3:2:0:0:
494,251,8718,5,4,0:0:0:0:
360,62,9051,5,2,0:0:0:0:
322,68,9162,1,2,0:0:0:0:
303,86,9273,1,2,0:0:0:0:
244,39,9384,2,0,P|276:89|280:155,1,95.0000036239625,8|0,0:0|0:0,0:0:0:0:
225,208,9718,1,2,0:0:0:0:
250,218,9829,1,2,0:0:0:0:
282,252,9940,1,2,0:0:0:0:
348,198,10051,2,0,P|316:248|312:314,1,95.0000036239625,8|0,0:0|0:0,0:0:0:0:
246,350,10384,1,2,0:0:0:0:
224,360,10495,1,2,0:0:0:0:
200,356,10606,1,2,0:0:0:0:
181,365,10718,5,8,0:0:0:0:
226,382,10829,1,2,3:2:0:0:
268,359,10940,1,2,3:2:0:0:
211,284,11051,5,8,0:0:0:0:
129,298,11162,1,2,3:2:0:0:
90,226,11273,1,2,3:2:0:0:
144,152,11384,6,0,L|151:102,1,47.5000018119813,4|0,0:0|0:0,0:0:0:0:
328,267,11718,1,2,0:0:0:0:
337,249,11829,1,2,0:0:0:0:
323,223,11940,1,2,0:0:0:0:
396,193,12051,6,0,L|389:143,1,47.5000018119813,10|0,0:0|0:0,0:0:0:0:
167,311,12384,1,2,0:0:0:0:
146,318,12495,1,2,0:0:0:0:
125,341,12606,1,2,0:0:0:0:
86,266,12718,6,0,L|93:216,1,47.5000018119813,10|0,0:0|0:0,0:0:0:0:
343,364,13051,1,2,0:0:0:0:
372,354,13162,1,2,0:0:0:0:
383,317,13273,1,2,0:0:0:0:
466,308,13384,6,0,L|459:258,1,47.5000018119813,10|0,0:0|0:0,0:0:0:0:
378,234,13606,1,2,0:0:0:0:
458,172,13718,5,2,3:2:0:0:
476,126,13829,1,2,3:2:0:0:
462,78,13940,1,2,3:2:0:0:
394,122,14051,6,0,L|333:111,1,47.5000018119813,4|0,0:0|0:0,0:0:0:0:
392,354,14384,1,2,0:0:0:0:
385,336,14495,1,2,0:0:0:0:
396,312,14606,1,2,0:0:0:0:
318,301,14718,6,0,L|257:312,1,47.5000018119813,10|0,0:0|0:0,0:0:0:0:
384,127,15051,1,2,0:0:0:0:
365,116,15162,1,2,0:0:0:0:
328,129,15273,1,2,0:0:0:0:
288,61,15384,6,0,L|227:50,1,47.5000018119813,10|0,0:0|0:0,0:0:0:0:
300,301,15718,1,2,0:0:0:0:
288,324,15829,1,2,0:0:0:0:
255,297,15940,1,2,0:0:0:0:
209,355,16051,6,0,L|148:366,1,47.5000018119813,10|0,0:0|0:0,0:0:0:0:
93,307,16273,1,2,0:0:0:0:
176,254,16384,1,2,3:2:0:0:
158,209,16495,1,2,3:2:0:0:
108,215,16606,1,2,3:2:0:0:
196,129,16718,6,0,L|182:68,1,47.5000018119813,4|0,0:0|0:0,0:0:0:0:
324,202,17051,2,0,L|338:141,1,47.5000018119813,8|0,0:0|0:0,0:0:0:0:
252,239,17273,1,2,0:0:0:0:
372,304,17384,2,0,L|408:264,1,47.5000018119813,10|0,0:0|0:0,0:0:0:0:
233,353,17718,5,2,0:0:0:0:
195,328,17829,1,2,0:0:0:0:
183,342,17940,1,2,0:0:0:0:
129,274,18051,2,0,L|74:284,1,47.5000018119813,10|0,0:0|0:0,0:0:0:0:
203,126,18384,1,2,0:0:0:0:
242,155,18495,1,2,0:0:0:0:
254,140,18606,1,2,0:0:0:0:
305,82,18718,2,0,L|355:73,1,47.5000018119813,10|0,0:0|0:0,0:0:0:0:
480,264,19051,5,2,0:0:0:0:
454,235,19162,1,2,0:0:0:0:
420,272,19273,1,2,0:0:0:0:
375,203,19384,2,0,P|348:197|330:206,1,47.5000018119813,8|0,0:0|0:0,0:0:0:0:
238,298,19606,1,2,0:0:0:0:
246,287,19718,2,0,P|272:281|291:290,1,47.5000018119813,8|0,0:0|0:0,0:0:0:0:
359,336,19940,1,2,0:0:0:0:
324,218,20051,5,2,3:2:0:0:
299,177,20162,1,2,3:2:0:0:
309,130,20273,1,2,3:2:0:0:
339,87,20384,1,2,3:2:0:0:
329,35,20495,1,2,3:2:0:0:
277,26,20606,1,2,3:2:0:0:
234,93,20718,5,4,0:0:0:0:
479,266,21051,5,2,0:0:0:0:
418,307,21218,1,2,3:2:0:0:
408,305,21301,1,2,3:2:0:0:
410,295,21384,1,2,3:2:0:0:
490,260,21551,1,2,0:0:0:0:
507,169,21718,1,2,0:0:0:0:
440,80,21884,1,2,0:0:0:0:
306,247,22051,5,6,0:0:0:0:
275,254,22134,1,2,0:0:0:0:
245,244,22217,1,2,0:0:0:0:
222,221,22301,1,2,0:0:0:0:
218,189,22384,1,2,3:2:0:0:
168,313,22551,2,0,P|177:343|178:374,2,52.2500015945435,2|2|8,0:0|0:0|0:0,0:0:0:0:
218,189,22884,1,2,0:0:0:0:
105,252,23051,1,0,3:0:0:0:
98,254,23106,1,0,3:0:0:0:
90,257,23162,1,0,3:0:0:0:
82,259,23217,1,2,3:0:0:0:
206,83,23384,6,0,L|219:150,1,52.2500015945435,8|0,0:0|0:0,0:0:0:0:
264,26,23551,1,2,0:0:0:0:
280,17,23634,1,2,0:0:0:0:
296,8,23717,2,0,L|366:25,1,52.2500015945435,2|0,3:2|0:0,0:0:0:0:
372,115,23884,1,2,0:0:0:0:
350,121,23967,1,2,0:0:0:0:
328,127,24050,1,8,0:0:0:0:
360,24,24217,1,0,0:0:0:0:
405,260,24384,2,0,P|417:190|489:229,1,156.750004783631,10|0,0:0|0:0,0:0:0:0:
397,273,24717,6,0,L|334:260,1,52.2500015945435,4|0,0:0|0:0,0:0:0:0:
189,334,24884,1,10,0:0:0:0:
192,347,24967,1,2,0:0:0:0:
196,360,25050,1,2,3:2:0:0:
104,290,25217,1,2,0:0:0:0:
109,263,25300,1,2,0:0:0:0:
117,237,25383,1,8,0:0:0:0:
196,360,25550,1,0,0:0:0:0:
270,291,25717,1,0,3:0:0:0:
262,272,25773,1,0,3:0:0:0:
256,255,25828,1,0,3:0:0:0:
251,239,25884,1,2,3:0:0:0:
425,209,26050,5,8,0:0:0:0:
357,85,26217,1,2,0:0:0:0:
359,100,26300,1,2,0:0:0:0:
361,115,26384,1,2,3:2:0:0:
342,234,26550,1,2,0:0:0:0:
345,261,26633,1,2,0:0:0:0:
349,290,26717,1,8,0:0:0:0:
453,129,26884,1,2,0:0:0:0:
260,182,27050,6,0,B|240:190|240:190|214:176,1,42.7499986953736,10|0,0:0|0:0,0:0:0:0:
210,283,27384,6,0,P|204:215|169:165,1,113.999996520996,4|2,0:0|0:0,0:0:0:0:
113,243,27634,1,2,0:0:0:0:
118,260,27717,1,2,3:2:0:0:
51,101,27884,1,2,0:0:0:0:
82,76,27967,1,2,0:0:0:0:
120,84,28050,2,0,P|172:97|245:73,1,113.999996520996,8|0,0:0|0:0,0:0:0:0:
327,135,28384,1,0,3:0:0:0:
310,138,28439,1,0,3:0:0:0:
294,140,28495,1,0,3:0:0:0:
277,143,28550,1,2,3:0:0:0:
448,23,28717,6,0,P|423:84|436:164,1,113.999996520996,4|2,0:0|0:0,0:0:0:0:
496,214,28967,1,2,0:0:0:0:
493,235,29050,1,2,3:2:0:0:
421,361,29217,1,2,0:0:0:0:
398,335,29300,1,2,0:0:0:0:
388,301,29384,1,0,0:0:0:0:
348,203,29550,1,0,0:0:0:0:
298,335,29717,1,0,3:0:0:0:
299,349,29773,1,0,3:0:0:0:
301,363,29828,1,0,3:0:0:0:
302,377,29884,1,2,3:0:0:0:
219,148,30050,5,6,3:2:0:0:
211,140,30134,1,2,0:2:0:0:
145,108,30217,1,2,0:2:0:0:
139,99,30300,1,2,3:2:0:0:
92,158,30384,2,0,P|123:217|111:283,1,113.999996520996,8|2,0:0|0:0,0:0:0:0:
28,334,30634,1,2,0:0:0:0:
22,311,30717,1,8,0:0:0:0:
144,371,30884,1,2,0:0:0:0:
21,208,31050,1,8,0:0:0:0:
235,273,31217,1,2,0:0:0:0:
369,81,31384,5,4,0:0:0:0:
420,192,31550,1,2,0:0:0:0:
369,304,31717,1,8,0:0:0:0:
430,374,31884,1,2,0:0:0:0:
297,174,32050,1,2,3:2:0:0:
257,165,32134,1,2,3:2:0:0:
218,174,32217,1,2,3:2:0:0:
190,203,32300,1,2,3:2:0:0:
182,242,32384,1,8,0:0:0:0:
114,146,32550,1,2,0:0:0:0:
237,314,32717,5,6,3:2:0:0:
249,320,32800,1,2,0:0:0:0:
279,341,32884,5,2,3:2:0:0:
292,336,32967,1,2,0:0:0:0:
328,334,33050,5,8,0:0:0:0:
497,365,33217,1,2,0:0:0:0:
487,346,33300,1,2,0:0:0:0:
466,333,33384,1,8,0:0:0:0:
408,263,33550,1,2,0:0:0:0:
506,193,33717,1,8,0:0:0:0:
506,173,33773,1,0,3:0:0:0:
502,154,33828,1,0,3:0:0:0:
490,138,33884,1,2,3:0:0:0:
310,234,34050,5,4,0:0:0:0:
230,184,34217,1,2,0:0:0:0:
224,170,34300,1,2,0:0:0:0:
226,156,34384,1,8,0:0:0:0:
310,234,34550,1,2,0:0:0:0:
143,294,34717,1,8,0:0:0:0:
82,229,34884,1,2,0:0:0:0:
81,215,34967,1,2,0:0:0:0:
87,203,35050,2,0,P|105:174|17:159,1,170.999994781494,10|0,0:0|0:0,0:0:0:0:
6,57,35384,5,2,3:2:0:0:
1,44,35467,1,2,0:2:0:0:
39,24,35550,5,2,3:2:0:0:
45,12,35633,1,2,0:2:0:0:
84,11,35717,5,8,0:0:0:0:
229,134,35884,1,2,0:0:0:0:
227,118,35967,1,2,0:0:0:0:
216,98,36050,1,8,0:0:0:0:
140,79,36217,1,2,0:0:0:0:
47,142,36384,1,8,0:0:0:0:
274,200,36550,1,2,0:0:0:0:
426,57,36717,5,4,0:0:0:0:
345,128,36884,1,2,0:0:0:0:
341,114,36967,1,2,0:0:0:0:
342,98,37050,1,8,0:0:0:0:
426,57,37217,1,2,0:0:0:0:
479,248,37384,1,8,0:0:0:0:
260,160,37550,5,2,3:2:0:0:
262,173,37634,1,2,0:2:0:0:
251,204,37717,5,2,3:2:0:0:
259,215,37801,1,2,0:2:0:0:
262,251,37883,5,2,3:2:0:0:
193,87,38050,6,0,P|159:80|131:84,1,56.9999982604981,8|0,0:0|0:0,0:0:0:0:
60,163,38217,1,2,0:0:0:0:
74,166,38300,1,2,0:0:0:0:
92,198,38384,1,8,0:0:0:0:
67,10,38550,1,2,0:0:0:0:
48,20,38633,1,2,0:0:0:0:
36,43,38716,1,8,0:0:0:0:
137,82,38884,1,2,0:0:0:0:
296,29,39050,1,8,0:0:0:0:
284,13,39106,1,0,3:0:0:0:
266,6,39162,1,0,3:0:0:0:
247,8,39217,1,2,3:0:0:0:
250,202,39384,5,4,0:0:0:0:
319,296,39550,1,2,0:0:0:0:
333,290,39634,1,2,0:0:0:0:
340,277,39717,1,8,0:0:0:0:
230,281,39884,1,2,0:0:0:0:
334,128,40050,2,0,B|420:114|389:186|470:192|510:170,1,170.999994781494,8|0,0:0|0:0,0:0:0:0:
500,257,40384,2,0,P|483:303|415:306,1,113.999996520996,10|0,0:0|0:0,0:0:0:0:
470,98,40717,5,4,0:0:0:0:
360,18,40884,1,2,3:2:0:0:
383,15,40967,1,2,3:2:0:0:
406,24,41050,1,10,0:0:0:0:
291,139,41217,1,2,3:2:0:0:
306,121,41300,1,2,3:2:0:0:
330,114,41383,1,8,0:0:0:0:
315,276,41551,1,2,3:2:0:0:
315,252,41634,1,2,3:2:0:0:
329,231,41717,1,8,0:0:0:0:
291,139,41884,1,2,0:0:0:0:
243,359,42050,6,0,P|235:315|210:276,1,66.4999979705811,4|0,0:0|0:0,0:0:0:0:
156,181,42217,2,0,P|164:137|189:98,1,66.4999979705811,2|0,3:2|0:0,0:0:0:0:
236,361,42384,2,0,P|225:317|198:279,1,66.4999979705811,8|0,0:0|0:0,0:0:0:0:
85,292,42550,1,2,0:0:0:0:
252,202,42717,1,8,0:0:0:0:
391,327,42884,1,2,0:0:0:0:
401,161,43050,6,0,P|407:143|418:146,6,33.2499989852906,0|0|0|0|0|0|0,3:0|3:0|3:0|3:0|3:0|3:0|3:0,3:0:0:0:
328,125,43384,5,2,3:2:0:0:
332,113,43467,1,2,0:0:0:0:
296,87,43550,5,2,3:2:0:0:
289,76,43633,1,2,0:0:0:0:
247,78,43717,5,8,0:0:0:0:
148,223,43883,1,2,0:0:0:0:
155,202,43966,1,2,0:0:0:0:
180,185,44050,1,8,0:0:0:0:
124,96,44217,1,2,0:0:0:0:
259,192,44384,1,8,0:0:0:0:
274,205,44439,1,0,3:0:0:0:
284,222,44495,1,0,3:0:0:0:
287,242,44550,1,2,3:0:0:0:
477,131,44717,5,4,0:0:0:0:
384,70,44884,1,2,0:0:0:0:
382,84,44968,1,2,0:0:0:0:
388,98,45051,1,8,0:0:0:0:
479,142,45217,1,2,0:0:0:0:
414,282,45384,1,8,0:0:0:0:
323,238,45550,1,2,0:0:0:0:
203,364,45717,2,0,B|165:279|245:283|206:179,1,185.249991519928,10|0,0:0|0:0,0:0:0:0:
156,119,46051,5,2,3:2:0:0:
151,106,46134,1,2,0:0:0:0:
185,79,46217,5,2,3:2:0:0:
189,65,46300,1,2,0:0:0:0:
232,66,46384,5,8,0:0:0:0:
288,208,46551,1,2,0:0:0:0:
288,182,46634,1,2,0:0:0:0:
307,154,46717,1,10,0:0:0:0:
466,53,46884,1,2,0:0:0:0:
330,18,47051,1,10,0:0:0:0:
476,245,47217,1,2,0:0:0:0:
386,368,47384,5,4,0:0:0:0:
308,296,47551,1,2,0:0:0:0:
315,283,47634,1,2,0:0:0:0:
330,275,47717,1,8,0:0:0:0:
298,378,47884,1,2,0:0:0:0:
237,203,48051,1,8,0:0:0:0:
128,263,48217,5,2,3:2:0:0:
127,272,48300,1,2,0:0:0:0:
110,254,48384,5,2,3:2:0:0:
103,261,48467,1,2,0:0:0:0:
101,235,48551,5,2,3:2:0:0:
92,236,48634,1,2,0:0:0:0:
120,196,48717,6,0,P|131:170|104:45,1,123.499994346619,4|0,0:0|0:0,0:0:0:0:
212,199,49050,2,0,P|229:218|266:214,1,61.7499971733095,8|0,0:0|0:0,0:0:0:0:
326,141,49217,1,2,0:0:0:0:
329,128,49300,1,2,0:0:0:0:
327,116,49383,1,10,0:0:0:0:
276,53,49551,1,0,0:0:0:0:
458,142,49717,1,8,0:0:0:0:
401,29,49884,1,2,0:0:0:0:
360,265,50050,6,0,B|362:326|249:360|232:254|144:281,1,246.999988693238,4|8,0:0|0:0,0:0:0:0:
59,356,50550,1,2,0:0:0:0:
105,161,50717,2,0,B|114:117|85:89|85:89|34:114|34:114|8:172|47:228,1,246.999988693238,8|8,0:0|0:0,0:0:0:0:
170,359,51217,1,2,0:0:0:0:
231,158,51384,5,4,0:0:0:0:
174,216,51551,1,0,3:2:0:0:
162,233,51634,1,0,3:2:0:0:
161,252,51717,1,8,0:0:0:0:
264,330,51884,1,0,3:2:0:0:
253,315,51967,1,0,3:2:0:0:
251,294,52050,1,8,0:0:0:0:
367,320,52218,1,0,3:2:0:0:
381,335,52301,1,0,3:2:0:0:
400,340,52384,5,2,0:0:0:0:
434,305,52467,1,2,0:0:0:0:
437,255,52550,1,2,0:0:0:0:
406,215,52634,1,2,0:0:0:0:
359,198,52717,2,0,P|331:197|279:216,1,71.2500027179719,4|0,0:0|0:0,0:0:0:0:
459,82,52884,1,2,0:0:0:0:
193,4,53050,2,0,L|204:77,1,71.2500027179719,10|0,0:0|0:0,0:0:0:0:
362,206,53384,6,0,P|334:205|282:225,1,71.2500027179719,4|0,0:0|0:0,0:0:0:0:
453,79,53550,1,2,0:0:0:0:
184,0,53717,2,0,L|195:73,1,71.2500027179719,10|0,0:0|0:0,0:0:0:0:
114,134,54050,6,0,P|78:141|51:173,2,75.9999976806641,4|2|2,0:0|0:0|0:0,0:0:0:0:
177,186,54384,1,8,0:0:0:0:
179,193,54495,1,2,3:2:0:0:
181,199,54606,1,2,3:2:0:0:
226,256,54717,6,0,P|213:291|208:349,2,75.9999976806641,8|2|2,0:0|0:0|0:0,0:0:0:0:
304,226,55050,1,8,0:0:0:0:
305,207,55162,1,2,3:2:0:0:
307,189,55273,1,2,3:2:0:0:
385,167,55384,6,0,P|409:200|445:202,2,75.9999976806641,8|2|2,0:0|0:0|0:0,0:0:0:0:
372,85,55717,1,8,0:0:0:0:
360,76,55828,1,2,0:0:0:0:
344,72,55939,1,2,0:0:0:0:
276,105,56050,5,8,3:2:0:0:
232,86,56162,1,0,3:2:0:0:
227,39,56273,1,0,3:2:0:0:
299,7,56384,5,4,0:0:0:0:
142,237,56717,6,0,P|133:203|86:157,2,75.9999976806641,8|2|2,0:0|0:0|0:0,0:0:0:0:
90,324,57050,2,0,L|-1:347,2,75.9999976806641
178,342,57384,5,8,0:0:0:0:
200,360,57495,1,2,0:0:0:0:
234,367,57606,1,2,0:0:0:0:
301,307,57717,5,8,0:0:0:0:
291,267,57828,1,2,3:2:0:0:
281,228,57939,1,2,3:2:0:0:
357,181,58050,6,0,P|364:148|390:110,2,75.9999976806641,8|2|2,0:0|0:0|0:0,0:0:0:0:
303,68,58384,2,0,P|296:35|270:-3,2,75.9999976806641,8|2|2,0:0|0:0|0:0,0:0:0:0:
238,157,58717,5,10,3:2:0:0:
170,133,58828,1,2,3:2:0:0:
243,131,58939,1,2,3:2:0:0:
165,159,59050,1,4,0:0:0:0:
328,333,59273,1,2,3:2:0:0:
408,286,59384,6,0,P|356:307|326:308,2,75.9999976806641,8|2|2,0:0|0:0|0:0,0:0:0:0:
448,214,59717,1,8,0:0:0:0:
429,183,59828,1,0,3:2:0:0:
432,148,59939,1,0,3:2:0:0:
497,121,60050,5,8,0:0:0:0:
494,108,60162,1,2,0:0:0:0:
483,100,60273,1,2,0:0:0:0:
426,156,60384,5,8,0:0:0:0:
385,147,60496,1,2,3:2:0:0:
372,107,60607,1,2,3:2:0:0:
293,66,60717,6,0,P|277:31|231:17,2,75.9999976806641,8|2|2,0:0|0:0|0:0,0:0:0:0:
237,131,61050,1,8,0:0:0:0:
224,166,61162,1,2,0:0:0:0:
234,199,61273,1,2,0:0:0:0:
315,211,61384,5,10,3:2:0:0:
383,187,61495,1,2,3:2:0:0:
310,185,61606,1,2,3:2:0:0:
388,213,61717,1,4,0:0:0:0:
91,209,62050,5,2,3:2:0:0:
87,220,62161,1,2,3:2:0:0:
85,231,62273,1,8,3:2:0:0:
103,270,62384,5,8,3:2:0:0:
149,278,62495,1,2,3:2:0:0:
189,256,62606,1,2,3:2:0:0:
215,180,62717,5,8,3:2:0:0:
254,144,62828,1,8,3:2:0:0:
306,139,62939,1,8,3:2:0:0:
356,156,63050,1,8,3:2:0:0:
409,148,63162,1,8,3:2:0:0:
449,113,63273,1,8,3:2:0:0:
391,60,63384,5,8,3:2:0:0:
380,48,63495,1,2,3:2:0:0:
375,32,63606,1,2,3:2:0:0:
299,1,63717,5,8,3:2:0:0:
291,9,63828,1,2,3:2:0:0:
287,21,63939,1,2,3:2:0:0:
242,96,64050,6,0,P|258:126|298:157,2,75.9999976806641,4|0|0,3:2|0:0|0:0,0:0:0:0:
123,119,64384,5,8,3:2:0:0:
74,186,64495,1,10,3:2:0:0:
104,263,64606,1,10,3:2:0:0:
181,296,64717,6,0,P|226:303|251:349,3,71.2500027179719,2|2|2|2,3:2|0:0|0:0|0:0,0:0:0:0:
282,384,65384,2,0,L|289:230,1,142.500005435944,2|0,3:2|0:0,0:0:0:0:
363,310,65884,1,2,0:0:0:0:
401,184,66050,6,0,P|463:230|493:118,1,213.750008153916,2|0,3:2|0:0,0:0:0:0:
410,166,66717,2,0,P|356:162|335:76,1,142.500005435944,2|0,0:0|0:0,0:0:0:0:
99,224,67384,6,0,B|222:192|176:283|315:255,1,213.750008153916,2|0,3:2|0:0,0:0:0:0:
338,380,68050,2,0,P|334:345|356:317,1,71.2500027179719,2|0,0:0|0:0,0:0:0:0:
480,345,68384,2,0,P|467:312|436:297,1,71.2500027179719,2|0,0:0|0:0,0:0:0:0:
328,177,68717,6,0,P|397:216|486:198,3,142.500005435944,2|2|2|2,3:2|0:0|0:0|0:0,0:0:0:0:
204,309,70050,6,0,B|204:236|138:204|138:204|207:221|268:175|259:94|259:94|213:127|153:128|134:84|141:54|163:33,1,498.750019025803,2|0,3:2|0:0,0:0:0:0:
62,100,71384,6,0,P|30:155|71:296,1,213.750008153916,2|0,3:2|0:0,0:0:0:0:
19,372,72050,1,2,0:0:0:0:
159,291,72217,2,2,P|182:288|199:295,5,35.625001358986
237,355,72717,5,2,3:2:0:0:
285,212,72884,2,0,B|346:231|368:324|368:324|343:219|438:212|408:123|408:123|411:159|379:190,1,427.500016307831,2|0,3:2|0:0,0:0:0:0:
305,108,74050,2,0,B|257:79|208:103|208:103|176:26|79:26|79:26|63:117|139:152|139:152|93:151|63:189,1,498.750019025803,2|0,0:0|0:0,0:0:0:0:
288,292,75384,6,0,P|294:248|275:191,1,104.500003189087,8|0,0:0|0:0,0:0:0:0:
384,110,75634,1,2,0:0:0:0:
390,117,75717,2,0,P|396:161|377:218,1,104.500003189087,2|0,3:2|0:0,0:0:0:0:
500,307,75967,1,2,0:0:0:0:
508,296,76050,2,0,P|514:252|495:195,1,104.500003189087,2|0,3:2|0:0,0:0:0:0:
405,353,76301,1,2,0:0:0:0:
386,354,76384,2,0,P|347:332|313:282,1,104.500003189087,2|0,3:2|0:0,0:0:0:0:
330,73,76634,5,2,0:0:0:0:
309,84,76717,2,0,P|287:122|284:182,1,104.500003189087,2|0,3:2|0:0,0:0:0:0:
72,191,76967,1,2,0:0:0:0:
98,177,77050,2,0,P|141:187|187:225,1,104.500003189087,2|0,3:2|0:0,0:0:0:0:
257,28,77300,1,2,0:0:0:0:
221,7,77383,2,0,P|177:17|131:55,1,104.500003189087,2|0,3:2|0:0,0:0:0:0:
199,236,77634,1,2,0:0:0:0:
148,293,77717,2,0,L|80:281,1,52.2500015945435,2|0,0:0|0:0,0:0:0:0:
264,203,77884,2,0,L|196:215,1,52.2500015945435,2|0,0:0|0:0,0:0:0:0:
380,293,78050,6,0,L|312:281,1,52.2500015945435,8|0,0:0|0:0,0:0:0:0:
434,153,78217,1,2,0:0:0:0:
439,178,78300,1,2,0:0:0:0:
444,203,78384,2,0,P|470:219|498:222,1,52.2500015945435,8|0,0:0|0:0,0:0:0:0:
312,86,78550,1,2,0:0:0:0:
305,114,78633,1,2,0:0:0:0:
300,143,78717,2,0,P|269:161|237:165,1,52.2500015945435,8|0,0:0|0:0,0:0:0:0:
127,105,78884,2,0,P|96:86|64:82,1,52.2500015945435,2|0,0:0|0:0,0:0:0:0:
70,258,79050,5,8,0:0:0:0:
76,274,79134,1,2,2:0:0:0:
95,291,79217,1,2,2:0:0:0:
126,298,79300,1,2,2:0:0:0:
137,292,79384,5,8,0:0:0:0:
164,287,79467,1,2,2:2:0:0:
195,298,79550,1,2,2:2:0:0:
218,337,79634,1,2,2:2:0:0:
231,343,79717,5,8,0:2:0:0:
269,331,79800,1,2,2:2:0:0:
303,296,79884,1,2,2:2:0:0:
323,240,79967,1,2,2:2:0:0:
304,172,80050,1,2,2:2:0:0:
11,23,80217,6,0,L|17:56,2,33.2499989852906,2|2|2,0:0|0:0|0:0,0:0:0:0:
34,66,80634,1,2,0:0:0:0:
6,188,80717,6,0,P|54:241|113:215,1,132.999995941162,4|0,0:0|0:0,0:0:0:0:
268,319,81050,1,10,3:2:0:0:
310,290,81134,1,2,3:2:0:0:
356,297,81217,1,2,3:2:0:0:
360,309,81300,1,2,3:2:0:0:
398,332,81384,2,0,B|431:228|340:235|365:143,1,199.499993911743,10|0,0:0|0:0,0:0:0:0:
376,128,81717,1,8,0:0:0:0:
226,197,81884,1,2,0:0:0:0:
102,65,82050,5,2,3:2:0:0:
100,71,82134,1,2,0:0:0:0:
69,108,82217,5,2,3:2:0:0:
71,114,82301,1,2,0:0:0:0:
67,184,82384,5,10,3:2:0:0:
71,190,82467,1,2,0:0:0:0:
74,196,82550,1,2,0:0:0:0:
77,202,82634,1,2,0:0:0:0:
61,272,82717,6,0,B|81:325|137:326|137:326|157:305|157:305|198:326|245:317,1,199.499993911743,8|0,0:0|0:0,0:0:0:0:
361,237,83050,2,0,P|328:232|284:247,1,66.4999979705811,8|0,0:0|0:0,0:0:0:0:
224,333,83217,1,2,0:0:0:0:
148,106,83384,6,0,P|139:51|259:62,1,199.499993911743,4|0,0:0|0:0,0:0:0:0:
312,104,83717,2,0,P|288:50|237:79,1,132.999995941162,8|2,0:0|0:0,0:0:0:0:
276,175,83967,1,2,0:0:0:0:
219,120,84050,1,8,0:0:0:0:
200,196,84217,1,2,0:0:0:0:
119,240,84384,1,8,0:0:0:0:
76,69,84550,1,2,0:0:0:0:
53,313,84717,5,10,0:0:0:0:
133,355,84884,1,2,0:0:0:0:
200,295,85050,1,8,0:0:0:0:
306,384,85217,2,0,P|284:314|306:184,1,199.499993911743,2|0,3:2|0:0,0:0:0:0:
385,273,85550,1,2,3:2:0:0:
396,268,85634,1,2,3:2:0:0:
401,257,85717,1,8,0:0:0:0:
286,202,85884,1,2,0:0:0:0:
512,65,86050,6,0,P|464:12|405:38,1,132.999995941162,4|0,0:0|0:0,0:0:0:0:
490,236,86383,1,10,3:2:0:0:
469,191,86467,1,2,3:2:0:0:
420,176,86550,1,2,3:2:0:0:
415,188,86633,1,2,3:2:0:0:
379,222,86717,2,0,B|285:210|305:299|197:281,1,199.499993911743,8|0,0:0|0:0,0:0:0:0:
148,221,87050,1,8,0:0:0:0:
101,351,87217,1,2,0:0:0:0:
34,150,87383,5,2,3:2:0:0:
32,144,87467,1,2,0:0:0:0:
0,110,87550,5,2,3:2:0:0:
2,104,87634,1,2,0:0:0:0:
41,44,87717,5,10,3:2:0:0:
53,38,87800,1,2,0:0:0:0:
65,34,87884,1,0,0:0:0:0:
77,30,87967,1,0,0:0:0:0:
133,74,88050,6,0,B|177:116|222:87|222:87|263:128|323:97,1,199.499993911743,8|0,0:0|0:0,0:0:0:0:
466,173,88383,2,0,P|439:152|408:142,1,66.4999979705811,8|0,0:0|0:0,0:0:0:0:
327,209,88550,1,2,0:0:0:0:
167,356,88717,6,0,P|93:323|104:189,1,199.499993911743,4|0,0:0|0:0,0:0:0:0:
169,244,89050,2,0,P|145:190|94:219,1,132.999995941162,8|2,0:0|0:0,0:0:0:0:
50,140,89300,1,2,0:0:0:0:
108,83,89383,1,8,0:0:0:0:
56,19,89550,1,2,0:0:0:0:
181,138,89717,1,8,0:0:0:0:
337,58,89883,1,2,0:0:0:0:
495,295,90050,6,0,B|454:243|454:243|381:248|348:313,1,199.499993911743,4|0,0:0|0:0,0:0:0:0:
245,355,90384,1,10,3:2:0:0:
195,311,90467,1,2,3:2:0:0:
192,244,90550,1,2,3:2:0:0:
233,191,90634,1,2,3:2:0:0:
240,176,90717,2,0,P|229:141|228:100,1,66.4999979705811,8|0,0:0|0:0,0:0:0:0:
105,234,90884,1,2,0:0:0:0:
377,182,91050,2,0,P|346:155|297:141,1,66.4999979705811,10|0,0:0|0:0,0:0:0:0:
105,234,91217,2,0,P|126:198|168:170,1,66.4999979705811,8|0,0:0|0:0,0:0:0:0:
367,340,91384,6,0,P|319:287|260:313,1,132.999995941162,4|0,0:0|0:0,0:0:0:0:
14,149,91717,1,10,3:2:0:0:
58,121,91801,1,2,3:2:0:0:
108,131,91884,1,2,3:2:0:0:
112,143,91967,1,2,3:2:0:0:
145,182,92051,2,0,B|247:143|244:234|335:205,1,199.499993911743,8|0,0:0|0:0,0:0:0:0:
372,140,92384,1,8,0:0:0:0:
187,250,92551,1,2,0:0:0:0:
103,28,92717,5,2,3:2:0:0:
101,34,92801,1,2,0:0:0:0:
67,69,92884,5,2,3:2:0:0:
69,75,92968,1,2,0:0:0:0:
128,122,93051,5,10,3:2:0:0:
130,129,93134,1,2,0:0:0:0:
133,135,93217,1,2,0:0:0:0:
136,143,93301,1,2,0:0:0:0:
115,213,93384,6,0,B|151:233|198:226|198:226|218:205|218:205|259:226|306:217,1,199.499993911743,8|0,0:0|0:0,0:0:0:0:
411,201,93717,2,0,P|403:163|358:154,1,66.4999979705811,8|0,0:0|0:0,0:0:0:0:
368,301,93884,1,2,0:0:0:0:
486,107,94051,6,0,P|456:42|312:79,1,199.499993911743,4|0,0:0|0:0,0:0:0:0:
318,115,94384,2,0,P|294:61|243:90,1,132.999995941162,8|2,0:0|0:0,0:0:0:0:
177,143,94634,1,2,0:0:0:0:
123,79,94717,1,8,0:0:0:0:
55,128,94884,1,2,0:0:0:0:
103,231,95050,1,8,0:0:0:0:
133,4,95217,1,2,0:0:0:0:
109,196,95384,5,10,0:0:0:0:
191,233,95551,1,2,0:0:0:0:
211,319,95717,1,8,0:0:0:0:
303,185,95884,2,0,P|264:141|204:235,1,199.499993911743,2|0,3:2|0:0,0:0:0:0:
222,326,96217,1,2,3:2:0:0:
288,328,96300,1,2,3:2:0:0:
354,335,96384,1,8,0:0:0:0:
418,288,96550,1,2,0:0:0:0:
249,105,96717,6,0,P|297:52|359:56,1,132.999995941162,4|0,0:0|0:0,0:0:0:0:
489,196,97050,1,10,3:2:0:0:
456,156,97134,1,2,3:2:0:0:
404,159,97217,1,2,3:2:0:0:
402,170,97300,1,2,3:2:0:0:
363,207,97384,2,0,P|308:268|289:167,1,199.499993911743,8|0,0:0|0:0,0:0:0:0:
342,97,97717,1,8,0:0:0:0:
135,84,97884,1,2,0:0:0:0:
81,306,98050,5,2,3:2:0:0:
79,300,98134,1,2,0:0:0:0:
51,264,98217,5,2,3:2:0:0:
53,258,98301,1,2,0:0:0:0:
106,208,98384,5,10,3:2:0:0:
132,209,98467,1,2,0:0:0:0:
156,218,98550,1,2,0:0:0:0:
176,235,98634,1,2,0:0:0:0:
203,306,98717,6,0,B|247:348|292:319|292:319|330:346|330:346|393:329,1,199.499993911743,8|0,0:0|0:0,0:0:0:0:
473,193,99050,2,0,P|440:196|414:225,1,66.4999979705811,8|0,0:0|0:0,0:0:0:0:
396,341,99217,1,2,0:0:0:0:
294,84,99384,5,4,0:0:0:0:
223,41,99550,1,2,0:0:0:0:
29,174,99717,1,8,0:0:0:0:
100,217,99883,1,2,0:0:0:0:
272,374,100050,5,8,3:2:0:0:
251,332,100134,1,2,3:2:0:0:
257,286,100217,1,2,3:2:0:0:
280,246,100300,1,2,3:2:0:0:
322,222,100384,5,10,3:2:0:0:
364,162,100467,1,2,3:2:0:0:
350,90,100550,1,2,3:2:0:0:
277,77,100634,1,2,3:2:0:0:
221,124,100717,2,0,B|98:127|156:30|28:59,1,199.499993911743,4|0,0:0|0:0,0:0:0:0:
0,187,101050,5,10,3:2:0:0:
58,231,101134,1,2,3:2:0:0:
74,286,101217,1,2,3:2:0:0:
64,328,101300,1,2,3:2:0:0:
41,353,101384,2,0,P|80:336|115:343,1,66.4999979705811,8|0,0:0|0:0,0:0:0:0:
271,235,101550,2,0,P|232:218|197:225,1,66.4999979705811,2|0,0:0|0:0,0:0:0:0:
45,364,101717,2,0,P|84:347|119:354,1,66.4999979705811,8|0,0:0|0:0,0:0:0:0:
284,235,101884,2,0,P|301:196|294:161,1,66.4999979705811,8|0,0:0|0:0,0:0:0:0:
456,372,102050,5,4,0:0:0:0:
505,308,102217,1,2,0:0:0:0:
496,297,102300,1,2,0:0:0:0:
483,291,102384,1,8,0:0:0:0:
424,199,102550,1,2,3:2:0:0:
400,200,102634,1,2,3:2:0:0:
379,211,102717,1,8,0:0:0:0:
468,289,102884,1,2,0:0:0:0:
272,207,103050,1,8,0:0:0:0:
263,222,103106,1,0,3:3:0:0:
258,239,103162,1,0,3:3:0:0:
257,256,103217,1,2,3:3:0:0:
112,42,103384,5,4,0:0:0:0:
81,173,103550,1,2,0:0:0:0:
70,156,103634,1,2,0:0:0:0:
68,136,103717,1,8,0:0:0:0:
224,153,103884,1,2,3:2:0:0:
191,158,103967,1,2,3:2:0:0:
163,140,104050,1,8,0:0:0:0:
112,42,104217,1,2,0:0:0:0:
298,42,104384,1,8,0:0:0:0:
289,57,104439,1,0,3:0:0:0:
275,69,104495,1,0,3:0:0:0:
258,74,104550,1,2,3:0:0:0:
459,180,104717,5,4,0:0:0:0:
328,241,104884,1,2,0:0:0:0:
331,227,104967,1,2,0:0:0:0:
338,213,105050,1,8,0:0:0:0:
424,346,105217,1,2,3:2:0:0:
414,321,105300,1,2,3:2:0:0:
415,294,105384,1,8,0:0:0:0:
459,180,105550,1,2,0:0:0:0:
335,316,105717,1,8,0:0:0:0:
319,325,105773,1,0,3:0:0:0:
302,329,105828,1,0,3:0:0:0:
284,327,105884,1,2,3:0:0:0:
394,106,106050,5,4,0:0:0:0:
236,22,106217,1,2,3:2:0:0:
253,25,106300,1,2,3:2:0:0:
270,28,106384,1,8,0:0:0:0:
184,167,106550,1,2,3:2:0:0:
223,161,106634,1,2,3:2:0:0:
262,156,106717,1,8,0:0:0:0:
222,20,106884,1,2,0:0:0:0:
369,142,107050,2,0,L|378:61,1,66.4999979705811,10|0,0:0|0:0,0:0:0:0:
464,256,107217,2,0,L|455:175,1,66.4999979705811,8|0,0:0|0:0,0:0:0:0:
380,341,107384,5,4,0:0:0:0:
249,271,107550,1,2,0:0:0:0:
265,264,107634,1,2,0:0:0:0:
282,262,107717,1,8,0:0:0:0:
174,374,107884,1,2,3:2:0:0:
162,350,107967,1,2,3:2:0:0:
163,323,108050,1,8,0:0:0:0:
298,265,108217,1,2,0:0:0:0:
159,189,108384,1,8,0:0:0:0:
137,194,108439,1,0,3:0:0:0:
115,199,108495,1,0,3:0:0:0:
93,204,108550,1,2,3:0:0:0:
272,95,108717,5,4,0:0:0:0:
345,180,108884,1,2,0:0:0:0:
363,185,108967,1,2,0:0:0:0:
382,183,109050,1,8,0:0:0:0:
230,222,109217,1,2,3:2:0:0:
255,252,109300,1,2,3:2:0:0:
292,267,109384,1,8,0:0:0:0:
272,95,109550,1,2,0:0:0:0:
382,183,109717,1,8,0:0:0:0:
394,164,109773,1,0,3:0:0:0:
401,143,109828,1,0,3:0:0:0:
403,120,109884,1,2,3:0:0:0:
464,334,110050,5,4,0:0:0:0:
315,368,110217,1,2,0:0:0:0:
318,355,110300,1,2,0:0:0:0:
324,343,110384,2,0,P|355:324|395:319,1,66.4999979705811,8|0,0:0|0:0,0:0:0:0:
226,225,110550,1,2,3:2:0:0:
223,212,110633,1,2,3:2:0:0:
217,200,110717,2,0,P|186:181|146:176,1,66.4999979705811,10|0,0:0|0:0,0:0:0:0:
298,58,110884,1,2,0:0:0:0:
379,109,111050,1,8,0:0:0:0:
379,131,111106,1,0,3:0:0:0:
379,153,111162,1,0,3:0:0:0:
379,174,111217,1,2,3:0:0:0:
476,357,111384,5,8,3:2:0:0:
434,324,111467,1,2,3:2:0:0:
381,315,111550,1,2,3:2:0:0:
329,331,111634,1,2,3:2:0:0:
304,309,111717,5,10,0:0:0:0:
294,284,111800,1,2,0:0:0:0:
313,265,111884,1,2,0:0:0:0:
312,238,111967,1,2,0:0:0:0:
289,223,112050,5,10,3:2:0:0:
224,240,112134,1,2,3:2:0:0:
173,282,112217,1,2,3:2:0:0:
112,255,112300,1,2,3:2:0:0:
97,189,112384,1,4,3:2:0:0:
367,107,112550,1,8,0:0:0:0:
