osu file format v14

[General]
AudioFilename: audio.mp3
AudioLeadIn: 0
PreviewTime: 80092
Countdown: 0
SampleSet: Soft
StackLeniency: 0.7
Mode: 0
LetterboxInBreaks: 0
WidescreenStoryboard: 1

[Editor]
DistanceSpacing: 1.1
BeatDivisor: 8
GridSize: 4
TimelineZoom: 3.999998

[Metadata]
Title:Chronoxia
TitleUnicode:Chronoxia
Artist:DJ Totoriott
ArtistUnicode:DJ Totoriott
Creator:Icekalt
Version:Normal
Source:REFLEC BEAT groovin'!!
Tags:corsace open 2020 qf fm1 pop'n music ラピストリア plus volzza 2 upper 悠久のリフレシア totto うさぎと猫と少年の夢 éclale eclale konami bemani video game instrumental electronic pop'n music ラピストリア MUSIC PACK 68 naotoshi nao tomori
BeatmapID:2906325
BeatmapSetID:1262520

[Difficulty]
HPDrainRate:4
CircleSize:3
OverallDifficulty:4
ApproachRate:6
SliderMultiplier:2.1
SliderTickRate:1

[Events]
//Background and Video events
0,0,"town 3.jpg",0,0
//Break Periods
2,64917,74334
//Storyboard Layer 0 (Background)
//Storyboard Layer 1 (Fail)
//Storyboard Layer 2 (Pass)
//Storyboard Layer 3 (Foreground)
//Storyboard Layer 4 (Overlay)
//Storyboard Sound Samples

[TimingPoints]
718,666.666666666667,4,2,1,65,1,0
1348,-100,4,2,1,65,0,0
16718,-100,4,2,1,65,0,0
17347,-100,4,2,1,65,0,0
22051,333.333333333333,4,2,1,60,1,0
22051,-200,4,2,1,60,0,0
27050,-200,4,2,1,70,0,0
28014,-200,4,2,1,70,0,0
32681,-200,4,2,1,70,0,0
37014,-200,4,2,1,70,0,0
38681,-200,4,2,1,70,0,0
52717,-200,4,2,1,80,0,0
54050,-200,4,2,1,75,0,0
62681,-200,4,2,1,75,0,0
64717,-200,4,2,1,50,0,0
72681,-200,4,2,1,50,0,0
73347,-200,4,2,1,50,0,0
75384,-200,4,2,1,75,0,0
78050,-200,4,2,1,80,0,0
80217,-200,4,2,1,50,0,0
80717,-200,4,2,1,80,0,0
83347,-200,4,2,1,80,0,0
84014,-200,4,2,1,80,0,0
84681,-200,4,2,1,80,0,0
85347,-200,4,2,1,80,0,0
95347,-200,4,2,1,80,0,0
95459,-200,4,2,1,80,0,0
102050,-200,4,2,1,70,0,0
109125,-200,4,2,1,70,0,0
110050,-200,4,2,1,80,0,0

[Colours]
Combo1 : 226,167,29
Combo2 : 119,190,12
Combo3 : 44,177,228
Combo4 : 218,118,143

[HitObjects]
122,155,718,5,4,0:0:0:0:
182,68,1051,2,0,B|239:78|235:32|313:48,1,105,2|8,0:0|0:0,0:0:0:0:
262,147,1718,2,0,B|305:197|328:156|375:215,1,105,2|8,0:0|0:0,0:0:0:0:
273,261,2384,2,0,B|273:327|318:310|315:386,2,105,2|8|8,0:0|0:0|0:0,0:0:0:0:
370,221,3384,1,4,0:0:0:0:
380,116,3718,6,0,B|339:62|313:103|270:41,1,105,2|8,0:0|0:0,0:0:0:0:
279,169,4384,2,0,B|213:154|220:201|147:182,1,105,2|8,0:0|0:0,0:0:0:0:
237,273,5051,2,0,B|177:303|213:336|144:367,2,105,2|8|8,0:0|0:0|0:0,0:0:0:0:
152,210,6051,1,4,0:0:0:0:
171,106,6384,6,0,B|171:62|229:82|245:20,1,105,2|8,0:0|0:0,0:0:0:0:
289,126,7051,2,0,B|317:92|348:144|400:107,1,105,2|8,0:0|0:0,0:0:0:0:
366,217,7718,2,0,B|409:209|399:269|463:274,2,105,2|8|8,0:0|0:0|0:0,0:0:0:0:
333,316,8718,1,4,0:0:0:0:
232,284,9051,6,0,B|181:298|179:246|128:265,1,105,2|8,0:0|0:0,0:0:0:0:
71,178,9718,2,0,B|122:192|124:140|175:159,1,105,2|8,0:0|0:0,0:0:0:0:
232,72,10384,2,0,B|181:86|179:34|128:53,2,105,2|8|8,0:0|0:0|0:0,0:0:0:0:
318,11,11384,5,4,0:0:0:0:
463,162,12051,1,10,0:0:0:0:
356,342,12718,1,10,0:0:0:0:
211,189,13384,1,10,0:0:0:0:
117,238,13718,1,2,3:2:0:0:
164,331,14051,5,4,0:0:0:0:
354,241,14718,1,10,0:0:0:0:
162,154,15384,1,10,0:0:0:0:
352,64,16051,1,10,0:0:0:0:
454,86,16384,1,2,3:2:0:0:
417,184,16718,6,0,P|414:235|426:296,2,105,4|8|10,0:0|0:0|0:0,0:0:0:0:
316,215,17718,1,2,0:0:0:0:
239,142,18051,1,10,0:0:0:0:
138,172,18384,2,0,P|82:156|85:103,2,105,2|10|2,0:0|0:0|0:0,0:0:0:0:
256,192,19384,12,4,20718,0:0:0:0:
54,183,22051,6,0,L|178:200,1,105,2|2,0:0|3:2,0:0:0:0:
248,250,22717,1,8,0:0:0:0:
328,182,23051,2,0,L|311:128,1,52.5,0|2,3:0|3:0,0:0:0:0:
336,85,23384,1,8,0:0:0:0:
437,59,23717,1,2,3:2:0:0:
511,132,24050,1,8,0:0:0:0:
487,234,24384,1,10,0:0:0:0:
448,335,24717,6,0,L|335:353,1,105,4|2,0:0|3:2,0:0:0:0:
240,368,25384,1,8,0:0:0:0:
152,310,25717,2,0,L|170:255,1,52.5,0|2,3:0|3:0,0:0:0:0:
139,216,26050,2,0,L|33:201,2,105,8|2|8,0:0|3:2|0:0,0:0:0:0:
236,169,27050,1,10,0:0:0:0:
152,104,27384,6,0,P|148:58|211:34,1,105,4|2,0:0|3:2,0:0:0:0:
286,78,28050,2,0,L|401:59,1,105,8|0,0:0|3:0,0:0:0:0:
475,122,28717,2,0,P|486:178|472:237,1,105,4|2,0:0|3:2,0:0:0:0:
403,299,29384,1,0,0:0:0:0:
307,255,29717,1,0,3:0:0:0:
215,306,30050,6,0,B|159:316|161:280|102:296,1,105,6|8,3:2|0:0,0:0:0:0:
69,197,30717,2,0,B|125:207|123:171|182:187,1,105,8|8,0:0|0:0,0:0:0:0:
259,126,31384,1,4,0:0:0:0:
277,22,31717,1,8,0:0:0:0:
372,64,32050,1,2,3:2:0:0:
390,166,32383,1,8,0:0:0:0:
319,244,32717,6,0,P|265:264|223:291,1,105,6|8,3:2|0:0,0:0:0:0:
177,285,33217,1,2,0:0:0:0:
177,285,33384,1,8,0:0:0:0:
106,207,33717,1,8,0:0:0:0:
166,121,34050,2,0,B|170:94|170:94|147:42|147:42|155:4,2,105,4|8|8,0:0|0:0|0:0,0:0:0:0:
266,88,35050,1,10,0:0:0:0:
335,167,35384,6,0,P|389:147|431:120,1,105,2|8,3:2|0:0,0:0:0:0:
483,139,35884,1,2,0:0:0:0:
483,139,36051,1,8,0:0:0:0:
471,244,36384,1,8,0:0:0:0:
406,326,36717,2,0,B|433:322|433:322|485:345|485:345|523:337,2,105,4|8|8,0:0|0:0|0:0,0:0:0:0:
202,377,38050,6,0,P|189:322|151:276,1,105,8|8,0:0|0:0,0:0:0:0:
112,280,38550,1,2,0:0:0:0:
112,280,38717,1,8,0:0:0:0:
166,190,39050,1,8,0:0:0:0:
117,98,39383,2,0,B|90:94|90:94|38:117|38:117|0:109,2,105,4|8|8,0:0|0:0|0:0,0:0:0:0:
200,33,40383,1,10,0:0:0:0:
275,105,40717,6,0,B|325:140|379:129|379:129|331:150|305:194|305:194|368:188|411:237,1,315,4|8,0:0|0:0,0:0:0:0:
352,319,42050,2,0,L|294:331,1,52.5,4|2,0:0|3:2,0:0:0:0:
267,371,42384,1,8,0:0:0:0:
267,371,42550,2,0,P|202:345|104:326,1,157.5,2|0,0:0|3:0,0:0:0:0:
133,218,43384,6,0,P|170:174|209:143,1,105,2|8,3:2|0:0,0:0:0:0:
259,169,43884,1,2,0:0:0:0:
259,169,44051,1,8,0:0:0:0:
305,75,44384,1,8,0:0:0:0:
394,133,44717,2,0,B|434:121|434:121|453:127|453:127|505:111,2,105,4|8|8,0:0|0:0|0:0,0:0:0:0:
357,231,45717,1,10,0:0:0:0:
262,277,46050,6,0,P|208:257|166:230,1,105,2|8,3:2|0:0,0:0:0:0:
170,183,46550,1,2,0:0:0:0:
170,183,46717,1,10,0:0:0:0:
253,119,47050,1,10,0:0:0:0:
184,40,47384,2,0,B|143:28|143:28|124:34|124:34|72:18,2,105,4|8|8,0:0|0:0|0:0,0:0:0:0:
399,74,48717,6,0,P|475:83|474:163,1,157.5,4|2,0:0|0:0,0:0:0:0:
448,192,49384,2,0,B|398:192|398:192|379:216|379:216|352:203|352:203|300:224,1,157.5,10|2,0:0|0:0,0:0:0:0:
289,269,50050,2,0,P|312:303|328:371,1,105,4|8,0:0|0:0,0:0:0:0:
222,369,50717,2,0,P|199:335|183:267,1,105,8|8,0:0|0:0,0:0:0:0:
227,178,51384,5,4,0:0:0:0:
223,73,51717,1,8,0:0:0:0:
120,51,52050,1,8,0:0:0:0:
69,143,52383,1,2,0:0:0:0:
20,238,52717,5,4,0:0:0:0:
20,238,52884,1,2,0:0:0:0:
113,371,53384,1,4,0:0:0:0:
113,371,53550,1,2,0:0:0:0:
202,241,54050,6,0,B|310:200|416:226|416:226|406:179|365:143|365:143|418:130|463:103|463:103|436:52|371:42,1,525,4|8,0:0|0:0,0:0:0:0:
282,72,56050,2,0,P|253:55|249:25,2,52.5,8|0|4,3:2|0:0|0:0,0:0:0:0:
285,177,56717,6,0,B|206:181|146:137|130:64|130:64|121:123|72:147|72:147|114:188|97:253|97:253|4:230,1,525,8|8,0:0|0:0,0:0:0:0:
34,331,58717,2,0,P|13:350|12:383,2,52.5,10|0|4,3:2|0:0|0:0,0:0:0:0:
133,364,59384,6,0,B|257:383|216:306|333:328|333:328|291:285|299:230|299:230|356:216|401:240|401:240|379:191|398:140,1,525,8|8,0:0|0:0,0:0:0:0:
471,66,61384,2,0,P|475:33|455:7,2,52.5,10|0|4,3:2|0:0|0:0,0:0:0:0:
372,102,62050,6,0,B|318:96|274:64|274:64|294:121|316:160|316:160|267:172|219:142|219:142|239:193|268:240|268:240|221:255|165:220,1,525,2|8,3:2|3:2,0:0:0:0:
109,308,64050,2,0,P|102:353|118:369,2,52.5,8|0|8,3:2|0:0|3:2,0:0:0:0:
209,339,64717,1,2,3:2:0:0:
54,337,75384,6,0,P|47:296|28:221,1,105,8|2,0:0|3:2,0:0:0:0:
77,140,76050,2,0,P|113:177|147:217,1,105,2|2,3:2|3:2,0:0:0:0:
200,308,76717,2,0,P|193:267|174:192,1,105,2|2,3:2|3:2,0:0:0:0:
223,111,77383,2,0,P|259:148|293:188,1,105,2|2,3:2|0:0,0:0:0:0:
296,245,77884,1,2,0:0:0:0:
296,245,78050,1,8,0:0:0:0:
256,192,78134,12,2,80050,2:2:0:0:
35,48,80717,6,0,P|95:52|146:36,1,105,4|10,0:0|3:2,0:0:0:0:
180,82,81217,1,2,3:2:0:0:
180,82,81384,2,0,L|358:99,1,157.5,10|2,0:0|0:0,0:0:0:0:
383,73,82050,2,0,B|405:119|465:133|465:133|451:180|385:193|385:193|410:245|474:254,1,315,2|8,3:2|0:0,0:0:0:0:
388,325,83384,6,0,P|341:341|279:334,1,105,4|8,0:0|0:0,0:0:0:0:
194,286,84050,2,0,P|170:293|142:317,2,52.5,8|2|8,0:0|0:0|0:0,0:0:0:0:
248,196,84717,2,0,P|272:203|300:227,2,52.5,10|2|8,0:0|0:0|0:0,0:0:0:0:
196,187,85217,2,0,L|203:57,1,105,2|2,3:2|3:2,0:0:0:0:
204,29,85717,1,8,0:0:0:0:
100,15,86050,6,0,P|43:28|22:73,1,105,4|10,0:0|3:2,0:0:0:0:
34,122,86550,1,2,3:2:0:0:
34,122,86717,2,0,P|104:170|81:248,1,157.5,8|2,0:0|0:0,0:0:0:0:
129,272,87383,2,0,B|179:274|216:324|216:324|254:292|240:226|240:226|297:229|331:285,1,315,2|8,3:2|0:0,0:0:0:0:
403,205,88717,6,0,L|429:100,2,105,4|8|8,0:0|0:0|0:0,0:0:0:0:
439,243,89550,2,0,L|504:234,2,52.5,2|8|2,0:0|0:0|0:0,0:0:0:0:
411,287,90050,1,4,0:0:0:0:
327,243,90384,1,10,3:2:0:0:
327,243,90550,1,2,3:2:0:0:
327,243,90717,2,0,P|285:265|263:318,1,105,8|10,0:0|0:0,0:0:0:0:
165,355,91384,6,0,P|116:326|75:287,1,105,4|10,0:0|3:2,0:0:0:0:
76,245,91884,1,2,3:2:0:0:
76,245,92051,2,0,L|101:79,1,157.5,8|2,0:0|0:0,0:0:0:0:
146,65,92717,2,0,B|200:80|242:38|242:38|256:85|322:98|322:98|297:150|242:158,1,315,2|8,3:2|0:0,0:0:0:0:
213,259,94051,6,0,P|260:275|322:268,1,105,4|8,0:0|0:0,0:0:0:0:
415,240,94717,2,0,P|439:247|467:271,2,52.5,8|2|8,0:0|0:0|0:0,0:0:0:0:
337,168,95384,2,0,P|313:161|285:137,2,52.5,10|2|8,0:0|0:0|0:0,0:0:0:0:
380,138,95884,2,0,P|386:87|365:16,1,105,2|2,3:2|3:2,0:0:0:0:
330,6,96384,1,8,0:0:0:0:
240,60,96717,6,0,P|175:60|158:23,1,105,4|10,0:0|3:2,0:0:0:0:
110,25,97217,1,2,3:2:0:0:
110,25,97384,2,0,P|39:61|51:136,1,157.5,8|2,0:0|0:0,0:0:0:0:
94,148,98050,2,0,B|132:181|130:242|130:242|179:241|209:180|209:180|267:207|263:276,1,315,2|8,3:2|0:0,0:0:0:0:
326,347,99384,6,0,L|433:370,2,105,4|8|8,0:0|0:0|3:2,0:0:0:0:
292,306,100217,2,0,L|227:315,2,52.5,2|10|2,3:2|3:2|3:2,0:0:0:0:
316,259,100717,1,4,0:0:0:0:
403,198,101051,1,10,3:2:0:0:
403,198,101217,1,2,3:2:0:0:
403,198,101384,2,0,P|413:151|386:100,1,105,8|8,0:0|0:0,0:0:0:0:
285,122,102050,6,0,L|182:143,1,105,4|8,0:0|0:0,0:0:0:0:
126,231,102716,1,8,0:0:0:0:
33,180,103050,2,0,L|38:128,1,52.5,8|2,0:0|3:3,0:0:0:0:
12,81,103383,1,4,0:0:0:0:
96,18,103716,1,8,0:0:0:0:
199,34,104049,1,8,0:0:0:0:
233,133,104383,1,8,0:0:0:0:
271,230,104716,6,0,L|384:248,1,105,4|8,0:0|0:0,0:0:0:0:
457,180,105383,1,8,0:0:0:0:
372,117,105717,2,0,L|360:61,1,52.5,8|2,0:0|3:0,0:0:0:0:
323,28,106050,2,0,L|217:13,2,105,4|8|8,0:0|0:0|0:0,0:0:0:0:
281,124,107049,1,10,0:0:0:0:
322,220,107383,6,0,P|326:266|263:290,1,105,4|8,0:0|0:0,0:0:0:0:
184,249,108050,2,0,L|70:280,1,105,8|8,0:0|0:0,0:0:0:0:
8,204,108717,2,0,P|11:146|48:93,1,105,4|8,0:0|0:0,0:0:0:0:
138,119,109383,1,8,0:0:0:0:
190,28,109716,1,8,0:0:0:0:
295,25,110050,6,0,B|319:65|299:128|299:128|354:129|385:78|385:78|412:129|390:181|390:181,1,315,4|8,0:0|0:0,0:0:0:0:
422,279,111384,2,0,B|338:310|336:250|270:284,1,157.5,8|2,3:2|0:0,0:0:0:0:
218,275,112050,2,0,P|203:257|196:217,1,52.5,10|2,3:2|3:2,0:0:0:0:
238,197,112384,1,4,3:2:0:0:
238,197,112550,1,8,0:0:0:0:
