osu file format v14

[General]
AudioFilename: audio.mp3
AudioLeadIn: 0
PreviewTime: 80092
Countdown: 0
SampleSet: Soft
StackLeniency: 0.7
Mode: 0
LetterboxInBreaks: 0
WidescreenStoryboard: 1

[Editor]
Bookmarks: 22051,54050,64717,75384,80717,102050
DistanceSpacing: 0.9
BeatDivisor: 3
GridSize: 16
TimelineZoom: 1.5

[Metadata]
Title:Chronoxia
TitleUnicode:Chronoxia
Artist:DJ Totoriott
ArtistUnicode:DJ Totoriott
Creator:Icekalt
Version:Insane
Source:REFLEC BEAT groovin'!!
Tags:corsace open 2020 qf fm1 pop'n music ラピストリア plus volzza 2 upper 悠久のリフレシア totto うさぎと猫と少年の夢 éclale eclale konami bemani video game instrumental electronic pop'n music ラピストリア MUSIC PACK 68 naotoshi nao tomori
BeatmapID:2924172
BeatmapSetID:1262520

[Difficulty]
HPDrainRate:5
CircleSize:4.2
OverallDifficulty:7.8
ApproachRate:9
SliderMultiplier:1.7
SliderTickRate:2

[Events]
//Background and Video events
0,0,"town 3.jpg",0,0
//Break Periods
2,64917,74784
//Storyboard Layer 0 (Background)
//Storyboard Layer 1 (Fail)
//Storyboard Layer 2 (Pass)
//Storyboard Layer 3 (Foreground)
//Storyboard Layer 4 (Overlay)
//Storyboard Sound Samples

[TimingPoints]
718,666.666666666667,4,2,1,65,1,0
718,-66.6666666666667,4,2,1,65,0,0
1348,-66.6666666666667,4,2,1,65,0,0
16718,-66.6666666666667,4,2,1,65,0,0
17347,-66.6666666666667,4,2,1,65,0,0
22051,333.333333333333,4,2,1,60,1,0
22051,-90.9090909090909,4,2,1,60,0,0
27050,-222.222222222221,4,2,1,70,0,0
27384,-90.9090909090909,4,2,1,70,0,0
28014,-90.9090909090909,4,2,1,70,0,0
32681,-90.9090909090909,4,2,1,70,0,0
37014,-90.9090909090909,4,2,1,70,0,0
38050,-90.9090909090909,4,2,1,70,0,0
38681,-90.9090909090909,4,2,1,70,0,0
52717,-90.9090909090909,4,2,1,80,0,0
53717,-222.222222222221,4,2,1,80,0,0
54050,-100,4,2,1,75,0,0
62681,-100,4,2,1,75,0,0
64717,-100,4,2,1,50,0,0
72681,-100,4,2,1,50,0,0
73347,-100,4,2,1,50,0,0
75384,-100,4,2,1,75,0,0
78050,-100,4,2,1,80,0,0
80217,-181.818181818181,4,2,1,50,0,0
80717,-83.3333333333333,4,2,1,80,0,0
83347,-83.3333333333333,4,2,1,80,0,0
84014,-83.3333333333333,4,2,1,80,0,0
84681,-83.3333333333333,4,2,1,80,0,0
85347,-83.3333333333333,4,2,1,80,0,0
95347,-83.3333333333333,4,2,1,80,0,0
95459,-83.3333333333333,4,2,1,80,0,0
102050,-83.3333333333333,4,2,1,70,0,0
109125,-83.3333333333333,4,2,1,70,0,0
110050,-83.3333333333333,4,2,1,80,0,0

[Colours]
Combo1 : 226,167,29
Combo2 : 119,190,12
Combo3 : 44,177,228
Combo4 : 221,128,151

[HitObjects]
69,91,718,5,4,0:0:0:0:
181,135,1051,2,0,L|118:152,3,42.5000016212464,2|2|2|8,0:0|0:0|0:0|0:0,0:0:0:0:
106,230,1718,2,0,L|169:247,3,42.5000016212464,2|2|2|8,0:0|0:0|0:0|0:0,0:0:0:0:
181,325,2384,2,0,L|118:342,2,42.5000016212464,2|2|2,0:0|0:0|0:0,0:0:0:0:
250,366,2718,5,8,0:0:0:0:
287,358,2829,1,2,3:2:0:0:
310,328,2940,1,2,3:2:0:0:
313,280,3051,5,8,0:0:0:0:
341,243,3162,1,2,3:2:0:0:
386,233,3273,1,2,3:2:0:0:
442,277,3384,5,4,0:0:0:0:
371,106,3718,6,0,L|366:55,3,42.5000016212464,2|2|2|8,0:0|0:0|0:0|0:0,0:0:0:0:
234,129,4384,2,0,L|255:82,3,42.5000016212464,2|2|2|8,0:0|0:0|0:0|0:0,0:0:0:0:
103,80,5051,2,0,L|144:50,2,42.5000016212464,2|2|2,0:0|0:0|0:0,0:0:0:0:
42,136,5384,5,8,0:0:0:0:
45,174,5495,1,2,3:2:0:0:
50,211,5606,1,2,3:2:0:0:
84,250,5718,5,8,0:0:0:0:
76,296,5829,1,2,3:2:0:0:
68,342,5940,1,2,3:2:0:0:
7,375,6051,5,4,0:0:0:0:
195,272,6384,2,0,P|225:281|241:293,3,42.5000016212464,2|2|2|8,0:0|0:0|0:0|0:0,0:0:0:0:
325,194,7051,2,0,P|342:220|346:239,3,42.5000016212464,2|2|2|8,0:0|0:0|0:0|0:0,0:0:0:0:
474,217,7718,2,0,P|470:248|461:265,2,42.5000016212464,2|2|2,0:0|0:0|0:0,0:0:0:0:
509,137,8051,5,8,0:0:0:0:
495,96,8162,1,2,3:2:0:0:
458,74,8273,1,2,3:2:0:0:
433,25,8384,5,8,0:0:0:0:
386,19,8495,1,2,3:2:0:0:
342,35,8606,1,2,3:2:0:0:
293,11,8718,5,4,0:0:0:0:
182,108,9051,6,0,P|154:107|127:97,3,42.5000016212464,2|2|2|8,0:0|0:0|0:0|0:0,0:0:0:0:
318,224,9718,2,0,P|346:223|373:213,3,42.5000016212464,2|2|2|8,0:0|0:0|0:0|0:0,0:0:0:0:
182,340,10384,2,0,P|154:339|127:329,2,42.5000016212464,2|2|2,0:0|0:0|0:0,0:0:0:0:
241,290,10718,5,8,0:0:0:0:
258,251,10829,1,2,3:2:0:0:
249,209,10940,1,2,3:2:0:0:
207,171,11051,5,8,0:0:0:0:
190,132,11162,1,2,3:2:0:0:
199,90,11273,1,2,3:2:0:0:
240,31,11384,5,4,0:0:0:0:
372,119,11718,6,0,L|441:129,3,42.5000016212464,2|2|2|10,0:0|0:0|0:0|0:0,0:0:0:0:
107,158,12384,2,0,L|48:186,3,42.5000016212464,2|2|2|10,0:0|0:0|0:0|0:0,0:0:0:0:
281,227,13051,1,2,0:0:0:0:
299,244,13162,1,2,0:0:0:0:
297,269,13273,1,2,0:0:0:0:
269,303,13384,5,10,0:0:0:0:
224,315,13495,1,0,0:0:0:0:
178,326,13606,1,2,0:0:0:0:
149,360,13718,5,2,3:2:0:0:
104,372,13829,1,2,3:2:0:0:
58,383,13940,1,2,3:2:0:0:
46,372,14051,5,4,0:0:0:0:
157,192,14384,6,0,L|88:202,3,42.5000016212464,2|2|2|10,0:0|0:0|0:0|0:0,0:0:0:0:
422,231,15050,2,0,L|481:259,3,42.5000016212464,2|2|2|10,0:0|0:0|0:0|0:0,0:0:0:0:
287,127,15718,1,2,0:0:0:0:
293,102,15829,1,2,0:0:0:0:
299,77,15940,1,2,0:0:0:0:
341,49,16051,5,10,0:0:0:0:
387,52,16162,1,0,0:0:0:0:
414,89,16273,1,2,0:0:0:0:
462,106,16384,5,2,3:2:0:0:
489,143,16495,1,2,3:2:0:0:
478,187,16606,1,2,3:2:0:0:
493,233,16718,5,4,0:0:0:0:
140,300,17051,6,0,L|81:315,2,42.5000016212464,8|0|2,0:0|0:0|0:0,0:0:0:0:
160,305,17384,2,0,P|172:276|153:223,1,85.0000032424928,10|0,0:0|0:0,0:0:0:0:
208,166,17718,1,2,0:0:0:0:
248,135,17829,1,2,0:0:0:0:
297,122,17940,1,2,0:0:0:0:
346,132,18051,1,10,0:0:0:0:
457,280,18384,6,0,P|466:255|468:227,2,42.5000016212464,2|2|2,0:0|0:0|0:0,0:0:0:0:
443,295,18718,2,0,L|327:321,1,85.0000032424928,10|0,0:0|0:0,0:0:0:0:
294,274,19051,1,2,0:0:0:0:
244,286,19162,1,2,0:0:0:0:
229,334,19273,1,2,0:0:0:0:
262,372,19384,5,8,0:0:0:0:
354,142,19718,1,8,0:0:0:0:
125,54,20051,1,2,3:2:0:0:
103,109,20162,1,2,3:2:0:0:
126,163,20273,1,2,3:2:0:0:
180,186,20384,1,2,3:2:0:0:
236,168,20495,1,2,3:2:0:0:
265,116,20606,1,2,3:2:0:0:
250,57,20718,1,4,0:0:0:0:
256,192,20829,12,0,21968,0:0:0:0:
87,106,22051,5,2,0:0:0:0:
182,148,22217,1,2,0:0:0:0:
182,148,22301,1,2,0:0:0:0:
182,148,22384,2,0,L|-12:119,1,187.000005706787,2|8,3:2|0:0,0:0:0:0:
29,201,22884,1,2,0:0:0:0:
60,52,23051,2,0,L|66:19,4,31.1666676177979,0|0|0|2|0,3:0|3:0|3:0|3:0|0:0,0:0:0:0:
156,85,23384,5,8,0:0:0:0:
299,18,23551,1,2,0:0:0:0:
299,18,23634,1,2,0:0:0:0:
299,18,23717,1,2,3:2:0:0:
322,98,23884,1,2,0:0:0:0:
322,98,23967,1,2,0:0:0:0:
322,98,24050,1,8,0:0:0:0:
344,170,24217,1,0,0:0:0:0:
226,159,24384,2,0,L|398:211,1,140.25000428009,10|0,0:0|0:0,0:0:0:0:
381,243,24717,5,4,0:0:0:0:
253,291,24884,1,10,0:0:0:0:
253,291,24967,1,2,0:0:0:0:
253,291,25050,1,2,3:2:0:0:
314,352,25217,1,2,0:0:0:0:
314,352,25300,1,2,0:0:0:0:
314,352,25384,2,0,L|406:332,1,93.5000028533936,8|0,0:0|0:0,0:0:0:0:
498,336,25717,2,0,L|507:376,3,31.1666676177979,0|0|0|2,3:0|3:0|3:0|3:0,0:0:0:0:
477,246,26050,5,8,0:0:0:0:
419,160,26217,1,2,0:0:0:0:
397,150,26300,1,2,0:0:0:0:
373,152,26384,1,2,3:2:0:0:
302,213,26550,1,2,0:0:0:0:
280,223,26633,1,2,0:0:0:0:
256,221,26717,2,0,L|268:72,1,140.25000428009,8|0,0:0|0:0,0:0:0:0:
296,65,27050,6,0,B|269:71|269:71|263:66|263:66|235:72,1,57.374998249054,10|0,0:0|0:0,0:0:0:0:
177,27,27384,5,4,0:0:0:0:
154,31,27467,1,0,0:0:0:0:
133,41,27550,1,2,0:0:0:0:
116,57,27634,1,2,0:0:0:0:
106,78,27717,2,0,L|129:172,1,93.5000028533936,2|2,3:2|0:0,0:0:0:0:
51,255,28050,1,8,0:0:0:0:
160,282,28217,1,0,0:0:0:0:
245,209,28384,2,0,L|236:175,3,31.1666676177979,0|0|0|2,3:0|3:0|3:0|3:0,0:0:0:0:
250,68,28717,5,4,0:0:0:0:
341,84,28884,1,2,0:0:0:0:
341,84,28967,1,2,0:0:0:0:
341,84,29050,1,2,3:2:0:0:
436,99,29217,1,2,0:0:0:0:
436,99,29300,1,2,0:0:0:0:
436,99,29384,2,0,P|427:151|402:194,1,93.5000028533936
289,238,29717,2,0,L|447:201,1,140.25000428009,0|0,3:0|0:0,0:0:0:0:
467,236,30050,5,6,3:2:0:0:
470,259,30134,1,2,0:2:0:0:
461,280,30217,1,2,0:2:0:0:
442,294,30300,1,2,3:2:0:0:
418,296,30384,1,8,0:0:0:0:
328,339,30550,2,0,L|319:386,1,46.7500014266968,2|2,0:0|0:0,0:0:0:0:
306,322,30717,1,8,0:0:0:0:
205,342,30884,1,2,0:0:0:0:
300,222,31050,2,0,L|201:207,1,93.5000028533936,8|2,0:0|0:0,0:0:0:0:
92,138,31384,5,4,0:0:0:0:
65,29,31550,1,2,0:0:0:0:
174,3,31717,1,8,0:0:0:0:
201,112,31883,1,2,0:0:0:0:
82,151,32050,1,2,3:2:0:0:
71,177,32134,1,2,3:2:0:0:
62,203,32217,1,2,3:2:0:0:
56,230,32300,1,2,3:2:0:0:
53,258,32384,2,0,P|106:263|142:222,1,93.5000028533936,8|2,0:0|0:0,0:0:0:0:
198,352,32717,5,6,3:2:0:0:
207,338,32800,1,2,0:0:0:0:
231,337,32884,1,2,3:2:0:0:
244,313,32967,1,2,0:0:0:0:
276,322,33050,1,8,0:0:0:0:
382,349,33217,2,0,L|432:360,1,46.7500014266968,2|2,0:0|0:0,0:0:0:0:
371,326,33384,1,8,0:0:0:0:
458,241,33550,1,2,0:0:0:0:
376,169,33717,1,8,0:0:0:0:
435,106,33884,1,2,3:0:0:0:
309,19,34050,6,0,L|196:40,1,93.5000028533936,4|2,0:0|0:0,0:0:0:0:
207,52,34300,1,2,0:0:0:0:
221,64,34384,1,8,0:0:0:0:
198,147,34550,1,2,0:0:0:0:
100,31,34717,2,0,B|57:75|57:75|98:209,1,187.000005706787,8|10,0:0|0:0,0:0:0:0:
358,162,35384,5,2,3:2:0:0:
367,176,35467,1,2,0:2:0:0:
391,177,35551,1,2,3:2:0:0:
404,201,35634,1,2,0:2:0:0:
438,199,35717,1,8,0:0:0:0:
396,296,35884,1,2,0:0:0:0:
396,296,35967,1,2,0:0:0:0:
396,296,36050,1,8,0:0:0:0:
306,314,36217,1,2,0:0:0:0:
273,205,36384,1,8,0:0:0:0:
183,187,36551,1,2,0:0:0:0:
145,320,36717,6,0,B|111:210|56:293|15:187,2,187.000005706787,4|8|8,0:0|0:0|0:0,0:0:0:0:
207,239,37550,2,0,P|215:213|212:189,1,46.7500014266968,2|2,3:2|0:2,0:0:0:0:
297,206,37717,2,0,P|316:187|326:165,1,46.7500014266968,2|2,3:2|0:2,0:0:0:0:
391,222,37884,2,0,P|417:215|436:201,1,46.7500014266968,2|0,3:2|0:0,0:0:0:0:
478,126,38050,5,8,0:0:0:0:
485,111,38133,1,0,0:0:0:0:
475,89,38217,1,2,0:0:0:0:
489,66,38300,1,2,0:0:0:0:
471,38,38383,1,8,0:0:0:0:
366,15,38550,2,0,L|316:29,1,46.7500014266968,2|2,0:0|0:0,0:0:0:0:
383,33,38717,1,8,0:0:0:0:
285,123,38884,1,2,0:0:0:0:
349,184,39050,2,0,P|370:181|386:168,3,31.1666676177979,8|0|0|2,0:0|3:0|3:0|3:0,0:0:0:0:
393,293,39384,6,0,L|280:268,1,93.5000028533936,4|2,0:0|0:0,0:0:0:0:
280,282,39634,1,2,0:0:0:0:
288,303,39718,1,8,0:0:0:0:
210,338,39884,1,2,0:0:0:0:
141,231,40051,2,0,B|98:266|98:266|124:351|124:351|80:388,1,187.000005706787,8|10,0:0|0:0,0:0:0:0:
35,118,40717,6,0,L|52:19,1,93.5000028533936,4|2,0:0|3:2,0:0:0:0:
70,13,40967,1,2,3:2:0:0:
87,28,41050,1,10,0:0:0:0:
182,86,41217,1,2,3:2:0:0:
165,101,41300,1,2,3:2:0:0:
146,89,41383,1,8,0:0:0:0:
240,27,41550,1,2,3:2:0:0:
259,16,41633,1,2,3:2:0:0:
276,30,41717,2,0,L|261:139,1,93.5000028533936,8|2,0:0|0:0,0:0:0:0:
321,189,42050,5,4,0:0:0:0:
439,156,42217,1,2,3:2:0:0:
363,315,42384,1,8,0:0:0:0:
363,315,42551,1,2,0:0:0:0:
317,177,42717,5,8,0:0:0:0:
504,263,42884,1,2,0:0:0:0:
439,156,43050,2,0,L|449:133,6,23.3750007133484,0|0|0|0|0|0|0,3:0|3:0|3:0|3:0|3:0|3:0|3:0,3:0:0:0:
442,117,43384,5,2,3:2:0:0:
433,102,43467,1,2,0:0:0:0:
408,97,43551,1,2,3:2:0:0:
397,73,43634,1,2,0:0:0:0:
364,74,43717,1,8,0:0:0:0:
254,168,43884,2,0,L|204:157,1,46.7500014266968,2|2,0:0|0:0,0:0:0:0:
265,191,44051,1,8,0:0:0:0:
357,166,44217,1,2,0:0:0:0:
283,71,44384,2,0,L|278:37,3,31.1666676177979,8|0|0|2,0:0|3:0|3:0|3:0,0:0:0:0:
149,88,44717,6,0,L|36:109,1,93.5000028533936,4|2,0:0|0:0,0:0:0:0:
47,121,44967,1,2,0:0:0:0:
61,133,45051,1,8,0:0:0:0:
146,171,45217,1,2,0:0:0:0:
49,239,45384,2,0,B|6:195|6:195|47:61,1,187.000005706787,8|10,0:0|0:0,0:0:0:0:
254,361,46050,5,2,3:2:0:0:
263,346,46133,1,2,0:0:0:0:
288,341,46217,1,2,3:2:0:0:
299,317,46300,1,2,0:0:0:0:
332,318,46383,1,8,0:0:0:0:
412,380,46551,1,2,0:0:0:0:
412,380,46634,1,2,0:0:0:0:
412,380,46717,1,10,0:0:0:0:
490,312,46884,1,2,0:0:0:0:
466,176,47050,1,10,0:0:0:0:
376,124,47217,1,2,0:0:0:0:
297,257,47384,6,0,B|348:193|243:173|299:71,2,187.000005706787,4|8|8,0:0|0:0|0:0,0:0:0:0:
184,153,48217,2,0,P|168:130|163:106,1,46.7500014266968,2|2,3:2|0:0,0:0:0:0:
153,238,48384,2,0,P|129:225|112:207,1,46.7500014266968,2|2,3:2|0:0,0:0:0:0:
168,327,48551,2,0,P|141:328|118:320,1,46.7500014266968,2|2,3:2|0:0,0:0:0:0:
15,334,48717,6,0,B|104:281|109:379|197:332,1,187.000005706787,4|8,0:0|0:0,0:0:0:0:
240,353,49134,1,0,0:0:0:0:
276,348,49217,1,2,0:0:0:0:
304,324,49300,1,2,0:0:0:0:
314,287,49384,2,0,L|282:145,1,140.25000428009,10|0,0:0|0:0,0:0:0:0:
292,135,49717,1,8,0:0:0:0:
392,168,49884,1,2,0:0:0:0:
279,36,50050,6,0,B|222:56|222:56|192:131|192:131|137:154,1,187.000005706787,4|8,0:0|0:0,0:0:0:0:
49,108,50550,1,2,0:0:0:0:
11,248,50717,2,0,B|71:205|71:205|94:285,1,140.25000428009,8|0,0:0|0:0,0:0:0:0:
81,283,51050,1,8,0:0:0:0:
175,250,51217,1,2,0:0:0:0:
265,382,51384,5,4,0:0:0:0:
311,299,51550,1,0,3:2:0:0:
343,280,51634,1,0,3:2:0:0:
379,286,51717,1,8,0:0:0:0:
512,241,51884,1,0,3:2:0:0:
476,247,51967,1,0,3:2:0:0:
444,228,52051,1,8,0:0:0:0:
493,157,52217,1,0,3:2:0:0:
432,47,52384,1,2,0:0:0:0:
400,53,52467,1,2,0:0:0:0:
368,59,52550,1,2,0:0:0:0:
335,65,52634,1,2,0:0:0:0:
303,71,52717,6,0,L|246:49,1,46.7500014266968,4|0,0:0|0:0,0:0:0:0:
310,156,52884,1,2,0:0:0:0:
243,20,53050,1,10,0:0:0:0:
125,218,53384,6,0,L|182:196,1,46.7500014266968,4|0,0:0|0:0,0:0:0:0:
118,303,53551,1,2,0:0:0:0:
43,178,53717,2,0,P|34:145|13:122,1,57.374998249054,10|0,0:0|0:0,0:0:0:0:
11,108,54050,6,0,P|14:83|29:54,2,56.6666666666667,4|2|2,0:0|0:0|0:0,0:0:0:0:
114,65,54384,2,0,P|117:90|132:119,2,56.6666666666667,8|2|2,0:0|3:2|3:2,0:0:0:0:
175,11,54717,1,8,0:0:0:0:
220,12,54828,1,2,0:0:0:0:
260,31,54939,1,2,0:0:0:0:
291,73,55050,1,8,0:0:0:0:
336,72,55161,1,2,3:2:0:0:
376,53,55272,1,2,3:2:0:0:
410,16,55384,6,0,L|470:31,2,56.6666666666667,8|2|2,0:0|0:0|0:0,0:0:0:0:
432,118,55717,2,0,L|492:133,2,56.6666666666667,8|2|2,0:0|0:0|0:0,0:0:0:0:
365,178,56050,1,8,3:2:0:0:
416,231,56162,1,0,3:2:0:0:
366,285,56273,1,0,3:2:0:0:
417,338,56385,1,4,0:0:0:0:
220,318,56717,6,0,P|194:344|185:363,2,56.6666666666667,8|2|2,0:0|0:0|0:0,0:0:0:0:
226,230,57050,2,0,P|189:233|170:241,2,56.6666666666667
298,166,57384,1,8,0:0:0:0:
315,118,57495,1,2,0:0:0:0:
302,68,57606,1,2,0:0:0:0:
256,34,57717,1,8,0:0:0:0:
207,50,57828,1,2,3:2:0:0:
159,67,57939,1,2,3:2:0:0:
107,42,58050,6,0,P|76:33|46:33,2,56.6666666666667,8|2|2,0:0|0:0|0:0,0:0:0:0:
12,124,58384,2,0,P|43:115|73:115,2,56.6666666666667,8|2|2,0:0|0:0|0:0,0:0:0:0:
26,209,58717,1,10,3:2:0:0:
96,231,58828,1,2,3:2:0:0:
155,187,58939,1,2,3:2:0:0:
225,209,59050,1,4,0:0:0:0:
311,286,59273,1,2,3:2:0:0:
314,297,59384,6,0,L|295:353,2,56.6666666666667,8|2|2,0:0|0:0|0:0,0:0:0:0:
431,269,59717,2,0,L|412:325,2,56.6666666666667,8|0|0,0:0|3:2|3:2,0:0:0:0:
493,187,60050,1,8,0:0:0:0:
472,139,60162,1,2,0:0:0:0:
421,131,60273,1,2,0:0:0:0:
392,75,60384,1,8,0:0:0:0:
339,72,60496,1,2,3:2:0:0:
308,113,60607,1,2,3:2:0:0:
333,170,60717,6,0,P|332:200|316:246,2,56.6666666666667,8|2|2,0:0|0:0|0:0,0:0:0:0:
231,182,61050,2,0,P|230:152|214:106,2,56.6666666666667,8|2|2,0:0|0:0|0:0,0:0:0:0:
160,233,61384,1,10,3:2:0:0:
112,176,61495,1,2,3:2:0:0:
40,192,61606,1,2,3:2:0:0:
87,248,61717,1,4,0:0:0:0:
269,359,62050,5,2,3:2:0:0:
275,325,62162,1,2,3:2:0:0:
282,291,62273,1,8,3:2:0:0:
331,251,62384,1,8,3:2:0:0:
381,251,62495,1,2,3:2:0:0:
409,293,62606,1,2,3:2:0:0:
471,289,62717,1,8,3:2:0:0:
511,260,62828,1,8,3:2:0:0:
511,210,62939,1,8,3:2:0:0:
471,164,63050,2,0,L|407:173,2,56.6666666666667,8|8|8,3:2|3:2|3:2,0:0:0:0:
511,86,63384,5,8,3:2:0:0:
480,44,63495,1,2,3:2:0:0:
429,53,63606,1,2,3:2:0:0:
381,14,63717,2,0,P|342:11|312:20,2,56.6666666666667,8|2|2,3:2|3:2|3:2,0:0:0:0:
357,93,64050,1,4,3:2:0:0:
329,100,64162,1,0,0:0:0:0:
301,107,64273,1,0,0:0:0:0:
263,146,64384,1,8,3:2:0:0:
197,113,64495,1,10,3:2:0:0:
200,39,64606,1,10,3:2:0:0:
213,33,64717,1,2,3:2:0:0:
48,211,75384,6,0,L|137:227,1,85,8|0,0:0|0:0,0:0:0:0:
160,292,75634,1,2,0:0:0:0:
165,307,75717,2,0,L|254:323,1,85,2|0,3:2|0:0,0:0:0:0:
274,169,76050,2,0,L|363:185,1,85,2|0,3:2|0:0,0:0:0:0:
386,250,76300,1,2,0:0:0:0:
391,265,76383,2,0,L|480:281,1,85,2|0,3:2|0:0,0:0:0:0:
490,201,76634,5,2,0:0:0:0:
478,189,76717,2,0,P|469:133|471:94,1,85,2|0,3:2|0:0,0:0:0:0:
363,161,76967,1,2,0:0:0:0:
359,145,77050,2,0,P|379:92|400:59,1,85,2|0,3:2|0:0,0:0:0:0:
273,63,77301,1,2,0:0:0:0:
277,48,77384,2,0,P|320:12|355:-5,1,85,2|0,3:2|0:0,0:0:0:0:
183,25,77717,1,2,0:0:0:0:
206,133,77884,1,2,0:0:0:0:
233,231,78050,5,8,0:0:0:0:
156,342,78217,2,0,L|114:360,2,42.5,2|2|8,0:0|0:0|0:0,0:0:0:0:
335,313,78550,2,0,L|380:317,2,42.5,2|2|8,0:0|0:0|0:0,0:0:0:0:
259,383,78884,1,2,0:0:0:0:
259,383,78967,1,0,0:0:0:0:
259,383,79050,1,8,0:0:0:0:
233,231,79217,5,2,2:0:0:0:
228,219,79300,1,2,2:0:0:0:
224,206,79384,1,8,0:0:0:0:
237,184,79467,1,2,2:2:0:0:
259,172,79550,1,2,2:2:0:0:
284,171,79634,1,2,2:2:0:0:
306,182,79717,1,8,0:2:0:0:
327,196,79800,1,2,2:2:0:0:
351,204,79884,1,2,2:2:0:0:
376,206,79967,1,2,2:2:0:0:
401,201,80050,1,2,2:2:0:0:
458,128,80217,6,0,L|441:81,2,46.7500014266968,2|2|2,0:0|0:0|0:0,0:0:0:0:
478,136,80634,1,2,0:0:0:0:
501,123,80717,6,0,P|511:54|388:29,1,203.999993774414,4|10,0:0|3:2,0:0:0:0:
366,52,81134,1,2,3:2:0:0:
336,60,81217,1,2,3:2:0:0:
305,58,81300,1,2,3:2:0:0:
277,44,81384,2,0,L|303:154,1,101.999996887207,10|0,0:0|0:0,0:0:0:0:
249,217,81717,1,8,0:0:0:0:
148,197,81884,1,2,0:0:0:0:
65,323,82050,5,2,3:2:0:0:
73,310,82134,1,2,0:0:0:0:
87,306,82217,1,2,3:2:0:0:
95,293,82301,1,2,0:0:0:0:
109,289,82384,5,10,3:2:0:0:
148,279,82467,1,2,0:0:0:0:
183,299,82550,1,2,0:0:0:0:
220,315,82634,1,2,0:0:0:0:
256,298,82717,2,0,B|359:303|307:346|413:349,1,152.999995330811,8|0,0:0|0:0,0:0:0:0:
416,324,83050,1,8,0:0:0:0:
374,238,83217,1,2,0:0:0:0:
495,187,83384,6,0,L|511:81,1,101.999996887207,4|0,0:0|0:0,0:0:0:0:
458,27,83634,1,0,0:0:0:0:
443,20,83717,2,0,P|388:39|399:88,1,101.999996887207,8|2,0:0|0:0,0:0:0:0:
406,112,83967,1,2,0:0:0:0:
386,147,84050,1,8,0:0:0:0:
293,109,84217,1,2,0:0:0:0:
157,166,84384,1,8,0:0:0:0:
64,128,84551,1,2,0:0:0:0:
11,275,84717,6,0,L|39:375,1,101.999996887207,10|2,0:0|0:0,0:0:0:0:
112,292,85050,1,8,0:0:0:0:
246,373,85217,2,0,B|263:335|263:335|372:283|372:283|393:235,1,203.999993774414,2|2,3:2|3:2,0:0:0:0:
417,370,85717,1,8,0:0:0:0:
502,323,85884,1,2,0:0:0:0:
381,227,86050,6,0,P|361:160|490:145,1,203.999993774414,4|10,0:0|3:2,0:0:0:0:
508,86,86467,1,2,3:2:0:0:
509,50,86550,1,2,3:2:0:0:
486,22,86633,1,2,3:2:0:0:
450,17,86717,2,0,L|339:41,1,101.999996887207,8|0,0:0|0:0,0:0:0:0:
280,96,87050,1,8,0:0:0:0:
210,6,87217,1,2,0:0:0:0:
113,129,87383,5,2,3:2:0:0:
103,140,87467,1,2,0:0:0:0:
104,154,87550,1,2,3:2:0:0:
95,167,87634,1,2,0:0:0:0:
96,181,87717,5,10,3:2:0:0:
98,216,87800,1,2,0:0:0:0:
121,242,87883,1,0,0:0:0:0:
155,251,87967,1,0,0:0:0:0:
189,244,88050,2,0,B|289:259|220:310|324:330,1,152.999995330811,8|0,0:0|0:0,0:0:0:0:
325,348,88383,1,8,0:0:0:0:
419,311,88550,1,2,0:0:0:0:
305,194,88717,6,0,L|324:90,1,101.999996887207,4|0,0:0|0:0,0:0:0:0:
312,70,88967,1,0,0:0:0:0:
290,82,89050,1,8,0:0:0:0:
397,24,89217,1,2,0:0:0:0:
431,35,89300,1,2,0:0:0:0:
443,68,89384,1,8,0:0:0:0:
400,135,89550,1,2,0:0:0:0:
472,247,89717,1,8,0:0:0:0:
352,322,89884,1,2,0:0:0:0:
219,212,90050,6,0,B|177:202|177:202|114:243|114:243|76:232,1,152.999995330811,4|0,0:0|0:0,0:0:0:0:
34,174,90384,1,10,3:2:0:0:
44,140,90467,1,2,3:2:0:0:
73,119,90550,1,2,3:2:0:0:
106,105,90634,1,2,3:2:0:0:
119,72,90717,1,8,0:0:0:0:
45,19,90884,1,2,0:0:0:0:
219,77,91050,1,10,0:0:0:0:
302,40,91217,1,8,0:0:0:0:
430,154,91384,6,0,P|347:121|326:229,1,203.999993774414,4|0,0:0|0:0,0:0:0:0:
332,252,91801,1,2,3:2:0:0:
364,266,91884,1,2,3:2:0:0:
399,264,91967,1,2,3:2:0:0:
432,252,92051,2,0,L|413:371,1,101.999996887207,8|0,0:0|0:0,0:0:0:0:
323,384,92384,1,8,0:0:0:0:
230,315,92551,1,2,0:0:0:0:
77,370,92717,5,2,3:2:0:0:
70,356,92801,1,2,0:0:0:0:
74,342,92884,1,2,3:2:0:0:
67,328,92968,1,2,0:0:0:0:
71,314,93051,5,10,3:2:0:0:
41,286,93134,1,2,0:0:0:0:
37,245,93217,1,2,0:0:0:0:
56,208,93301,1,2,0:0:0:0:
93,192,93384,2,0,L|244:228,1,152.999995330811,8|0,0:0|0:0,0:0:0:0:
261,216,93717,1,8,0:0:0:0:
198,137,93884,1,2,0:0:0:0:
352,57,94051,6,0,L|336:157,1,101.999996887207,4|0,0:0|0:0,0:0:0:0:
377,236,94301,1,0,0:0:0:0:
392,243,94384,2,0,P|447:224|436:175,1,101.999996887207,8|2,0:0|0:0,0:0:0:0:
434,148,94634,1,2,0:0:0:0:
455,113,94717,1,8,0:0:0:0:
431,31,94884,1,2,0:0:0:0:
314,88,95051,1,8,0:0:0:0:
203,20,95218,1,2,0:0:0:0:
120,153,95384,6,0,L|148:253,1,101.999996887207,10|2,0:0|0:0,0:0:0:0:
102,333,95717,1,8,0:0:0:0:
262,352,95884,2,0,B|249:314|249:314|140:262|140:262|124:214,1,203.999993774414,2|2,3:2|3:2,0:0:0:0:
235,182,96384,1,8,0:0:0:0:
235,182,96551,1,2,0:0:0:0:
333,55,96717,6,0,P|313:122|442:137,1,203.999993774414,4|10,0:0|3:2,0:0:0:0:
463,183,97134,1,2,3:2:0:0:
476,216,97217,1,2,3:2:0:0:
465,250,97300,1,2,3:2:0:0:
433,268,97384,2,0,L|320:285,1,101.999996887207,8|0,0:0|0:0,0:0:0:0:
275,351,97717,1,8,0:0:0:0:
162,292,97884,1,2,0:0:0:0:
292,201,98050,5,2,3:2:0:0:
302,190,98134,1,2,0:0:0:0:
301,176,98217,1,2,3:2:0:0:
310,163,98301,1,2,0:0:0:0:
309,149,98384,5,10,3:2:0:0:
307,114,98467,1,2,0:0:0:0:
284,88,98550,1,2,0:0:0:0:
250,79,98634,1,2,0:0:0:0:
216,86,98717,2,0,B|139:109|180:154|91:187,1,152.999995330811,8|0,0:0|0:0,0:0:0:0:
82,172,99050,1,8,0:0:0:0:
0,226,99217,1,2,0:0:0:0:
192,317,99384,5,4,0:0:0:0:
290,333,99550,1,2,0:0:0:0:
203,192,99717,1,8,0:0:0:0:
301,176,99883,1,2,0:0:0:0:
388,96,100050,1,8,3:2:0:0:
417,88,100134,1,2,3:2:0:0:
444,100,100217,1,2,3:2:0:0:
458,126,100300,1,2,3:2:0:0:
450,155,100384,1,10,3:2:0:0:
427,175,100467,1,2,3:2:0:0:
412,201,100550,1,2,3:2:0:0:
407,231,100634,1,2,3:2:0:0:
417,259,100717,6,0,P|340:248|321:328,1,152.999995330811,4|0,0:0|0:0,0:0:0:0:
303,326,101050,2,0,L|247:341,3,50.9999984436036,10|2|2|2,3:2|3:2|3:2|3:2,0:0:0:0:
215,319,101384,1,8,0:0:0:0:
250,237,101550,1,2,0:0:0:0:
159,152,101717,1,8,0:0:0:0:
174,295,101884,1,8,0:0:0:0:
31,315,102050,5,4,0:0:0:0:
85,246,102216,1,2,0:0:0:0:
82,230,102300,1,2,0:0:0:0:
79,214,102383,1,8,0:0:0:0:
25,146,102550,1,2,3:2:0:0:
28,130,102634,1,2,3:2:0:0:
31,114,102717,2,0,P|46:89|113:85,1,101.999996887207,8|2,0:0|0:0,0:0:0:0:
219,32,103050,2,0,L|211:75,3,33.9999989624024,8|0|0|2,0:0|3:3|3:3|3:3,0:0:0:0:
269,148,103384,5,4,0:0:0:0:
181,234,103550,2,0,L|131:208,2,50.9999984436036,2|2|8,0:0|0:0|0:0,0:0:0:0:
326,257,103884,2,0,L|389:241,2,50.9999984436036,2|2|8,3:2|3:2|0:0,0:0:0:0:
245,301,104217,1,2,0:0:0:0:
269,148,104384,2,0,L|276:115,3,33.9999989624024,8|0|0|2,0:0|3:0|3:0|3:0,0:0:0:0:
208,42,104717,5,4,0:0:0:0:
111,126,104884,1,2,0:0:0:0:
136,130,104967,1,2,0:0:0:0:
159,119,105050,1,8,0:0:0:0:
65,206,105217,1,2,3:2:0:0:
40,202,105300,1,2,3:2:0:0:
17,213,105383,1,8,0:0:0:0:
54,284,105550,1,2,0:0:0:0:
178,212,105717,2,0,L|221:225,3,33.9999989624024,8|0|0|2,0:0|3:0|3:0|3:0,0:0:0:0:
288,162,106050,5,4,0:0:0:0:
389,275,106217,1,2,3:2:0:0:
383,250,106300,1,2,3:2:0:0:
378,224,106384,1,8,0:0:0:0:
293,324,106550,1,2,3:2:0:0:
287,299,106633,1,2,3:2:0:0:
282,273,106717,1,8,0:0:0:0:
197,373,106884,1,2,0:0:0:0:
105,297,107050,2,0,L|156:271,1,50.9999984436036,10|0,0:0|0:0,0:0:0:0:
82,214,107217,2,0,L|133:188,1,50.9999984436036,8|0,0:0|0:0,0:0:0:0:
165,112,107384,5,4,0:0:0:0:
241,62,107550,1,2,0:0:0:0:
244,46,107634,1,2,0:0:0:0:
247,30,107717,1,8,0:0:0:0:
310,118,107884,1,2,3:2:0:0:
313,134,107968,1,2,3:2:0:0:
316,150,108051,2,0,P|331:175|398:179,1,101.999996887207,8|2,0:0|0:0,0:0:0:0:
330,275,108384,2,0,L|338:318,3,33.9999989624024,8|0|0|2,0:0|3:0|3:0|3:0,0:0:0:0:
261,368,108718,5,4,0:0:0:0:
213,271,108884,2,0,P|180:276|159:292,2,50.9999984436036,2|2|8,0:0|0:0|0:0,0:0:0:0:
94,207,109217,2,0,P|71:232|66:257,2,50.9999984436036,2|2|8,3:2|3:2|0:0,0:0:0:0:
17,142,109551,1,2,0:0:0:0:
132,53,109718,2,0,L|139:20,3,33.9999989624024,8|0|0|2,0:0|3:0|3:0|3:0,0:0:0:0:
215,84,110051,5,4,0:0:0:0:
181,191,110218,1,2,0:0:0:0:
206,195,110301,1,2,0:0:0:0:
229,184,110384,1,8,0:0:0:0:
307,290,110551,1,2,3:2:0:0:
320,268,110634,1,2,3:2:0:0:
320,243,110717,1,10,0:0:0:0:
221,279,110884,1,2,0:0:0:0:
310,157,111051,2,0,L|305:123,3,33.9999989624024,8|0|0|2,0:0|3:0|3:0|3:0,0:0:0:0:
359,58,111384,5,8,3:2:0:0:
383,51,111467,1,2,3:2:0:0:
406,60,111550,1,2,3:2:0:0:
414,84,111634,1,2,3:2:0:0:
406,108,111717,2,0,P|404:145|411:172,3,50.9999984436036,10|2|2|2,0:0|0:0|0:0|0:0,0:0:0:0:
478,225,112050,5,10,3:2:0:0:
452,263,112134,1,2,3:2:0:0:
406,268,112217,1,2,3:2:0:0:
380,306,112300,1,2,3:2:0:0:
334,313,112384,1,4,3:2:0:0:
459,360,112550,1,8,0:0:0:0:
