osu file format v14

[General]
AudioFilename: audio.mp3
AudioLeadIn: 0
PreviewTime: 80092
Countdown: 0
SampleSet: Soft
StackLeniency: 0.7
Mode: 0
LetterboxInBreaks: 0
WidescreenStoryboard: 1

[Editor]
Bookmarks: 22051,54050,64717,75384,80717,102050
DistanceSpacing: 1.5
BeatDivisor: 4
GridSize: 16
TimelineZoom: 1.5

[Metadata]
Title:Chronoxia
TitleUnicode:Chronoxia
Artist:DJ Totoriott
ArtistUnicode:DJ Totoriott
Creator:Icekalt
Version:Hard
Source:REFLEC BEAT groovin'!!
Tags:corsace open 2020 qf fm1 pop'n music ラピストリア plus volzza 2 upper 悠久のリフレシア totto うさぎと猫と少年の夢 éclale eclale konami bemani video game instrumental electronic pop'n music ラピストリア MUSIC PACK 68 naotoshi nao tomori
BeatmapID:2953863
BeatmapSetID:1262520

[Difficulty]
HPDrainRate:5
CircleSize:3.5
OverallDifficulty:6
ApproachRate:8
SliderMultiplier:1.5
SliderTickRate:1

[Events]
//Background and Video events
0,0,"town 3.jpg",0,0
//Break Periods
2,64917,74634
//Storyboard Layer 0 (Background)
//Storyboard Layer 1 (Fail)
//Storyboard Layer 2 (Pass)
//Storyboard Layer 3 (Foreground)
//Storyboard Layer 4 (Overlay)
//Storyboard Sound Samples

[TimingPoints]
718,666.666666666667,4,2,1,65,1,0
718,-66.6666666666667,4,2,1,65,0,0
1348,-66.6666666666667,4,2,1,65,0,0
16718,-66.6666666666667,4,2,1,65,0,0
17347,-66.6666666666667,4,2,1,65,0,0
22051,333.333333333333,4,2,1,60,1,0
27050,-100,4,2,1,70,0,0
28014,-100,4,2,1,70,0,0
32681,-100,4,2,1,70,0,0
37014,-100,4,2,1,70,0,0
38681,-100,4,2,1,70,0,0
52717,-100,4,2,1,80,0,0
54050,-100,4,2,1,75,0,0
62681,-100,4,2,1,75,0,0
64717,-100,4,2,1,50,0,0
72681,-100,4,2,1,50,0,0
73347,-100,4,2,1,50,0,0
75384,-100,4,2,1,75,0,0
78050,-100,4,2,1,80,0,0
80217,-100,4,2,1,50,0,0
80717,-100,4,2,1,80,0,0
83347,-100,4,2,1,80,0,0
84014,-100,4,2,1,80,0,0
84681,-100,4,2,1,80,0,0
85347,-100,4,2,1,80,0,0
95347,-100,4,2,1,80,0,0
95459,-100,4,2,1,80,0,0
102050,-100,4,2,1,70,0,0
109125,-100,4,2,1,70,0,0
110050,-100,4,2,1,80,0,0

[Colours]
Combo1 : 226,167,29
Combo2 : 119,190,12
Combo3 : 44,177,228
Combo4 : 225,147,167

[HitObjects]
70,183,718,5,4,0:0:0:0:
151,259,1051,2,0,L|138:310,3,37.5000014305115,2|2|2|8,0:0|0:0|0:0|0:0,0:0:0:0:
251,283,1718,2,0,L|240:332,3,37.5000014305115,2|2|2|8,0:0|0:0|0:0|0:0,0:0:0:0:
343,233,2384,1,2,0:0:0:0:
333,200,2495,1,2,0:0:0:0:
323,167,2606,1,2,0:0:0:0:
337,136,2718,2,0,L|382:128,2,37.5000014305115,8|2|2,0:0|3:2|3:2,0:0:0:0:
271,78,3051,2,0,L|226:70,2,37.5000014305115,8|2|2,0:0|3:2|3:2,0:0:0:0:
327,13,3384,1,4,0:0:0:0:
183,147,3718,6,0,L|134:160,2,37.5000014305115,2|2|2,0:0|0:0|0:0,0:0:0:0:
196,156,4051,1,8,0:0:0:0:
168,258,4384,2,0,L|119:271,2,37.5000014305115,2|2|2,0:0|0:0|0:0,0:0:0:0:
181,267,4717,1,8,0:0:0:0:
274,326,5051,2,0,P|272:349|266:367,2,37.5000014305115,2|2|2,0:0|0:0|0:0,0:0:0:0:
348,284,5384,2,0,P|361:302|368:320,2,37.5000014305115,8|2|2,0:0|3:2|3:2,0:0:0:0:
379,205,5718,1,8,0:0:0:0:
370,172,5829,1,2,3:2:0:0:
361,139,5940,1,2,3:2:0:0:
372,107,6051,1,4,0:0:0:0:
220,90,6384,6,0,L|209:41,2,37.5000014305115,2|2|2,0:0|0:0|0:0,0:0:0:0:
234,103,6718,1,8,0:0:0:0:
113,113,7051,2,0,L|101:64,2,37.5000014305115,2|2|2,0:0|0:0|0:0,0:0:0:0:
105,130,7385,1,8,0:0:0:0:
229,206,7718,1,2,0:0:0:0:
261,195,7829,1,2,0:0:0:0:
293,185,7940,1,2,0:0:0:0:
310,156,8051,2,0,L|314:107,2,37.5000014305115,8|2|2,0:0|3:2|3:2,0:0:0:0:
387,163,8384,2,0,L|391:114,2,37.5000014305115,8|2|2,0:0|3:2|3:2,0:0:0:0:
397,183,8718,1,4,0:0:0:0:
344,300,9051,6,0,L|289:310,2,37.5000014305115,2|2|2,0:0|0:0|0:0,0:0:0:0:
364,311,9384,1,8,0:0:0:0:
277,210,9718,2,0,L|332:220,2,37.5000014305115,2|2|2,0:0|0:0|0:0,0:0:0:0:
257,221,10051,1,8,0:0:0:0:
349,114,10384,2,0,L|294:124,2,37.5000014305115,2|2|2,0:0|0:0|0:0,0:0:0:0:
324,39,10718,1,8,0:0:0:0:
302,43,10829,1,2,3:2:0:0:
280,47,10940,1,2,3:2:0:0:
264,61,11051,1,8,0:0:0:0:
242,65,11162,1,2,3:2:0:0:
220,69,11273,1,2,3:2:0:0:
204,83,11384,1,4,0:0:0:0:
30,233,11718,6,0,L|18:182,2,37.5000014305115,2|2|2,0:0|0:0|0:0,0:0:0:0:
47,245,12051,1,10,0:0:0:0:
161,208,12384,2,0,L|149:157,2,37.5000014305115,2|2|2,0:0|0:0|0:0,0:0:0:0:
178,220,12717,1,10,0:0:0:0:
309,195,13050,1,2,0:0:0:0:
304,224,13161,1,2,0:0:0:0:
300,253,13272,1,2,0:0:0:0:
318,277,13384,2,0,L|375:264,2,37.5000014305115,10|0|2,0:0|0:0|0:0,0:0:0:0:
341,355,13718,2,0,L|398:342,2,37.5000014305115,2|2|2,3:2|3:2|3:2,0:0:0:0:
333,370,14051,1,4,0:0:0:0:
448,240,14384,6,0,L|460:291,2,37.5000014305115,2|2|2,0:0|0:0|0:0,0:0:0:0:
431,228,14717,1,10,0:0:0:0:
317,265,15050,2,0,L|329:316,2,37.5000014305115,2|2|2,0:0|0:0|0:0,0:0:0:0:
300,253,15383,1,10,0:0:0:0:
169,278,15718,1,2,0:0:0:0:
174,249,15829,1,2,0:0:0:0:
178,220,15940,1,2,0:0:0:0:
160,196,16050,2,0,L|103:209,2,37.5000014305115,10|0|2,0:0|0:0|0:0,0:0:0:0:
137,118,16384,2,0,L|80:131,2,37.5000014305115,2|2|2,3:2|3:2|3:2,0:0:0:0:
145,103,16718,6,0,L|280:124,2,112.500004291535,4|8|10,0:0|0:0|0:0,0:0:0:0:
60,11,17718,1,2,0:0:0:0:
34,26,17829,1,2,0:0:0:0:
8,41,17940,1,2,0:0:0:0:
0,69,18051,2,0,L|48:170,1,112.500004291535,10|2,0:0|0:0,0:0:0:0:
39,199,18495,1,2,0:0:0:0:
30,227,18606,1,2,0:0:0:0:
21,256,18718,2,0,P|48:316|109:321,1,112.500004291535,10|2,0:0|0:0,0:0:0:0:
205,233,19384,5,8,0:0:0:0:
299,344,19718,1,8,0:0:0:0:
412,263,20051,2,0,L|468:282,2,37.5000014305115,2|2|2,3:2|3:2|3:2,0:0:0:0:
354,208,20384,2,0,L|298:227,2,37.5000014305115,2|2|2,3:2|3:2|3:2,0:0:0:0:
406,148,20718,1,4,0:0:0:0:
5,72,22051,6,0,L|178:101,1,150,6|2,0:0|3:2,0:0:0:0:
246,55,22551,1,2,0:0:0:0:
246,55,22634,1,2,0:0:0:0:
246,55,22717,2,0,P|269:102|261:148,1,75,8|2,0:0|0:0,0:0:0:0:
313,211,23051,2,0,P|300:261|264:291,1,75,0|2,3:0|3:0,0:0:0:0:
199,348,23384,5,8,0:0:0:0:
50,327,23717,1,2,3:2:0:0:
1,185,24050,1,8,0:0:0:0:
150,206,24384,2,0,P|201:187|255:134,1,112.5,10|0,0:0|0:0,0:0:0:0:
243,131,24717,5,4,0:0:0:0:
330,197,24884,2,0,L|362:96,2,75,10|2|2,0:0|3:2|0:0,0:0:0:0:
384,291,25384,2,0,L|508:185,1,150,8|0,0:0|3:0,0:0:0:0:
279,299,26050,1,8,0:0:0:0:
207,231,26217,2,0,L|212:193,2,37.5,2|2|2,0:0|0:0|3:2,0:0:0:0:
133,290,26551,1,2,0:0:0:0:
133,290,26634,1,2,0:0:0:0:
133,290,26717,2,0,P|112:261|35:264,1,112.5,8|0,0:0|0:0,0:0:0:0:
33,274,27050,1,10,0:0:0:0:
215,374,27384,6,0,L|371:334,1,150,4|2,0:0|3:2,0:0:0:0:
412,262,27884,1,2,0:0:0:0:
412,262,27967,1,2,0:0:0:0:
412,262,28050,2,0,P|379:221|334:209,1,75,8|0,0:0|0:0,0:0:0:0:
316,133,28384,2,0,P|264:122|222:142,1,75,0|2,3:0|3:0,0:0:0:0:
194,218,28717,5,4,0:0:0:0:
116,89,29050,1,2,3:2:0:0:
62,228,29383,1,0,0:0:0:0:
140,357,29717,2,0,L|274:375,1,112.5,0|0,3:0|0:0,0:0:0:0:
263,350,30050,6,0,L|247:305,4,37.5,6|2|2|2|8,3:2|0:2|0:2|3:2|0:0,0:0:0:0:
359,368,30550,1,2,0:0:0:0:
359,368,30634,1,2,0:0:0:0:
359,368,30717,2,0,P|399:351|427:322,1,75,8|2,0:0|0:0,0:0:0:0:
416,244,31050,2,0,P|428:202|424:162,1,75,8|2,0:0|0:0,0:0:0:0:
359,112,31384,5,4,0:0:0:0:
278,151,31550,1,2,0:0:0:0:
217,84,31717,1,8,0:0:0:0:
98,188,32050,2,0,L|108:229,3,37.5,2|2|2|2,3:2|3:2|3:2|3:2,0:0:0:0:
127,235,32384,1,8,0:0:0:0:
102,330,32550,1,2,0:0:0:0:
196,364,32717,6,0,L|347:297,1,150,6|8,3:2|0:0,0:0:0:0:
430,339,33217,1,2,0:0:0:0:
430,339,33300,1,2,0:0:0:0:
430,339,33384,2,0,P|449:293|453:259,1,75,8|2,0:0|0:0,0:0:0:0:
503,196,33717,2,0,P|487:148|469:119,1,75,8|2,0:0|3:0,0:0:0:0:
512,45,34050,2,0,B|413:139|411:42|297:149,1,225,4|2,0:0|0:0,0:0:0:0:
220,121,34717,2,0,P|189:63|264:28,1,150,8|10,0:0|0:0,0:0:0:0:
58,195,35384,6,0,L|231:230,1,150,2|8,3:2|0:0,0:0:0:0:
303,194,35884,1,2,0:0:0:0:
303,194,35967,1,2,0:0:0:0:
303,194,36051,2,0,P|322:240|326:274,1,75,8|2,0:0|0:0,0:0:0:0:
407,318,36384,2,0,P|422:284|429:247,1,75,8|2,0:0|0:0,0:0:0:0:
497,171,36717,6,0,B|467:37|467:37|456:84|405:97,1,225,4|2,0:0|0:0,0:0:0:0:
339,36,37384,1,8,0:0:0:0:
269,98,37550,1,2,3:2:0:0:
269,98,37634,1,2,0:2:0:0:
269,98,37717,2,0,P|227:90|197:64,1,75,2|2,3:2|3:2,0:0:0:0:
118,15,38050,6,0,B|74:54|74:54|103:154,1,150,8|8,0:0|0:0,0:0:0:0:
63,226,38550,1,2,0:0:0:0:
63,226,38633,1,2,0:0:0:0:
63,226,38717,2,0,P|97:246|139:243,1,75,8|2,0:0|0:0,0:0:0:0:
229,262,39050,2,0,L|240:204,2,37.5,8|0|2,0:0|0:0|3:0,0:0:0:0:
210,359,39383,2,0,B|332:300|304:393|426:335,1,225,4|2,0:0|0:0,0:0:0:0:
503,374,40050,2,0,P|458:329|495:233,1,150,8|10,0:0|0:0,0:0:0:0:
324,109,40717,5,4,0:0:0:0:
259,45,40884,2,0,L|265:-6,2,37.5,2|2|10,3:2|3:2|0:0,0:0:0:0:
179,87,41217,1,2,3:2:0:0:
179,87,41300,1,2,3:2:0:0:
179,87,41384,2,0,L|17:62,1,150,8|8,0:0|0:0,0:0:0:0:
52,156,41884,1,2,0:0:0:0:
52,156,42050,6,0,L|129:188,2,75,4|2|8,0:0|3:2|0:0,0:0:0:0:
6,233,42550,1,2,0:0:0:0:
38,317,42717,2,0,P|76:343|108:341,1,75,8|2,0:0|0:0,0:0:0:0:
179,288,43050,2,0,L|171:251,3,37.5,0|0|0|0,3:0|3:0|3:0|3:0,3:0:0:0:
182,235,43384,6,0,L|348:273,1,150,2|8,3:2|0:0,0:0:0:0:
408,340,43884,1,2,0:0:0:0:
408,340,43967,1,2,0:0:0:0:
408,340,44050,2,0,L|426:257,1,75,8|2,0:0|0:0,0:0:0:0:
353,184,44384,2,0,L|342:107,1,75,8|2,0:0|3:0,0:0:0:0:
418,46,44717,2,0,B|363:95|285:58|285:58|227:66|210:104,1,225,4|2,0:0|0:0,0:0:0:0:
97,122,45384,2,0,P|78:75|159:27,1,150,8|10,0:0|0:0,0:0:0:0:
46,251,46050,6,0,P|104:263|203:306,1,150,2|8,3:2|0:0,0:0:0:0:
249,384,46550,1,2,0:0:0:0:
249,384,46634,1,2,0:0:0:0:
249,384,46717,2,0,P|299:363|329:333,1,75,10|2,0:0|0:0,0:0:0:0:
372,270,47050,2,0,P|322:249|292:219,1,75,10|2,0:0|0:0,0:0:0:0:
264,148,47384,6,0,B|286:58|286:58|237:23,2,150,4|8|8,0:0|0:0|0:0,0:0:0:0:
194,202,48217,1,2,3:2:0:0:
194,202,48300,1,2,0:0:0:0:
194,202,48384,1,2,3:2:0:0:
114,153,48550,1,2,3:2:0:0:
25,234,48717,6,0,P|63:304|68:378,1,150,4|8,0:0|0:0,0:0:0:0:
178,350,49217,1,2,0:0:0:0:
178,350,49300,1,2,0:0:0:0:
178,350,49384,2,0,B|237:334|237:334|261:310|261:310|321:292,1,150,10|8,0:0|0:0,0:0:0:0:
381,349,49884,1,2,0:0:0:0:
463,274,50050,2,0,P|475:221|400:177,1,150,4|8,0:0|0:0,0:0:0:0:
330,116,50550,1,2,0:0:0:0:
330,116,50717,2,0,P|318:63|393:19,1,150,8|8,0:0|0:0,0:0:0:0:
245,197,51384,5,4,0:0:0:0:
167,137,51550,2,0,L|176:92,2,37.5,0|0|8,3:2|3:2|0:0,0:0:0:0:
80,180,51884,1,0,3:2:0:0:
80,180,51967,1,0,3:2:0:0:
80,180,52050,1,8,0:0:0:0:
138,302,52384,6,0,L|95:326,3,37.5,2|2|2|2,0:0|0:0|0:0|0:0,0:0:0:0:
85,313,52717,1,4,0:0:0:0:
194,368,52884,1,2,0:0:0:0:
380,188,53384,1,4,0:0:0:0:
271,243,53551,1,2,0:0:0:0:
128,58,54050,6,0,L|60:75,2,50,4|2|2,0:0|0:0|0:0,0:0:0:0:
139,82,54384,2,0,L|240:104,1,100,8|2,0:0|3:2,0:0:0:0:
313,58,54717,1,8,0:0:0:0:
342,52,54828,1,2,0:0:0:0:
371,46,54939,1,2,0:0:0:0:
391,66,55050,2,0,L|450:80,2,50,8|2|2,0:0|3:2|3:2,0:0:0:0:
348,143,55384,6,0,L|360:204,2,50,8|2|2,0:0|0:0|0:0,0:0:0:0:
264,165,55717,2,0,L|276:226,2,50,8|2|2,0:0|0:0|0:0,0:0:0:0:
185,128,56050,1,8,3:2:0:0:
155,135,56162,1,0,3:2:0:0:
126,143,56273,1,0,3:2:0:0:
112,169,56384,1,4,0:0:0:0:
190,314,56717,6,0,L|177:375,2,50,8|2|2,0:0|0:0|0:0,0:0:0:0:
208,301,57051,2,0,L|314:315,1,100
385,266,57384,1,8,0:0:0:0:
414,270,57495,1,2,0:0:0:0:
443,272,57606,1,2,0:0:0:0:
467,255,57717,2,0,L|477:206,2,50,8|2|2,0:0|3:2|3:2,0:0:0:0:
391,179,58051,6,0,L|381:129,2,50,8|2|2,0:0|0:0|0:0,0:0:0:0:
306,200,58384,2,0,L|296:150,2,50,8|2|2,0:0|0:0|0:0,0:0:0:0:
237,256,58717,1,10,3:2:0:0:
207,249,58829,1,2,3:2:0:0:
178,241,58940,1,2,3:2:0:0:
164,215,59051,1,4,0:0:0:0:
64,121,59273,5,2,3:2:0:0:
64,121,59384,2,0,L|-9:144,2,50,8|2|2,0:0|0:0|0:0,0:0:0:0:
84,95,59718,2,0,L|190:109,1,100,8|0,0:0|3:2,0:0:0:0:
241,45,60051,1,8,0:0:0:0:
270,41,60162,1,2,0:0:0:0:
299,39,60273,1,2,0:0:0:0:
324,55,60384,2,0,L|334:6,2,50,8|2|2,0:0|3:2|3:2,0:0:0:0:
384,140,60718,6,0,L|394:189,2,50,8|2|2,0:0|0:0|0:0,0:0:0:0:
299,161,61051,2,0,L|309:210,2,50,8|2|2,0:0|0:0|0:0,0:0:0:0:
202,153,61384,1,10,3:2:0:0:
172,146,61496,1,2,3:2:0:0:
143,138,61607,1,2,3:2:0:0:
129,112,61718,1,4,0:0:0:0:
51,253,62050,6,0,L|-3:268,2,50,2|2|8,3:2|3:2|3:2,0:0:0:0:
128,312,62384,1,8,3:2:0:0:
157,316,62495,1,2,3:2:0:0:
186,321,62606,1,2,3:2:0:0:
211,305,62717,2,0,L|226:251,2,50,8|8|8,3:2|3:2|3:2,0:0:0:0:
291,334,63050,2,0,L|277:382,2,50,8|8|8,3:2|3:2|3:2,0:0:0:0:
375,265,63384,6,0,L|437:254,2,50,8|2|2,3:2|3:2|3:2,0:0:0:0:
359,184,63717,2,0,L|421:173,2,50,8|2|2,3:2|3:2|3:2,0:0:0:0:
279,136,64050,1,8,3:2:0:0:
272,106,64162,1,0,0:0:0:0:
263,77,64273,1,0,0:0:0:0:
242,55,64384,1,8,3:2:0:0:
212,50,64495,1,10,3:2:0:0:
183,59,64606,1,10,3:2:0:0:
175,71,64717,1,2,3:2:0:0:
34,105,75384,6,0,L|136:115,1,75,8|0,0:0|0:0,0:0:0:0:
124,128,75634,1,2,0:0:0:0:
139,143,75717,2,0,P|135:179|108:221,1,75,2|0,3:2|0:0,0:0:0:0:
179,294,76050,2,0,L|281:284,1,75,2|0,3:2|0:0,0:0:0:0:
269,271,76300,1,2,0:0:0:0:
284,256,76383,2,0,P|280:220|253:178,1,75,2|0,3:2|0:0,0:0:0:0:
329,92,76717,6,0,L|418:81,1,75,2|0,3:2|0:0,0:0:0:0:
423,94,76967,1,2,0:0:0:0:
433,113,77050,1,2,3:2:0:0:
512,249,77384,2,0,L|423:238,1,75,2|0,3:2|0:0,0:0:0:0:
418,251,77634,1,2,0:0:0:0:
408,270,77717,1,2,0:0:0:0:
336,202,77884,1,2,0:0:0:0:
272,274,78050,5,8,0:0:0:0:
204,206,78217,2,0,L|209:168,2,37.5,2|2|8,0:0|0:0|0:0,0:0:0:0:
128,259,78550,2,0,L|133:297,2,37.5,2|2|8,0:0|0:0|0:0,0:0:0:0:
51,204,78884,2,0,L|8:218,2,37.5,2|0|8,0:0|0:0|0:0,0:0:0:0:
110,127,79217,5,2,2:0:0:0:
110,127,79300,1,2,2:0:0:0:
110,127,79384,1,8,0:0:0:0:
35,58,79550,2,0,L|-8:72,2,37.5,2|2|8,2:2|2:2|0:2,0:0:0:0:
111,6,79884,1,2,2:2:0:0:
111,6,79967,1,2,2:2:0:0:
111,6,80051,1,2,2:2:0:0:
474,93,80717,6,0,L|309:127,1,150,4|10,0:0|3:2,0:0:0:0:
277,209,81217,1,2,3:2:0:0:
277,209,81300,1,2,3:2:0:0:
277,209,81384,2,0,L|366:240,1,75,10|0,0:0|0:0,0:0:0:0:
409,300,81717,1,8,0:0:0:0:
332,359,81884,1,2,0:0:0:0:
243,320,82050,6,0,L|203:337,3,37.5,2|2|2|2,3:2|0:0|3:2|0:0,0:0:0:0:
188,350,82384,2,0,P|175:292|156:256,1,75,10|2,3:2|0:0,0:0:0:0:
83,225,82717,2,0,P|52:178|131:149,1,150,8|8,0:0|0:0,0:0:0:0:
238,22,83384,6,0,P|268:84|296:192,1,150,4|8,0:0|0:0,0:0:0:0:
366,234,83884,1,2,0:0:0:0:
366,234,83967,1,2,0:0:0:0:
366,234,84050,2,0,P|408:215|425:186,1,75,8|2,0:0|0:0,0:0:0:0:
294,306,84384,2,0,P|252:287|235:258,1,75,8|2,0:0|0:0,0:0:0:0:
177,184,84717,5,10,0:0:0:0:
100,231,84884,1,2,0:0:0:0:
57,152,85050,1,8,0:0:0:0:
132,102,85217,2,0,P|140:23|59:8,1,150,2|2,3:2|3:2,0:0:0:0:
64,8,85634,1,2,3:2:0:0:
54,28,85717,1,8,0:0:0:0:
211,159,86050,6,0,L|360:138,1,150,4|10,0:0|3:2,0:0:0:0:
343,238,86550,1,2,3:2:0:0:
343,238,86633,1,2,3:2:0:0:
343,238,86717,2,0,L|437:257,1,75,8|0,0:0|0:0,0:0:0:0:
463,327,87050,1,8,0:0:0:0:
377,352,87217,1,2,0:0:0:0:
297,371,87383,6,0,L|277:332,3,37.5,2|2|2|2,3:2|0:0|3:2|0:0,0:0:0:0:
265,326,87717,2,0,P|217:332|182:348,1,75,10|0,3:2|0:0,0:0:0:0:
104,301,88050,2,0,P|80:256|139:191,1,150,8|8,0:0|0:0,0:0:0:0:
250,51,88717,6,0,P|262:125|312:209,2,150,4|8|8,0:0|0:0|0:0,0:0:0:0:
328,5,89550,1,2,0:0:0:0:
389,75,89717,2,0,P|431:56|448:27,1,75,8|2,0:0|0:0,0:0:0:0:
491,128,90050,6,0,P|470:194|475:267,1,112.5,4|0,0:0|0:0,0:0:0:0:
460,261,90384,2,0,L|478:309,3,37.5,10|2|2|2,3:2|3:2|3:2|3:2,0:0:0:0:
470,321,90717,1,8,0:0:0:0:
381,304,90884,1,2,0:0:0:0:
306,354,91050,1,10,0:0:0:0:
217,337,91217,1,8,0:0:0:0:
164,255,91384,6,0,P|188:201|270:220,1,150,4|10,0:0|3:2,0:0:0:0:
357,185,91884,1,2,3:2:0:0:
357,185,91967,1,2,3:2:0:0:
357,185,92051,2,0,L|379:101,1,75,8|0,0:0|0:0,0:0:0:0:
352,24,92384,1,8,0:0:0:0:
271,58,92551,1,2,0:0:0:0:
194,12,92717,6,0,L|154:29,3,37.5,2|2|2|2,3:2|0:0|3:2|0:0,0:0:0:0:
152,49,93051,2,0,P|165:84|171:120,1,75,10|2,3:2|0:0,0:0:0:0:
102,180,93384,2,0,B|176:156|176:156|250:191,1,150,8|8,0:0|0:0,0:0:0:0:
352,362,94051,6,0,P|382:300|410:192,1,150,4|8,0:0|0:0,0:0:0:0:
359,146,94551,1,2,0:0:0:0:
359,146,94634,1,2,0:0:0:0:
359,146,94717,2,0,P|317:127|300:98,1,75,8|2,0:0|0:0,0:0:0:0:
366,30,95050,2,0,P|408:49|425:78,1,75,8|2,0:0|0:0,0:0:0:0:
479,152,95384,5,10,0:0:0:0:
448,236,95551,1,2,0:0:0:0:
359,251,95717,1,8,0:0:0:0:
328,335,95884,2,0,L|170:359,1,150,2|2,3:2|3:2,0:0:0:0:
167,338,96301,1,2,3:2:0:0:
170,315,96384,1,8,0:0:0:0:
18,115,96717,6,0,P|69:179|133:155,1,150,4|10,0:0|3:2,0:0:0:0:
199,110,97217,1,2,3:2:0:0:
199,110,97300,1,2,3:2:0:0:
199,110,97384,2,0,L|288:141,1,75,8|0,0:0|0:0,0:0:0:0:
352,87,97717,1,8,0:0:0:0:
433,126,97884,1,2,0:0:0:0:
456,212,98050,6,0,L|435:263,3,37.5,2|2|2|2,3:2|0:0|3:2|0:0,0:0:0:0:
420,260,98384,2,0,P|382:241|345:234,1,75,10|2,3:2|0:0,0:0:0:0:
298,306,98717,2,0,P|235:330|204:257,1,150,8|8,0:0|0:0,0:0:0:0:
66,87,99384,6,0,P|71:117|97:163,1,75,4|2,0:0|0:0,0:0:0:0:
11,227,99717,2,0,P|34:246|83:265,1,75,8|2,0:0|0:0,0:0:0:0:
135,342,100050,2,0,L|178:327,3,37.5,8|2|2|2,3:2|3:2|3:2|3:2,0:0:0:0:
182,311,100384,1,10,3:2:0:0:
280,345,100550,1,2,3:2:0:0:
371,282,100717,6,0,L|336:144,1,112.5,4|0,0:0|0:0,0:0:0:0:
362,155,101050,2,0,L|369:105,3,37.5,10|2|2|2,3:2|3:2|3:2|3:2,0:0:0:0:
385,100,101384,1,8,0:0:0:0:
291,44,101550,1,2,0:0:0:0:
214,122,101717,2,0,P|171:125|135:105,1,75,8|8,0:0|0:0,0:0:0:0:
47,190,102050,6,0,L|75:354,1,150,4|8,0:0|0:0,0:0:0:0:
171,383,102550,1,2,3:2:0:0:
171,383,102634,1,2,3:2:0:0:
171,383,102717,2,0,L|188:298,1,75,8|2,0:0|0:0,0:0:0:0:
261,248,103050,2,0,L|255:203,3,37.5,8|0|2|0,0:0|0:0|3:3|0:0,0:0:0:0:
267,191,103384,5,4,0:0:0:0:
373,175,103550,2,0,L|381:135,2,37.5,2|2|8,0:0|0:0|0:0,0:0:0:0:
466,227,103884,1,2,3:2:0:0:
466,227,103967,1,2,3:2:0:0:
466,227,104050,2,0,P|524:200|502:113,1,150,8|8,0:0|0:0,0:0:0:0:
332,19,104717,6,0,P|322:90|272:170,1,150,4|8,0:0|0:0,0:0:0:0:
198,183,105217,1,2,3:2:0:0:
198,183,105300,1,2,3:2:0:0:
198,183,105384,2,0,L|111:158,1,75,8|2,0:0|0:0,0:0:0:0:
58,245,105717,2,0,L|130:265,1,75,8|2,0:0|3:0,0:0:0:0:
199,338,106050,5,4,0:0:0:0:
283,280,106217,2,0,L|292:242,2,37.5,2|2|8,3:2|3:2|0:0,0:0:0:0:
371,335,106550,2,0,L|380:373,2,37.5,2|2|8,3:2|3:2|0:0,0:0:0:0:
421,252,106884,1,2,0:0:0:0:
386,164,107050,2,0,L|404:81,1,75,10|8,0:0|0:0,0:0:0:0:
323,20,107384,6,0,P|268:72|194:58,1,150,4|8,0:0|0:0,0:0:0:0:
139,132,107884,1,2,3:2:0:0:
139,132,107968,1,2,3:2:0:0:
139,132,108051,2,0,L|156:217,1,75,8|2,0:0|0:0,0:0:0:0:
89,272,108384,1,8,0:0:0:0:
283,336,108718,5,4,0:0:0:0:
364,274,108884,2,0,L|403:292,2,37.5,2|2|8,0:0|0:0|0:0,0:0:0:0:
337,189,109218,1,2,3:2:0:0:
337,189,109301,1,2,3:2:0:0:
337,189,109384,2,0,P|330:127|406:98,1,150,8|8,0:0|0:0,0:0:0:0:
164,22,110051,6,0,L|189:171,1,150,4|8,0:0|0:0,0:0:0:0:
119,224,110551,1,2,3:2:0:0:
119,224,110634,1,2,3:2:0:0:
119,224,110718,2,0,L|27:208,1,75,10|2,0:0|0:0,0:0:0:0:
0,295,111050,1,8,0:0:0:0:
67,364,111217,1,2,3:0:0:0:
159,335,111384,6,0,L|207:351,3,37.5,8|2|2|2,3:2|3:2|3:2|3:2,0:0:0:0:
249,282,111717,2,0,L|276:316,3,37.5,10|2|2|2,0:0|0:0|0:0|0:0,0:0:0:0:
294,317,112050,1,10,3:2:0:0:
370,238,112217,1,2,3:2:0:0:
398,362,112384,2,0,B|437:377|437:377|423:325,1,75,4|8,3:2|0:0,0:0:0:0:
