osu file format v14

[General]
AudioFilename: audio.mp3
AudioLeadIn: 0
PreviewTime: -1
Countdown: 0
SampleSet: Normal
StackLeniency: 0.7
Mode: 0
LetterboxInBreaks: 0
WidescreenStoryboard: 0

[Editor]
Bookmarks: 6586,12586,30586,42586,48586,54586,72586
DistanceSpacing: 0.6
BeatDivisor: 4
GridSize: 4
TimelineZoom: 1.550003

[Metadata]
Title:Mr. Vain (Madfox Remix)
TitleUnicode:Mr. Vain (Madfox Remix)
Artist:DJ Tora & Shadw feat. Kanae Asaba
ArtistUnicode:DJ Tora & Shadw feat. Kanae Asaba
Creator:_nYn
Version:X
Source:
Tags:
BeatmapID:2076193
BeatmapSetID:992812

[Difficulty]
HPDrainRate:5
CircleSize:3.6
OverallDifficulty:7
ApproachRate:9.5
SliderMultiplier:2
SliderTickRate:1

[Events]
//Background and Video events
0,0,"20190619181604_1.jpg",0,0
//Break Periods
//Storyboard Layer 0 (Background)
//Storyboard Layer 1 (Fail)
//Storyboard Layer 2 (Pass)
//Storyboard Layer 3 (Foreground)
//Storyboard Sound Samples

[TimingPoints]
586,375,4,1,0,60,1,0
1148,-125,4,1,0,60,0,0
1711,-166.666666666667,4,1,0,60,0,0
2273,-250,4,1,0,60,0,0
2836,-500,4,1,0,60,0,0
3398,-200,4,1,0,60,0,0
6586,-100,4,1,0,60,0,0
7148,-125,4,1,0,60,0,0
7711,-166.666666666667,4,1,0,60,0,0
8273,-250,4,1,0,60,0,0
8836,-500,4,1,0,60,0,0
9398,-200,4,1,0,60,0,0
12586,-142.857142857143,4,1,0,60,0,0
16711,-250.000000000001,4,1,0,60,0,0
18586,-142.857142857143,4,1,0,60,0,0
22711,-250.000000000001,4,1,0,60,0,0
24586,-100,4,1,0,60,0,0
30586,-76.9230769230769,4,1,0,60,0,0
36586,-55.5555555555556,4,1,0,60,0,0
43898,-62.5,4,1,0,60,0,0
44086,-71.4285714285714,4,1,0,60,0,0
44836,-100,4,1,0,60,0,0
45398,-125,4,1,0,60,0,0
45586,-166.666666666667,4,1,0,60,0,0
48211,-250,4,1,0,60,0,0
48586,-100,4,1,0,60,0,0
51586,-76.9230769230769,4,1,0,60,0,0
54586,-66.6666666666667,4,1,0,60,0,0
54961,-66.6666666666667,4,1,0,60,0,0
56086,-55.5555555555556,4,1,0,60,0,0
60586,-33.3333333333333,4,1,0,60,0,0

[HitObjects]
171,98,586,6,0,L|183:231,1,100
149,123,1148,2,0,L|158:233,1,80
126,150,1711,2,0,L|132:220,1,59.9999981689454
107,177,2273,2,0,L|111:230,1,40
93,206,2836,2,0,L|95:232,1,20
234,342,3398,6,0,L|228:289,2,50
272,227,3961,1,0,0:0:0:0:
234,149,4148,1,0,0:0:0:0:
271,73,4336,1,0,0:0:0:0:
133,216,4711,6,0,L|186:218,2,50
83,147,5273,1,0,0:0:0:0:
133,78,5461,1,0,0:0:0:0:
216,89,5648,1,0,0:0:0:0:
359,63,5836,2,0,P|350:108|256:155,1,150
379,313,6586,6,0,L|367:180,1,100
401,288,7148,2,0,L|391:177,1,80
424,261,7711,2,0,L|417:190,1,59.9999981689454
443,234,8273,2,0,L|438:180,1,40
457,205,8836,2,0,L|454:178,1,20
278,42,9398,6,0,L|284:95,2,50
240,157,9961,1,0,0:0:0:0:
278,235,10148,1,0,0:0:0:0:
241,311,10336,1,0,0:0:0:0:
379,168,10711,6,0,L|326:166,2,50
429,237,11273,1,0,0:0:0:0:
379,306,11461,1,0,0:0:0:0:
296,295,11648,1,0,0:0:0:0:
153,321,11836,2,0,P|161:275|256:229,1,150
455,258,12586,5,0,0:0:0:0:
428,38,12773,1,0,0:0:0:0:
434,239,12961,1,0,0:0:0:0:
446,55,13148,1,0,0:0:0:0:
231,89,13336,1,0,0:0:0:0:
473,157,13523,2,0,P|434:152|373:150,1,69.9999978637696
71,335,13898,6,0,P|50:275|89:218,1,104.999996795654
86,219,14273,1,0,0:0:0:0:
301,243,14461,1,0,0:0:0:0:
262,91,14648,1,0,0:0:0:0:
265,327,14836,2,0,P|342:324|412:315,1,139.999995727539
226,23,15586,5,0,0:0:0:0:
163,258,15773,1,0,0:0:0:0:
282,98,15961,1,0,0:0:0:0:
42,73,16148,1,0,0:0:0:0:
91,326,16336,2,0,P|78:269|77:219,1,104.999996795654
115,158,16711,6,0,L|168:163,2,40
210,215,17273,1,0,0:0:0:0:
326,199,17461,6,0,L|272:206,2,40
241,137,18023,1,0,0:0:0:0:
324,124,18211,1,0,0:0:0:0:
399,160,18398,1,0,0:0:0:0:
57,126,18586,5,0,0:0:0:0:
84,346,18773,1,0,0:0:0:0:
78,145,18961,1,0,0:0:0:0:
66,329,19148,1,0,0:0:0:0:
281,295,19336,1,0,0:0:0:0:
39,227,19523,2,0,P|78:232|139:234,1,69.9999978637696
441,49,19898,6,0,P|462:109|423:166,1,104.999996795654
426,165,20273,1,0,0:0:0:0:
211,141,20461,1,0,0:0:0:0:
250,293,20648,1,0,0:0:0:0:
247,57,20836,2,0,P|170:60|100:69,1,139.999995727539
286,361,21586,5,0,0:0:0:0:
349,126,21773,1,0,0:0:0:0:
230,286,21961,1,0,0:0:0:0:
470,311,22148,1,0,0:0:0:0:
421,58,22336,2,0,P|434:115|435:165,1,104.999996795654
397,226,22711,6,0,L|344:221,2,40
302,169,23273,1,0,0:0:0:0:
186,185,23461,6,0,L|240:178,2,40
271,247,24023,1,0,0:0:0:0:
195,107,24211,1,0,0:0:0:0:
116,360,24398,1,0,0:0:0:0:
479,195,24586,6,0,P|414:173|315:207,1,150
251,223,24961,2,0,P|186:244|87:210,1,150
59,169,25336,1,0,0:0:0:0:
109,113,25430,1,0,0:0:0:0:
180,135,25524,1,0,0:0:0:0:
174,209,25617,1,0,0:0:0:0:
103,235,25711,1,0,0:0:0:0:
165,55,25898,1,0,0:0:0:0:
186,357,26086,6,0,P|189:286|170:198,1,150
166,176,26461,1,0,0:0:0:0:
53,262,26648,1,0,0:0:0:0:
401,326,26836,2,0,P|428:241|383:280,1,200
35,247,27586,6,0,P|107:221|209:238,1,150
257,255,27961,2,0,P|329:281|431:264,1,150
476,116,28336,2,0,P|405:146|342:228,1,150
464,212,28898,1,0,0:0:0:0:
427,29,29086,5,0,0:0:0:0:
205,48,29273,1,0,0:0:0:0:
336,231,29461,1,0,0:0:0:0:
409,53,29648,1,0,0:0:0:0:
228,74,29836,2,0,B|264:120|263:162|263:162|220:188|153:157,1,200
483,326,30586,6,0,P|412:277|306:332,1,194.999991073609
28,289,30961,2,0,P|99:338|205:283,1,194.999991073609
233,235,31336,1,0,0:0:0:0:
251,159,31429,1,0,0:0:0:0:
297,95,31523,1,0,0:0:0:0:
372,75,31617,1,0,0:0:0:0:
439,114,31711,1,0,0:0:0:0:
392,356,31898,1,0,0:0:0:0:
213,76,32086,5,0,0:0:0:0:
492,226,32273,1,0,0:0:0:0:
114,254,32461,1,0,0:0:0:0:
313,10,32648,1,0,0:0:0:0:
253,310,32836,1,0,0:0:0:0:
6,136,33023,1,0,0:0:0:0:
452,93,33211,1,0,0:0:0:0:
168,356,33398,1,0,0:0:0:0:
212,59,33586,5,0,0:0:0:0:
234,133,33679,1,0,0:0:0:0:
209,207,33773,1,0,0:0:0:0:
145,253,33867,1,0,0:0:0:0:
81,268,33961,1,0,0:0:0:0:
28,230,34054,1,0,0:0:0:0:
21,171,34148,1,0,0:0:0:0:
66,133,34242,1,0,0:0:0:0:
111,136,34336,5,0,0:0:0:0:
137,172,34429,1,0,0:0:0:0:
117,213,34523,1,0,0:0:0:0:
71,219,34617,1,0,0:0:0:0:
56,189,34711,1,0,0:0:0:0:
73,162,34804,1,0,0:0:0:0:
103,174,34898,1,0,0:0:0:0:
79,197,34992,1,0,0:0:0:0:
84,181,35086,1,0,0:0:0:0:
256,192,35179,12,0,36492,0:0:0:0:
60,10,36586,6,0,P|50:193|75:399,1,359.999989013672
449,299,37148,1,0,0:0:0:0:
376,305,37242,1,0,0:0:0:0:
304,315,37336,2,0,P|207:297|120:221,1,179.999994506836
310,10,37711,2,0,P|337:54|349:100,1,89.9999972534181
473,181,37898,2,0,P|420:182|375:169,1,89.9999972534181
142,250,38086,6,0,P|175:209|318:166,1,179.999994506836
65,202,38648,1,0,0:0:0:0:
57,282,38742,1,0,0:0:0:0:
117,339,38836,2,0,P|188:329|190:170,1,179.999994506836
205,9,39211,2,0,P|201:65|167:163,1,89.9999972534181
65,202,39398,2,0,P|69:146|103:48,1,89.9999972534181
410,268,39586,6,0,P|320:266|230:277,1,179.999994506836
466,46,40148,1,0,0:0:0:0:
474,126,40242,1,0,0:0:0:0:
414,183,40336,2,0,P|343:173|341:14,1,179.999994506836
309,331,40711,2,0,P|300:270|312:183,1,89.9999972534181
208,12,40898,2,0,P|217:73|205:160,1,89.9999972534181
28,225,41086,6,0,P|89:216|249:237,1,179.999994506836
464,74,41648,5,0,0:0:0:0:
383,63,41742,1,0,0:0:0:0:
303,46,41836,2,0,P|283:134|288:258,1,179.999994506836
314,344,42211,2,0,P|373:332|416:334,1,89.9999972534181
191,266,42398,2,0,P|132:254|89:256,1,89.9999972534181
383,63,42586,2,0,P|363:151|376:272,1,179.999994506836
70,51,43148,1,0,0:0:0:0:
61,131,43242,1,0,0:0:0:0:
94,204,43336,2,0,P|191:179|299:187,1,179.999994506836
447,341,43711,2,0,P|454:275|448:231,1,89.9999972534181
389,36,43898,2,0,P|382:95|388:135,1,80
221,313,44086,6,0,P|290:297|376:299,1,139.999995727539
65,327,44648,1,0,0:0:0:0:
47,273,44742,1,0,0:0:0:0:
61,225,44836,2,0,P|64:171|55:105,1,100
409,32,45211,2,0,P|411:72|404:122,1,50
347,248,45398,2,0,P|345:219|350:184,1,40
212,122,45586,6,0,P|240:120|275:125,1,59.9999981689454
301,323,46148,1,0,0:0:0:0:
265,327,46241,1,0,0:0:0:0:
228,326,46336,2,0,P|174:317|151:320,1,59.9999981689454
34,272,46711,6,0,L|116:266,2,59.9999981689454
106,47,47648,1,0,0:0:0:0:
106,47,47742,1,0,0:0:0:0:
106,47,47836,2,0,L|101:120,1,59.9999981689454
194,260,48211,2,0,L|164:262,1,20
236,340,48398,2,0,L|206:336,1,20
57,220,48586,6,0,L|145:216,1,50
284,151,48867,6,0,L|196:147,1,50
105,45,49148,6,0,L|193:41,1,50
277,239,49429,6,0,L|189:235,1,50
298,64,49711,1,0,0:0:0:0:
289,149,49898,1,0,0:0:0:0:
454,167,50086,6,0,L|366:171,1,50
227,236,50367,6,0,L|315:240,1,50
406,342,50648,6,0,L|318:346,1,50
234,148,50929,6,0,L|322:152,1,50
213,323,51211,1,0,0:0:0:0:
222,238,51398,1,0,0:0:0:0:
253,0,51586,6,0,L|245:73,1,64.9999970245363
320,248,51867,6,0,L|327:174,1,64.9999970245363
160,70,52148,6,0,L|167:143,1,64.9999970245363
93,318,52429,6,0,L|85:244,1,64.9999970245363
166,214,52711,1,0,0:0:0:0:
256,229,52898,1,0,0:0:0:0:
259,384,53086,6,0,L|266:310,1,64.9999970245363
192,136,53367,6,0,L|184:209,1,64.9999970245363
352,314,53648,6,0,L|344:240,1,64.9999970245363
419,66,53929,6,0,L|426:139,1,64.9999970245363
346,170,54211,1,0,0:0:0:0:
256,155,54398,1,0,0:0:0:0:
118,321,54586,6,0,P|187:306|214:306,1,75.0000028610231
377,329,54773,2,0,P|307:332|280:327,1,75.0000028610231
303,331,54961,2,0,P|340:326|376:315,1,75.0000028610231
191,305,55148,2,0,P|153:303|116:307,1,75.0000028610231
133,50,55336,6,0,P|123:115|125:142,1,75.0000028610231
379,50,55523,2,0,P|389:115|387:142,1,75.0000028610231
123,123,55711,2,0,P|134:87|151:54,1,75.0000028610231
388,123,55898,2,0,P|376:87|359:54,1,75.0000028610231
96,263,56086,6,0,P|51:252|17:275,1,89.9999972534181
416,263,56273,2,0,P|461:252|495:275,1,89.9999972534181
86,234,56461,2,0,P|43:215|6:232,1,89.9999972534181
425,234,56648,2,0,P|468:215|505:232,1,89.9999972534181
81,173,56836,2,0,P|48:141|7:144,1,89.9999972534181
430,173,57023,2,0,P|463:141|504:144,1,89.9999972534181
114,88,57211,2,0,P|101:44|64:26,1,89.9999972534181
397,88,57398,2,0,P|410:44|447:26,1,89.9999972534181
255,341,57586,5,0,0:0:0:0:
211,332,57679,1,0,0:0:0:0:
166,322,57773,1,0,0:0:0:0:
121,312,57867,1,0,0:0:0:0:
256,251,57961,5,0,0:0:0:0:
304,241,58054,1,0,0:0:0:0:
353,230,58148,1,0,0:0:0:0:
403,219,58242,1,0,0:0:0:0:
256,156,58336,5,0,0:0:0:0:
203,145,58429,1,0,0:0:0:0:
149,132,58523,1,0,0:0:0:0:
94,120,58617,1,0,0:0:0:0:
255,68,58711,5,0,0:0:0:0:
313,55,58804,1,0,0:0:0:0:
372,41,58898,1,0,0:0:0:0:
433,28,58992,1,0,0:0:0:0:
12,66,60586,6,0,B|38:71|67:34|67:34|37:73|61:132|61:132|15:191|86:242|86:242|185:187|148:95,1,450.000017166138
249,59,60961,2,0,B|206:53|206:53|244:97|234:160,1,150.000005722046
211,239,61148,1,0,0:0:0:0:
246,321,61242,1,0,0:0:0:0:
335,330,61336,1,0,0:0:0:0:
418,298,61429,2,0,B|400:250|352:225|301:248|301:248|368:175|288:81,1,300.000011444092
246,37,61711,1,0,0:0:0:0:
167,80,61804,1,0,0:0:0:0:
97,22,61898,2,0,B|53:64|53:64|77:266,1,150.000005722046
92,239,62086,5,0,0:0:0:0:
35,308,62179,1,0,0:0:0:0:
109,358,62273,1,0,0:0:0:0:
166,288,62367,1,0,0:0:0:0:
240,239,62461,5,0,0:0:0:0:
297,308,62554,1,0,0:0:0:0:
223,358,62648,1,0,0:0:0:0:
166,288,62742,1,0,0:0:0:0:
166,186,62836,1,0,0:0:0:0:
246,146,62929,1,0,0:0:0:0:
324,191,63023,1,0,0:0:0:0:
403,149,63117,1,0,0:0:0:0:
477,199,63211,2,0,B|451:281|462:365|462:365|455:333|413:329|413:329|306:315|195:359,1,450.000017166138
