osu file format v14

[General]
AudioFilename: Kanata no Reflesia.mp3
AudioLeadIn: 0
PreviewTime: 79754
Countdown: 0
SampleSet: Normal
StackLeniency: 0.7
Mode: 1
LetterboxInBreaks: 0
WidescreenStoryboard: 0

[Editor]
DistanceSpacing: 0.8
BeatDivisor: 3
GridSize: 8
TimelineZoom: 2.4

[Metadata]
Title:Kanata no Reflesia
TitleUnicode:彼方のリフレシア
Artist:DJ TOTTO feat.Annabel & Hiyama Nao
ArtistUnicode:DJ TOTTO feat.Annabel & Hiyama Nao
Creator:cdhsausageboy
Version:Oni
Source:REFLEC BEAT 悠久のリフレシア
Tags:
BeatmapID:0
BeatmapSetID:-1

[Difficulty]
HPDrainRate:5
CircleSize:5
OverallDifficulty:5
ApproachRate:5
SliderMultiplier:1.4
SliderTickRate:1

[Events]
//Background and Video events
0,0,"580f6622c764c7fdfa75a619e719efa4.jpg",0,0
//Break Periods
//Storyboard Layer 0 (Background)
//Storyboard Layer 1 (Fail)
//Storyboard Layer 2 (Pass)
//Storyboard Layer 3 (Foreground)
//Storyboard Sound Samples

[TimingPoints]
2078,333.333333333333,3,1,0,80,1,0
2078,-80,3,1,0,80,0,0
2411,-100,3,1,0,80,0,0
6077,-80,3,1,0,80,0,0
6411,-100,3,1,0,80,0,0
10077,-105.263157894737,3,1,0,60,0,0
10411,-111.111111111111,3,1,0,60,0,0
10744,-117.647058823529,3,1,0,60,0,0
11077,-125,3,1,0,60,0,0
14077,-80,3,1,0,80,0,0
14577,-100,3,1,0,80,0,0
16077,-80,3,1,0,80,0,0
16577,-100,3,1,0,80,0,0
18077,-80,3,1,0,80,0,0
18633,-100,3,1,0,80,0,0
61077,-88.8888888888889,3,1,0,80,0,0
61411,-80,3,1,0,80,0,0
61744,-72.7272727272727,3,1,0,80,0,0
62077,-66.6666666666667,3,1,0,80,0,0
63077,-50,3,1,0,80,0,0
64077,-100,3,1,0,80,0,0
80077,-100,3,1,0,90,0,1
96077,-100,3,1,0,80,0,0
100077,-66.6666666666667,3,1,0,80,0,0
102077,-100,3,1,0,80,0,0
104077,-50,3,1,0,80,0,0
106077,-100,3,1,0,80,0,0
108077,-40,3,1,0,80,0,0
110077,-100,3,1,0,80,0,0

[HitObjects]
296,136,2078,5,4,0:0:0:0:
248,200,2411,1,8,0:0:0:0:
248,200,2577,1,8,0:0:0:0:
360,200,2744,1,0,0:0:0:0:
360,200,2911,1,0,0:0:0:0:
496,176,3077,1,8,0:0:0:0:
184,176,3411,1,0,0:0:0:0:
192,176,3744,1,8,0:0:0:0:
448,192,4077,1,0,0:0:0:0:
248,232,4911,1,8,0:0:0:0:
248,232,4994,1,8,0:0:0:0:
472,160,5077,1,8,0:0:0:0:
248,192,5411,1,0,0:0:0:0:
368,208,5744,1,8,0:0:0:0:
368,176,6077,1,4,0:0:0:0:
232,224,6411,1,8,0:0:0:0:
232,224,6577,1,8,0:0:0:0:
288,216,6744,1,0,0:0:0:0:
288,216,6911,1,0,0:0:0:0:
328,216,7077,1,8,0:0:0:0:
368,176,7411,1,0,0:0:0:0:
320,216,7744,1,8,0:0:0:0:
320,176,8077,1,0,0:0:0:0:
320,176,8411,1,0,0:0:0:0:
328,168,8577,1,0,0:0:0:0:
352,184,8744,1,8,0:0:0:0:
352,184,8911,1,8,0:0:0:0:
192,224,9077,1,0,0:0:0:0:
296,184,9411,1,8,0:0:0:0:
352,208,9744,1,0,0:0:0:0:
392,208,10077,1,8,0:0:0:0:
392,208,10411,1,8,0:0:0:0:
392,208,10744,1,8,0:0:0:0:
392,208,11077,1,8,0:0:0:0:
392,208,12077,1,8,0:0:0:0:
392,208,12244,1,8,0:0:0:0:
392,208,12411,1,8,0:0:0:0:
392,208,12744,1,8,0:0:0:0:
392,208,13077,1,8,0:0:0:0:
360,136,14077,1,4,0:0:0:0:
104,160,14577,1,0,0:0:0:0:
464,184,14744,5,8,0:0:0:0:
456,184,14911,1,8,0:0:0:0:
368,168,15077,1,0,0:0:0:0:
368,216,15411,1,8,0:0:0:0:
408,208,15577,1,0,0:0:0:0:
392,192,15744,1,8,0:0:0:0:
400,176,16077,1,4,0:0:0:0:
440,192,16577,1,8,0:0:0:0:
376,224,16744,1,8,0:0:0:0:
408,200,16911,1,0,0:0:0:0:
416,208,17077,1,8,0:0:0:0:
448,192,17411,1,0,0:0:0:0:
448,192,17577,1,0,0:0:0:0:
304,192,17744,1,8,0:0:0:0:
352,160,18077,1,4,0:0:0:0:
184,120,18633,2,0,L|648:200,1,466.666666666667
320,208,20077,1,0,0:0:0:0:
328,160,20911,1,8,0:0:0:0:
328,160,20994,1,8,0:0:0:0:
344,256,21077,1,0,0:0:0:0:
312,184,22077,5,0,0:0:0:0:
360,208,22411,1,8,0:0:0:0:
368,208,22577,1,0,0:0:0:0:
368,208,22661,1,0,0:0:0:0:
368,208,22744,1,0,0:0:0:0:
384,200,22911,1,0,0:0:0:0:
408,208,23077,1,8,0:0:0:0:
240,160,23244,1,8,0:0:0:0:
480,200,23411,1,0,0:0:0:0:
400,248,23744,1,8,0:0:0:0:
184,176,24077,1,0,0:0:0:0:
360,208,24411,1,8,0:0:0:0:
368,208,24577,1,0,0:0:0:0:
368,208,24661,1,0,0:0:0:0:
368,208,24744,1,0,0:0:0:0:
384,200,24911,1,0,0:0:0:0:
408,208,25077,1,8,0:0:0:0:
480,200,25244,1,0,0:0:0:0:
240,160,25411,1,8,0:0:0:0:
440,200,25577,1,8,0:0:0:0:
360,208,25633,1,8,0:0:0:0:
360,208,25689,1,8,0:0:0:0:
408,208,25744,1,0,0:0:0:0:
384,160,25911,1,8,0:0:0:0:
312,184,26077,5,0,0:0:0:0:
360,208,26411,1,8,0:0:0:0:
368,208,26577,1,0,0:0:0:0:
368,208,26661,1,0,0:0:0:0:
368,208,26744,1,0,0:0:0:0:
384,200,26911,1,0,0:0:0:0:
408,208,27077,1,8,0:0:0:0:
240,160,27244,1,8,0:0:0:0:
480,200,27411,1,0,0:0:0:0:
400,248,27744,1,8,0:0:0:0:
184,176,28077,1,0,0:0:0:0:
336,128,28244,1,8,0:0:0:0:
344,120,28327,1,8,0:0:0:0:
416,176,28411,1,0,0:0:0:0:
400,216,28577,1,8,0:0:0:0:
368,208,28744,1,0,0:0:0:0:
240,128,28827,1,0,0:0:0:0:
464,200,28911,1,8,0:0:0:0:
208,176,29077,1,0,0:0:0:0:
208,176,29244,1,0,0:0:0:0:
336,240,29411,1,8,0:0:0:0:
336,240,29577,1,8,0:0:0:0:
352,168,29661,1,8,0:0:0:0:
360,224,29744,1,0,0:0:0:0:
360,224,29827,1,8,0:0:0:0:
424,208,29911,1,8,0:0:0:0:
424,208,29994,1,8,0:0:0:0:
328,240,30077,1,0,0:0:0:0:
400,168,30411,1,8,0:0:0:0:
296,224,30577,1,0,0:0:0:0:
296,224,30661,1,0,0:0:0:0:
296,224,30744,1,0,0:0:0:0:
344,200,30911,1,0,0:0:0:0:
384,208,31077,1,8,0:0:0:0:
384,208,31244,1,8,0:0:0:0:
416,216,31411,1,0,0:0:0:0:
408,208,31577,1,0,0:0:0:0:
304,200,31744,1,8,0:0:0:0:
376,192,31827,1,8,0:0:0:0:
360,208,31911,1,0,0:0:0:0:
360,208,31994,1,0,0:0:0:0:
400,224,32077,1,8,0:0:0:0:
400,168,32411,1,8,0:0:0:0:
296,224,32577,1,0,0:0:0:0:
296,224,32661,1,0,0:0:0:0:
296,224,32744,1,0,0:0:0:0:
384,208,32911,1,8,0:0:0:0:
344,200,33077,1,0,0:0:0:0:
208,136,33161,1,0,0:0:0:0:
384,208,33244,1,8,0:0:0:0:
416,216,33411,1,0,0:0:0:0:
320,216,33577,1,8,0:0:0:0:
320,216,33633,1,8,0:0:0:0:
320,216,33689,1,8,0:0:0:0:
432,224,33744,1,0,0:0:0:0:
360,208,33911,1,8,0:0:0:0:
72,176,34077,1,0,0:0:0:0:
400,168,34411,1,8,0:0:0:0:
296,224,34577,1,0,0:0:0:0:
296,224,34661,1,0,0:0:0:0:
296,224,34744,1,0,0:0:0:0:
344,200,34911,1,0,0:0:0:0:
384,208,35077,1,8,0:0:0:0:
384,208,35244,1,8,0:0:0:0:
360,208,35327,1,8,0:0:0:0:
416,216,35411,1,0,0:0:0:0:
408,208,35577,1,8,0:0:0:0:
416,168,35744,1,0,0:0:0:0:
416,168,35911,1,0,0:0:0:0:
456,176,36077,1,8,0:0:0:0:
336,216,36161,1,8,0:0:0:0:
440,136,36244,1,8,0:0:0:0:
296,224,36411,1,0,0:0:0:0:
296,224,36577,1,0,0:0:0:0:
384,208,36744,1,8,0:0:0:0:
184,200,36827,1,0,0:0:0:0:
376,128,36911,1,8,0:0:0:0:
384,208,37077,1,8,0:0:0:0:
256,168,37411,1,8,0:0:0:0:
384,192,37577,1,0,0:0:0:0:
384,192,37633,1,0,0:0:0:0:
392,192,37689,1,0,0:0:0:0:
440,168,37744,1,8,0:0:0:0:
472,184,37911,1,8,0:0:0:0:
400,184,38077,1,0,0:0:0:0:
400,168,38411,1,8,0:0:0:0:
296,224,38577,1,0,0:0:0:0:
296,224,38661,1,0,0:0:0:0:
296,224,38744,1,0,0:0:0:0:
344,200,38911,1,0,0:0:0:0:
384,208,39077,1,8,0:0:0:0:
384,208,39244,1,8,0:0:0:0:
416,216,39411,1,0,0:0:0:0:
408,208,39577,1,0,0:0:0:0:
304,200,39744,1,8,0:0:0:0:
376,192,39827,1,8,0:0:0:0:
360,208,39911,1,0,0:0:0:0:
360,208,39994,1,0,0:0:0:0:
400,224,40077,1,8,0:0:0:0:
400,168,40411,1,8,0:0:0:0:
296,224,40577,1,0,0:0:0:0:
296,224,40661,1,0,0:0:0:0:
296,224,40744,1,0,0:0:0:0:
384,208,40911,1,8,0:0:0:0:
344,200,41077,1,0,0:0:0:0:
208,136,41161,1,0,0:0:0:0:
384,208,41244,1,8,0:0:0:0:
416,216,41411,1,0,0:0:0:0:
376,208,41577,1,8,0:0:0:0:
368,208,41633,1,8,0:0:0:0:
368,208,41689,1,8,0:0:0:0:
344,216,41744,1,0,0:0:0:0:
360,208,41911,1,8,0:0:0:0:
72,176,42077,1,0,0:0:0:0:
400,168,42411,1,8,0:0:0:0:
296,224,42577,1,0,0:0:0:0:
296,224,42661,1,0,0:0:0:0:
296,224,42744,1,0,0:0:0:0:
344,200,42911,1,0,0:0:0:0:
384,208,43077,1,8,0:0:0:0:
384,208,43244,1,8,0:0:0:0:
360,208,43327,1,8,0:0:0:0:
416,216,43411,1,0,0:0:0:0:
408,208,43577,1,8,0:0:0:0:
416,168,43744,1,0,0:0:0:0:
416,168,43911,1,0,0:0:0:0:
456,176,44077,1,8,0:0:0:0:
336,216,44161,1,8,0:0:0:0:
440,136,44244,1,8,0:0:0:0:
296,224,44411,1,0,0:0:0:0:
296,224,44577,1,0,0:0:0:0:
384,208,44744,1,8,0:0:0:0:
184,200,44911,1,0,0:0:0:0:
456,176,45077,1,8,0:0:0:0:
336,216,45161,1,8,0:0:0:0:
440,136,45244,1,8,0:0:0:0:
296,224,45411,1,0,0:0:0:0:
296,224,45577,1,0,0:0:0:0:
384,208,45744,1,8,0:0:0:0:
440,152,46077,1,4,0:0:0:0:
416,216,46244,1,8,0:0:0:0:
416,216,46411,1,8,0:0:0:0:
416,216,46577,1,8,0:0:0:0:
272,152,46744,1,0,0:0:0:0:
416,216,46911,1,8,0:0:0:0:
320,224,47077,1,0,0:0:0:0:
256,224,47244,1,8,0:0:0:0:
256,224,47411,1,8,0:0:0:0:
376,184,47744,1,0,0:0:0:0:
312,176,48077,5,4,0:0:0:0:
416,216,48244,1,8,0:0:0:0:
416,216,48411,1,8,0:0:0:0:
416,216,48577,1,8,0:0:0:0:
272,152,48744,1,0,0:0:0:0:
416,216,48911,1,8,0:0:0:0:
320,224,49077,1,0,0:0:0:0:
256,224,49244,1,8,0:0:0:0:
256,224,49411,1,8,0:0:0:0:
376,176,49494,1,8,0:0:0:0:
376,176,49577,1,8,0:0:0:0:
376,168,49744,1,0,0:0:0:0:
360,168,49911,1,8,0:0:0:0:
440,152,50077,1,4,0:0:0:0:
416,216,50244,1,8,0:0:0:0:
416,216,50411,1,8,0:0:0:0:
416,216,50577,1,8,0:0:0:0:
272,152,50744,1,0,0:0:0:0:
416,216,50911,1,8,0:0:0:0:
320,224,51077,1,0,0:0:0:0:
256,224,51244,1,8,0:0:0:0:
256,224,51411,1,8,0:0:0:0:
376,184,51744,1,0,0:0:0:0:
312,176,52077,5,4,0:0:0:0:
416,216,52244,1,8,0:0:0:0:
416,216,52411,1,8,0:0:0:0:
416,216,52577,1,8,0:0:0:0:
272,152,52744,1,0,0:0:0:0:
416,216,52911,1,8,0:0:0:0:
320,224,53077,1,0,0:0:0:0:
256,224,53244,1,8,0:0:0:0:
256,224,53411,1,8,0:0:0:0:
376,168,53744,1,0,0:0:0:0:
440,152,54077,1,4,0:0:0:0:
416,216,54244,1,8,0:0:0:0:
416,216,54411,1,8,0:0:0:0:
416,216,54577,1,8,0:0:0:0:
272,152,54744,1,0,0:0:0:0:
416,216,54911,1,8,0:0:0:0:
320,224,55077,1,0,0:0:0:0:
256,224,55244,1,8,0:0:0:0:
256,224,55411,1,8,0:0:0:0:
376,184,55744,1,0,0:0:0:0:
312,176,56077,5,4,0:0:0:0:
416,216,56244,1,8,0:0:0:0:
416,216,56411,1,8,0:0:0:0:
416,216,56577,1,8,0:0:0:0:
272,152,56744,1,0,0:0:0:0:
416,216,56911,1,8,0:0:0:0:
320,224,57077,1,0,0:0:0:0:
256,224,57244,1,8,0:0:0:0:
256,224,57411,1,8,0:0:0:0:
376,176,57494,1,8,0:0:0:0:
376,176,57577,1,8,0:0:0:0:
376,168,57744,1,0,0:0:0:0:
360,168,57911,1,8,0:0:0:0:
440,152,58077,1,4,0:0:0:0:
416,216,58244,1,8,0:0:0:0:
416,216,58411,1,8,0:0:0:0:
416,216,58577,1,8,0:0:0:0:
272,152,58744,1,0,0:0:0:0:
416,216,58911,1,8,0:0:0:0:
320,224,59077,1,0,0:0:0:0:
256,224,59244,1,8,0:0:0:0:
256,224,59411,1,8,0:0:0:0:
336,176,59744,1,8,0:0:0:0:
424,200,59911,1,0,0:0:0:0:
480,184,60077,1,8,0:0:0:0:
480,184,60244,1,8,0:0:0:0:
408,192,60577,1,0,0:0:0:0:
408,192,60911,1,0,0:0:0:0:
416,192,61077,1,8,0:0:0:0:
416,192,61411,1,8,0:0:0:0:
416,192,61744,1,8,0:0:0:0:
368,160,62077,1,12,0:0:0:0:
232,184,63077,1,4,0:0:0:0:
272,208,64077,5,4,0:0:0:0:
408,192,64244,1,0,0:0:0:0:
408,192,64327,1,0,0:0:0:0:
448,208,64411,1,8,0:0:0:0:
488,216,64577,1,8,0:0:0:0:
192,168,64744,1,0,0:0:0:0:
192,176,64911,1,0,0:0:0:0:
344,216,65077,1,8,0:0:0:0:
280,176,65411,1,0,0:0:0:0:
280,176,65577,1,0,0:0:0:0:
288,224,65744,1,8,0:0:0:0:
360,200,66077,1,8,0:0:0:0:
432,184,66244,1,8,0:0:0:0:
504,200,66411,1,8,0:0:0:0:
320,208,66577,1,0,0:0:0:0:
456,208,66744,1,8,0:0:0:0:
368,208,66911,1,0,0:0:0:0:
344,176,67077,1,8,0:0:0:0:
232,216,67411,1,0,0:0:0:0:
232,216,67577,1,0,0:0:0:0:
352,224,67744,1,8,0:0:0:0:
352,224,67911,1,8,0:0:0:0:
432,200,68077,1,0,0:0:0:0:
392,208,68244,1,0,0:0:0:0:
424,208,68327,1,0,0:0:0:0:
424,176,68411,1,8,0:0:0:0:
424,176,68577,1,8,0:0:0:0:
320,224,68744,1,0,0:0:0:0:
320,224,68911,1,0,0:0:0:0:
328,224,69077,1,8,0:0:0:0:
400,176,69411,1,0,0:0:0:0:
400,176,69577,1,0,0:0:0:0:
328,192,69744,1,8,0:0:0:0:
320,152,69911,1,8,0:0:0:0:
432,200,70077,1,0,0:0:0:0:
288,168,70411,1,8,0:0:0:0:
216,240,70577,1,0,0:0:0:0:
224,224,70911,1,0,0:0:0:0:
480,200,71077,1,8,0:0:0:0:
424,216,71161,1,8,0:0:0:0:
432,216,71244,1,8,0:0:0:0:
184,224,71411,1,0,0:0:0:0:
80,216,71744,1,8,0:0:0:0:
272,200,72077,1,4,0:0:0:0:
376,224,72411,1,8,0:0:0:0:
376,216,72494,1,8,0:0:0:0:
392,208,72577,1,0,0:0:0:0:
352,232,72744,1,8,0:0:0:0:
312,216,72911,1,0,0:0:0:0:
368,248,73077,1,8,0:0:0:0:
312,232,73244,1,8,0:0:0:0:
360,256,73411,1,0,0:0:0:0:
344,208,73744,1,0,0:0:0:0:
344,208,73911,1,0,0:0:0:0:
368,256,74077,1,8,0:0:0:0:
368,184,74411,1,0,0:0:0:0:
376,208,74577,1,0,0:0:0:0:
288,224,74744,1,8,0:0:0:0:
392,200,74911,1,8,0:0:0:0:
472,208,75077,1,0,0:0:0:0:
424,200,75411,1,8,0:0:0:0:
296,264,75744,1,0,0:0:0:0:
296,264,75911,1,8,0:0:0:0:
392,168,76077,1,0,0:0:0:0:
272,128,76244,1,0,0:0:0:0:
264,224,76411,1,8,0:0:0:0:
384,192,76744,1,0,0:0:0:0:
256,160,76827,1,0,0:0:0:0:
168,200,76911,1,8,0:0:0:0:
168,200,77077,1,8,0:0:0:0:
208,208,77244,1,0,0:0:0:0:
480,192,77411,1,8,0:0:0:0:
472,184,77577,1,8,0:0:0:0:
400,208,77744,1,0,0:0:0:0:
352,232,78077,1,8,0:0:0:0:
400,240,78244,1,8,0:0:0:0:
344,248,78411,1,0,0:0:0:0:
288,192,78577,1,0,0:0:0:0:
408,192,78744,1,8,0:0:0:0:
376,192,78911,5,8,0:0:0:0:
152,240,79077,1,8,0:0:0:0:
376,192,79244,1,0,0:0:0:0:
384,200,79411,1,8,0:0:0:0:
384,200,79577,1,0,0:0:0:0:
376,208,79744,1,8,0:0:0:0:
376,208,79911,1,8,0:0:0:0:
272,208,80077,5,4,0:0:0:0:
408,192,80244,1,0,0:0:0:0:
408,192,80327,1,0,0:0:0:0:
448,208,80411,1,8,0:0:0:0:
488,216,80577,1,0,0:0:0:0:
192,168,80661,1,0,0:0:0:0:
192,168,80744,1,0,0:0:0:0:
192,176,80911,1,0,0:0:0:0:
192,176,80994,1,0,0:0:0:0:
344,216,81077,1,8,0:0:0:0:
368,232,81244,1,8,0:0:0:0:
280,176,81411,1,0,0:0:0:0:
280,176,81577,1,0,0:0:0:0:
288,224,81744,1,8,0:0:0:0:
360,200,82077,1,8,0:0:0:0:
432,184,82244,1,8,0:0:0:0:
432,184,82327,1,8,0:0:0:0:
504,200,82411,1,8,0:0:0:0:
320,208,82577,1,0,0:0:0:0:
456,208,82744,1,8,0:0:0:0:
368,208,82911,1,0,0:0:0:0:
344,176,83077,1,8,0:0:0:0:
344,176,83244,1,8,0:0:0:0:
344,176,83327,1,8,0:0:0:0:
232,216,83411,1,0,0:0:0:0:
232,216,83577,1,0,0:0:0:0:
352,224,83744,1,8,0:0:0:0:
352,224,83911,1,8,0:0:0:0:
432,200,84077,1,4,0:0:0:0:
392,208,84244,1,0,0:0:0:0:
424,208,84327,1,0,0:0:0:0:
424,176,84411,1,8,0:0:0:0:
424,176,84577,1,8,0:0:0:0:
424,176,84661,1,8,0:0:0:0:
320,224,84744,1,0,0:0:0:0:
320,224,84911,1,0,0:0:0:0:
320,224,84994,1,0,0:0:0:0:
328,224,85077,1,8,0:0:0:0:
344,168,85244,1,8,0:0:0:0:
400,176,85411,1,0,0:0:0:0:
400,176,85577,1,0,0:0:0:0:
328,192,85744,1,8,0:0:0:0:
320,152,85911,1,8,0:0:0:0:
432,200,86077,1,0,0:0:0:0:
288,168,86411,1,8,0:0:0:0:
216,240,86577,1,0,0:0:0:0:
248,160,86661,1,0,0:0:0:0:
248,160,86744,1,0,0:0:0:0:
224,224,86911,1,8,0:0:0:0:
480,200,87077,1,8,0:0:0:0:
424,216,87161,1,0,0:0:0:0:
432,216,87244,1,8,0:0:0:0:
432,216,87411,1,8,0:0:0:0:
432,216,87577,1,8,0:0:0:0:
328,224,87744,1,0,0:0:0:0:
328,224,87911,1,0,0:0:0:0:
272,200,88077,1,4,0:0:0:0:
376,224,88411,1,8,0:0:0:0:
376,216,88494,1,8,0:0:0:0:
392,208,88577,1,0,0:0:0:0:
352,232,88744,1,8,0:0:0:0:
312,216,88911,1,0,0:0:0:0:
368,248,89077,1,8,0:0:0:0:
312,232,89244,1,8,0:0:0:0:
360,256,89411,1,0,0:0:0:0:
360,256,89577,1,0,0:0:0:0:
344,208,89661,1,0,0:0:0:0:
344,208,89744,1,0,0:0:0:0:
344,208,89911,1,0,0:0:0:0:
368,256,90077,1,8,0:0:0:0:
368,184,90411,1,0,0:0:0:0:
376,208,90577,1,0,0:0:0:0:
376,208,90661,1,0,0:0:0:0:
288,224,90744,1,8,0:0:0:0:
472,208,90911,1,0,0:0:0:0:
392,200,91077,1,8,0:0:0:0:
424,200,91161,1,8,0:0:0:0:
424,200,91244,1,8,0:0:0:0:
392,168,91411,1,0,0:0:0:0:
392,168,91577,1,0,0:0:0:0:
296,264,91744,1,8,0:0:0:0:
296,264,91911,1,8,0:0:0:0:
392,168,92077,1,4,0:0:0:0:
264,224,92411,1,8,0:0:0:0:
384,192,92577,1,0,0:0:0:0:
384,192,92661,1,0,0:0:0:0:
384,192,92744,1,0,0:0:0:0:
168,200,92911,1,8,0:0:0:0:
168,200,93077,1,8,0:0:0:0:
208,208,93244,1,0,0:0:0:0:
480,192,93411,1,8,0:0:0:0:
480,192,93494,1,8,0:0:0:0:
400,208,93577,1,0,0:0:0:0:
472,184,93744,1,8,0:0:0:0:
264,224,93910,1,0,0:0:0:0:
264,224,93994,1,0,0:0:0:0:
352,232,94077,1,8,0:0:0:0:
344,248,94244,1,0,0:0:0:0:
400,240,94411,1,8,0:0:0:0:
408,192,94577,1,8,0:0:0:0:
408,192,94661,1,8,0:0:0:0:
288,192,94744,1,0,0:0:0:0:
152,240,94911,1,8,0:0:0:0:
376,192,95077,1,0,0:0:0:0:
376,192,95161,1,0,0:0:0:0:
376,192,95244,1,0,0:0:0:0:
376,192,95327,1,0,0:0:0:0:
384,200,95411,1,8,0:0:0:0:
384,200,95494,1,8,0:0:0:0:
384,200,95577,1,8,0:0:0:0:
384,200,95661,1,8,0:0:0:0:
376,192,95744,1,0,0:0:0:0:
496,176,95911,1,8,0:0:0:0:
256,192,96077,12,0,97744,0:0:0:0:
384,208,98077,5,4,0:0:0:0:
504,200,98244,1,8,0:0:0:0:
432,192,98411,1,0,0:0:0:0:
56,152,98494,1,0,0:0:0:0:
416,224,98577,1,8,0:0:0:0:
408,224,98744,1,0,0:0:0:0:
416,224,98911,1,8,0:0:0:0:
240,176,98994,1,8,0:0:0:0:
384,200,99077,1,0,0:0:0:0:
288,216,99244,1,8,0:0:0:0:
392,208,99411,1,0,0:0:0:0:
400,208,99494,1,0,0:0:0:0:
296,232,99577,1,8,0:0:0:0:
384,248,99661,1,0,0:0:0:0:
384,248,99744,1,0,0:0:0:0:
400,240,99827,1,0,0:0:0:0:
368,216,99911,1,8,0:0:0:0:
256,192,100077,12,0,101744,0:0:0:0:
472,160,102077,5,4,0:0:0:0:
464,216,102244,1,8,0:0:0:0:
488,208,102327,1,0,0:0:0:0:
488,208,102411,1,0,0:0:0:0:
472,184,102577,1,8,0:0:0:0:
416,232,102744,1,0,0:0:0:0:
416,232,102827,1,0,0:0:0:0:
344,232,102911,1,8,0:0:0:0:
408,240,102994,1,0,0:0:0:0:
400,240,103077,1,0,0:0:0:0:
368,216,103244,1,8,0:0:0:0:
416,240,103411,1,0,0:0:0:0:
416,240,103494,1,0,0:0:0:0:
352,216,103577,1,8,0:0:0:0:
312,272,103744,1,0,0:0:0:0:
328,240,103911,1,8,0:0:0:0:
256,192,104077,12,0,105744,0:0:0:0:
224,192,106077,5,4,0:0:0:0:
304,176,106244,1,0,0:0:0:0:
304,176,106327,1,0,0:0:0:0:
472,184,106411,1,8,0:0:0:0:
472,184,106577,1,8,0:0:0:0:
392,216,106744,1,0,0:0:0:0:
400,176,106827,1,0,0:0:0:0:
280,232,106911,1,8,0:0:0:0:
360,224,106994,1,8,0:0:0:0:
256,216,107077,1,0,0:0:0:0:
320,184,107244,1,0,0:0:0:0:
320,184,107327,1,0,0:0:0:0:
352,200,107411,1,8,0:0:0:0:
352,200,107577,1,8,0:0:0:0:
384,208,107744,1,0,0:0:0:0:
432,184,107911,1,8,0:0:0:0:
256,192,108077,12,0,109744,0:0:0:0:
304,176,110077,5,4,0:0:0:0:
328,224,110244,1,0,0:0:0:0:
424,200,110327,1,0,0:0:0:0:
448,192,110411,1,8,0:0:0:0:
352,224,110577,1,0,0:0:0:0:
352,224,110661,1,0,0:0:0:0:
344,216,110744,1,8,0:0:0:0:
392,208,110827,1,0,0:0:0:0:
480,192,110911,1,8,0:0:0:0:
480,192,110994,1,8,0:0:0:0:
360,248,111077,1,0,0:0:0:0:
320,192,111244,1,8,0:0:0:0:
320,192,111327,1,8,0:0:0:0:
304,224,111411,1,0,0:0:0:0:
312,232,111577,1,8,0:0:0:0:
360,216,111661,1,8,0:0:0:0:
368,184,111744,1,0,0:0:0:0:
320,192,111911,1,8,0:0:0:0:
224,224,112077,5,4,0:0:0:0:
416,208,112411,1,8,0:0:0:0:
32,192,112522,1,0,0:0:0:0:
32,192,112633,1,0,0:0:0:0:
416,208,112744,1,8,0:0:0:0:
32,192,112855,1,0,0:0:0:0:
32,192,112966,1,0,0:0:0:0:
416,208,113077,1,8,0:0:0:0:
32,192,113189,1,8,0:0:0:0:
32,192,113299,1,0,0:0:0:0:
416,208,113411,1,8,0:0:0:0:
32,192,113523,1,8,0:0:0:0:
32,192,113633,1,0,0:0:0:0:
352,208,113744,1,8,0:0:0:0:
224,200,113855,1,8,0:0:0:0:
328,176,114077,1,4,0:0:0:0:
304,176,114411,1,0,0:0:0:0:
304,176,114744,1,0,0:0:0:0:
304,176,114855,1,0,0:0:0:0:
304,176,114966,1,0,0:0:0:0:
304,176,115077,1,0,0:0:0:0:
