osu file format v14

[General]
AudioFilename: totto.mp3
AudioLeadIn: 0
PreviewTime: 59668
Countdown: 0
SampleSet: Soft
StackLeniency: 0.2
Mode: 0
LetterboxInBreaks: 0
WidescreenStoryboard: 1

[Editor]
DistanceSpacing: 1
BeatDivisor: 2
GridSize: 4
TimelineZoom: 1

[Metadata]
Title:Youkakushi -Ayakashi Kakushi-
TitleUnicode:妖隠し -あやかしかくし-
Artist:DJ TOTTO feat.3L
ArtistUnicode:DJ TOTTO feat.3L
Creator:jonathanlfj
Version:Normal
Source:東方妖々夢 〜 Perfect Cherry Blossom.
Tags:Raose Trust 東方Project Touhou Necrofantasia ネクロファンタジア beatmania IIDX Konami BEMANI×東方Project Ultimate MasterPieces 八雲 紫 Yukari Yakumo ZUN 安保 さゆり Sayuri Anpo Reitaisai 12 博麗神社例大祭12
BeatmapID:1152833
BeatmapSetID:516454

[Difficulty]
HPDrainRate:4.5
CircleSize:3.5
OverallDifficulty:4.5
ApproachRate:5
SliderMultiplier:1.2
SliderTickRate:1

[Events]
//Background and Video events
0,0,"yukari.jpg",0,0
//Break Periods
//Storyboard Layer 0 (Background)
//Storyboard Layer 1 (Fail)
//Storyboard Layer 2 (Pass)
//Storyboard Layer 3 (Foreground)
//Storyboard Sound Samples

[TimingPoints]
445,353.045013239188,6,2,1,50,1,0
445,-111.111111111111,6,2,1,50,0,0
2563,-111.111111111111,6,2,1,60,0,0
3622,-111.111111111111,6,2,1,70,0,0
4681,-100,6,2,1,70,0,0
21627,-111.111111111111,6,2,1,50,0,0
38573,-111.111111111111,6,2,1,60,0,0
59756,-100,6,2,1,70,0,1
76702,-100,6,2,1,70,0,0
93648,-111.111111111111,6,2,1,60,0,0
94708,-100,6,2,1,70,0,0
95767,-90.9090909090909,6,2,1,80,0,1
110595,-90.9090909090909,6,2,1,70,0,0
119068,-111.111111111111,6,2,1,40,0,0
121186,-111.111111111111,6,2,1,10,0,0

[Colours]
Combo1 : 249,54,254
Combo2 : 151,36,255
Combo3 : 187,0,4
Combo4 : 254,147,1

[HitObjects]
368,92,445,6,0,L|492:100,2,107.999996704102,0|2|0,0:0|0:0|0:0,0:0:0:0:
328,128,1327,1,0,0:0:0:0:
288,164,1504,2,0,L|164:172,1,107.999996704102,0|2,0:0|0:0,0:0:0:0:
180,170,2563,6,0,P|192:224|172:300,1,107.999996704102,2|0,0:0|0:0,0:0:0:0:
156,320,3092,2,0,P|232:284|316:300,1,161.999995056152,2|6,0:0|0:0,0:0:0:0:
344,332,3798,1,8,0:0:0:0:
400,240,4151,2,0,L|456:232,2,53.9999983520508,8|8|8,0:0|0:0|0:0,0:0:0:0:
348,212,4681,6,0,B|328:156|328:156|356:80,1,120,6|0,1:2|0:0,0:0:0:0:
256,24,5387,2,0,L|228:92,1,60,2|0,1:2|0:0,0:0:0:0:
208,132,5740,2,0,P|140:156|88:136,1,120,8|2,0:0|0:0,0:0:0:0:
24,236,6446,1,0,0:0:0:0:
116,312,6799,6,0,P|184:288|236:308,1,120,2|2,1:2|0:0,0:0:0:0:
304,208,7505,1,0,1:0:0:0:
208,132,7858,2,0,L|224:64,2,60,8|0|2,0:0|0:0|0:0,0:0:0:0:
152,152,8388,2,0,L|100:120,2,60,8|0|2,0:0|0:0|1:2,0:0:0:0:
160,212,8918,6,0,L|40:272,1,120,2|10,1:2|0:0,0:0:0:0:
152,332,9624,2,0,L|224:296,1,60,2|2,1:2|0:0,0:0:0:0:
256,276,9977,2,0,P|316:296|380:280,2,120,8|2|0,0:0|0:0|0:0,0:0:0:0:
320,176,11036,5,2,1:2:0:0:
432,216,11389,1,2,0:0:0:0:
320,176,11742,1,2,1:2:0:0:
428,124,12095,2,0,P|384:76|320:56,1,120,10|0,0:0|0:0,0:0:0:0:
272,64,12625,2,0,P|220:104|200:160,1,120,10|2,0:0|1:2,0:0:0:0:
200,212,13154,5,6,1:2:0:0:
308,268,13507,1,0,0:0:0:0:
208,332,13860,2,0,P|175:331|132:312,1,60,0|0,1:0|0:0,0:0:0:0:
104,284,14213,2,0,P|84:228|96:152,1,120,8|2,0:0|0:0,0:0:0:0:
156,68,14919,1,0,0:0:0:0:
248,144,15272,6,0,L|376:136,2,120,6|2|0,1:2|0:0|1:0,0:0:0:0:
180,244,16332,2,0,L|148:300,2,60,8|0|2,0:0|0:0|0:0,0:0:0:0:
140,200,16861,2,0,L|72:232,2,60,10|0|2,0:0|0:0|1:2,0:0:0:0:
128,140,17391,6,0,L|0:124,1,120,6|2,1:2|0:0,0:0:0:0:
88,36,18097,2,0,L|168:48,1,60,0|2,1:0|0:0,0:0:0:0:
200,72,18450,2,0,P|224:136|204:204,2,120,8|2|0,0:0|0:0|0:0,0:0:0:0:
104,144,19509,5,2,1:2:0:0:
124,264,19862,1,2,0:0:0:0:
236,304,20215,1,2,1:2:0:0:
332,228,20568,2,0,P|352:284|344:364,1,120,10|2,0:0|0:0,0:0:0:0:
400,308,21098,2,0,P|432:248|432:188,1,120,10|2,0:0|1:2,0:0:0:0:
408,148,21627,5,2,0:0:0:0:
332,228,21980,1,0,0:0:0:0:
236,180,22333,2,0,L|176:176,2,53.9999983520508,0|2|10,0:0|0:0|0:0,0:0:0:0:
332,228,23039,1,0,0:0:0:0:
408,148,23392,1,0,0:0:0:0:
356,52,23745,6,0,P|412:40|480:64,2,107.999996704102,2|0|2,0:0|0:0|0:0,0:0:0:0:
408,148,24805,1,10,0:0:0:0:
332,228,25158,2,0,L|344:292,2,53.9999983520508,2|0|0,0:0|0:0|0:0,0:0:0:0:
296,188,25687,1,2,0:0:0:0:
244,184,25864,6,0,B|208:196|188:232|188:232|148:208|104:220,1,161.999995056153,2|0,0:0|0:0,0:0:0:0:
56,244,26570,1,0,0:0:0:0:
36,140,26923,2,0,P|34:80|56:32,2,107.999996704102,10|0|0,0:0|0:0|0:0,0:0:0:0:
140,104,27982,6,0,B|192:88|192:88|252:96,1,107.999996704102,2|2,0:0|0:0,0:0:0:0:
292,120,28512,1,2,0:0:0:0:
340,144,28688,2,0,B|393:151|393:151|445:135,1,107.999996704102,0|10,0:0|0:0,0:0:0:0:
452,296,29571,2,0,L|532:308,2,53.9999983520508,2|0|2,0:0|0:0|0:0,0:0:0:0:
404,320,30100,6,0,P|340:268|256:292,1,161.999995056153,2|0,0:0|0:0,0:0:0:0:
228,320,30806,1,0,0:0:0:0:
140,256,31159,2,0,L|124:116,1,107.999996704102,10|0,0:0|0:0,0:0:0:0:
188,56,31866,1,0,0:0:0:0:
273,124,32219,6,0,P|205:164|128:149,1,161.999995056153,2|0,0:0|0:0,0:0:0:0:
92,108,32925,2,0,L|76:40,2,53.9999983520508,0|2|8,0:0|0:0|0:0,0:0:0:0:
48,208,33631,1,2,0:0:0:0:
92,108,33984,1,2,0:0:0:0:
160,192,34337,6,0,P|252:208|312:168,1,161.999995056153,2|0,0:0|0:0,0:0:0:0:
320,120,35043,1,0,0:0:0:0:
412,176,35396,2,0,P|431:224|422:289,2,107.999996704102,8|2|2,0:0|0:0|0:0,0:0:0:0:
324,240,36455,6,0,B|260:256|208:216|208:216|168:232,1,161.999995056153,2|0,0:0|0:0,0:0:0:0:
136,272,37161,2,0,P|128:304|128:336,2,53.9999983520508,0|2|8,0:0|0:0|0:0,0:0:0:0:
52,204,37867,1,2,0:0:0:0:
136,136,38220,2,0,P|135:104|124:64,1,53.9999983520508,0|0,0:0|0:0,0:0:0:0:
104,36,38573,6,0,P|164:48|212:40,1,107.999996704102,4|0,0:0|0:0,0:0:0:0:
260,20,39103,2,0,P|313:11|366:24,1,107.999996704102,2|0,0:0|0:0,0:0:0:0:
403,61,39632,1,8,0:1:0:0:
311,119,39986,1,0,0:0:0:0:
406,169,40339,1,8,0:1:0:0:
314,226,40692,6,0,P|302:294|310:334,1,107.999996704102,2|0,0:0|0:0,0:0:0:0:
354,361,41221,2,0,P|413:344|478:357,1,107.999996704102,2|0,0:0|0:0,0:0:0:0:
500,316,41751,2,0,L|488:208,1,107.999996704102,8|0,0:0|0:0,0:0:0:0:
400,144,42457,2,0,L|344:152,1,53.9999983520508,8|2,0:1|0:0,0:0:0:0:
308,188,42810,5,2,0:0:0:0:
212,140,43163,1,0,0:0:0:0:
212,140,43339,2,0,P|208:68|228:20,1,107.999996704102,2|0,0:0|0:0,0:0:0:0:
268,8,43869,1,8,0:1:0:0:
328,100,44222,1,0,0:0:0:0:
328,100,44399,2,0,L|440:92,1,107.999996704102,2|0,0:0|0:0,0:0:0:0:
476,128,44928,6,0,P|488:184|472:232,1,107.999996704102,2|0,0:0|0:0,0:0:0:0:
428,260,45458,2,0,P|352:240|308:252,1,107.999996704102,2|0,0:0|0:0,0:0:0:0:
284,280,45987,1,8,0:0:0:0:
208,204,46340,1,0,0:0:0:0:
144,292,46693,2,0,B|120:300|68:300,1,53.9999983520508,2|2,0:0|0:0,0:0:0:0:
40,284,47046,6,0,B|56:232|56:232|40:176,1,107.999996704102,10|0,0:0|0:0,0:0:0:0:
12,136,47576,2,0,B|15:82|15:82|48:39,1,107.999996704102,2|0,0:0|0:0,0:0:0:0:
100,28,48106,1,8,0:1:0:0:
132,132,48459,1,2,0:0:0:0:
100,28,48812,1,2,0:0:0:0:
204,56,49165,6,0,P|260:60|328:44,1,107.999996704102,2|0,0:0|0:0,0:0:0:0:
356,20,49694,2,0,P|344:96|348:136,1,107.999996704102,2|0,0:0|0:0,0:0:0:0:
376,172,50224,2,0,P|432:156|492:160,1,107.999996704102,8|0,0:0|0:0,0:0:0:0:
444,260,50930,2,0,P|438:288|440:320,1,53.9999983520508,2|2,0:0|0:0,0:0:0:0:
460,364,51283,5,10,0:0:0:0:
352,352,51636,1,0,0:0:0:0:
352,352,51813,2,0,P|328:284|332:232,1,107.999996704102,2|0,0:0|0:0,0:0:0:0:
352,200,52342,1,8,0:1:0:0:
244,196,52695,1,0,0:0:0:0:
244,196,52872,2,0,P|208:240|192:292,1,107.999996704102,2|2,0:0|0:0,0:0:0:0:
200,340,53401,5,2,0:0:0:0:
96,368,53754,1,0,0:0:0:0:
20,292,54107,2,0,P|8:260|8:216,1,53.9999983520508,0|0,0:0|0:0,0:0:0:0:
20,188,54460,2,0,P|76:188|124:164,2,107.999996704102,10|2|2,0:0|0:0|0:0,0:0:0:0:
48,84,55520,6,0,B|96:52|152:60|152:60|184:104|244:104,1,215.999993408203,4|2,0:0|0:0,0:0:0:0:
344,64,56579,1,2,0:0:0:0:
328,172,56932,1,2,0:0:0:0:
244,104,57285,1,10,0:0:0:0:
344,64,57638,6,0,P|428:128|420:232,1,215.999993408203,2|0,0:0|0:0,0:0:0:0:
332,292,58697,2,0,L|192:260,1,107.999996704102,2|8,0:0|0:0,0:0:0:0:
132,316,59403,1,8,0:0:0:0:
120,264,59580,1,8,0:0:0:0:
108,212,59756,6,0,L|124:80,1,120,4|2,1:2|0:0,0:0:0:0:
236,52,60462,2,0,P|268:61|312:56,1,60,0|2,1:0|0:0,0:0:0:0:
352,44,60815,2,0,P|328:116|328:168,1,120,10|0,0:0|0:0,0:0:0:0:
364,208,61345,1,8,0:0:0:0:
256,260,61698,1,0,1:0:0:0:
256,260,61874,6,0,P|192:236|132:240,1,120,2|2,1:2|0:0,0:0:0:0:
36,300,62580,2,0,P|23:268|20:220,1,60,0|2,1:0|0:0,0:0:0:0:
32,184,62933,2,0,P|56:132|52:64,1,120,8|2,0:0|0:0,0:0:0:0:
20,20,63463,2,0,L|152:36,1,120,8|2,0:0|1:2,0:0:0:0:
200,44,63993,5,2,1:2:0:0:
292,120,64346,2,0,L|360:108,2,60,2|8|0,0:0|0:0|1:0,0:0:0:0:
232,132,64875,1,2,0:0:0:0:
232,132,65052,1,8,0:0:0:0:
144,212,65405,2,0,L|84:201,2,60,2|8|0,0:0|0:0|0:0,0:0:0:0:
204,224,65934,1,0,1:0:0:0:
204,224,66111,1,2,1:2:0:0:
292,304,66464,6,0,L|351:293,2,60,2|8|0,0:0|0:0|1:0,0:0:0:0:
232,316,66993,1,2,0:0:0:0:
172,328,67170,2,0,L|112:317,2,60,10|0|10,0:0|0:0|0:0,0:0:0:0:
232,316,67700,2,0,P|276:280|296:216,1,120,10|2,0:0|1:2,0:0:0:0:
280,164,68229,5,6,1:2:0:0:
384,220,68582,1,2,0:0:0:0:
472,140,68935,2,0,P|484:108|484:68,1,60,0|0,1:0|0:0,0:0:0:0:
472,24,69288,2,0,P|400:44|352:32,1,120,10|0,0:0|0:0,0:0:0:0:
304,8,69818,2,0,P|328:72|320:128,1,120,8|0,0:0|1:0,0:0:0:0:
280,164,70347,5,6,1:2:0:0:
184,88,70700,1,2,0:0:0:0:
88,160,71054,2,0,P|88:196|96:220,1,60,0|0,1:0|0:0,0:0:0:0:
136,260,71407,2,0,P|60:248|16:264,1,120,10|0,0:0|0:0,0:0:0:0:
20,320,71936,2,0,P|96:332|140:316,1,120,10|0,0:0|1:0,0:0:0:0:
184,284,72466,5,2,1:2:0:0:
292,336,72819,1,2,0:0:0:0:
348,316,72995,1,8,0:0:0:0:
384,268,73172,2,0,L|452:276,2,60,0|2|8,1:0|0:0|0:0,0:0:0:0:
276,216,73878,1,2,0:0:0:0:
220,236,74054,1,8,0:0:0:0:
184,284,74231,2,0,L|124:276,2,60,2|0|2,0:0|1:0|1:2,0:0:0:0:
292,336,74937,5,2,0:0:0:0:
276,216,75290,2,0,L|280:148,1,60,0|2,1:0|0:0,0:0:0:0:
316,108,75643,2,0,P|252:120|196:96,1,120,8|2,0:0|0:0,0:0:0:0:
144,108,76173,1,8,0:0:0:0:
104,152,76349,2,0,P|96:176|96:224,2,60,10|0|4,0:0|1:0|1:2,0:0:0:0:
216,200,77055,6,0,L|288:204,1,60,2|8,0:0|0:0,0:0:0:0:
328,232,77408,2,0,L|400:236,1,60,0|2,1:0|0:0,0:0:0:0:
440,204,77761,2,0,P|464:140|452:80,1,120,10|2,0:0|0:0,0:0:0:0:
412,52,78291,1,8,0:0:0:0:
320,132,78644,1,0,1:0:0:0:
320,132,78820,6,0,B|260:140|260:140|188:112,1,120,2|0,1:2|0:0,0:0:0:0:
144,128,79350,2,0,B|116:180|116:180|120:248,1,120,8|2,0:0|0:0,0:0:0:0:
156,288,79880,2,0,L|224:272,1,60,10|2,0:0|0:0,0:0:0:0:
328,312,80409,2,0,L|404:336,2,60,10|0|2,0:0|0:0|1:2,0:0:0:0:
272,292,80939,5,2,1:2:0:0:
340,192,81292,2,0,L|412:200,2,60,2|8|2,0:0|0:0|1:2,0:0:0:0:
304,144,81821,1,2,0:0:0:0:
328,88,81998,2,0,P|384:64|452:76,1,120,10|0,0:0|0:0,0:0:0:0:
484,112,82528,1,10,0:0:0:0:
399,198,82881,1,0,1:0:0:0:
399,198,83057,6,0,B|412:324,1,120,2|2,1:2|0:0,0:0:0:0:
372,364,83587,1,8,0:0:0:0:
312,364,83763,2,0,L|296:216,1,120,0|8,1:0|0:0,0:0:0:0:
248,212,84293,1,8,0:0:0:0:
192,232,84469,2,0,B|128:256,2,60,2|8|2,0:0|0:0|0:0,0:0:0:0:
248,212,84999,1,0,1:0:0:0:
304,192,85175,5,6,1:2:0:0:
236,96,85528,2,0,P|204:88|164:88,1,60,2|8,0:0|0:0,0:0:0:0:
128,52,85881,2,0,P|104:68|80:100,1,60,0|2,1:0|0:0,0:0:0:0:
24,96,86234,2,0,P|32:184|64:224,1,120,8|0,0:0|0:0,0:0:0:0:
104,228,86764,1,10,0:0:0:0:
212,172,87117,1,0,1:0:0:0:
212,172,87294,6,0,P|220:244|204:296,1,120,6|2,1:2|0:0,0:0:0:0:
168,332,87823,2,0,P|236:308|304:312,1,120,8|2,0:0|0:0,0:0:0:0:
340,328,88353,2,0,P|356:358|380:380,2,60,10|2|0,0:0|0:0|0:0,0:0:0:0:
328,268,88882,1,10,0:0:0:0:
360,216,89059,2,0,P|368:152|344:84,1,120,2|6,0:0|1:2,0:0:0:0:
248,40,89765,6,0,L|172:48,2,60,2|8|0,0:0|0:0|1:0,0:0:0:0:
300,68,90294,1,2,0:0:0:0:
352,99,90471,2,0,B|408:80|408:80|480:91,1,120,10|0,0:0|0:0,0:0:0:0:
512,132,91001,1,10,0:0:0:0:
420,208,91354,1,0,1:0:0:0:
420,208,91530,6,0,L|428:272,2,60,2|0|2,1:2|1:0|0:0,0:0:0:0:
372,244,92060,2,0,L|360:320,2,60,8|0|2,0:0|1:0|0:0,0:0:0:0:
316,268,92589,2,0,B|288:212|288:212|304:156,1,120,8|0,0:0|0:0,0:0:0:0:
324,100,93119,1,10,0:0:0:0:
284,56,93295,1,10,0:0:0:0:
224,64,93472,1,10,0:0:0:0:
200,120,93648,5,6,1:2:0:0:
200,120,94531,1,8,0:0:0:0:
200,120,94708,2,0,B|188:240|188:240|208:213|236:204,1,180,2|10,1:2|0:0,0:0:0:0:
296,196,95414,2,0,P|324:200|364:224,1,60,2|10,0:0|0:0,0:0:0:0:
396,256,95767,6,0,P|420:200|412:112,1,132.00000402832,6|0,1:2|0:0,0:0:0:0:
324,36,96473,2,0,P|288:44|240:40,1,66.0000020141602,0|2,1:0|0:0,0:0:0:0:
196,24,96826,2,0,P|212:80|192:164,1,132.00000402832,8|2,0:0|0:0,0:0:0:0:
144,188,97356,2,0,P|224:176|292:204,1,132.00000402832,8|0,0:0|0:0,0:0:0:0:
312,240,97886,5,2,1:2:0:0:
384,132,98239,2,0,L|372:48,2,66.0000020141602,2|0|0,0:0|0:0|0:0,0:0:0:0:
392,196,98768,1,2,0:0:0:0:
392,196,98945,1,8,0:0:0:0:
272,248,99297,2,0,L|260:332,2,66.0000020141602,2|8|0,0:0|0:0|0:0,0:0:0:0:
280,184,99826,1,2,1:2:0:0:
280,184,100003,1,2,1:2:0:0:
156,140,100356,6,0,L|144:56,2,66.0000020141602,2|8|0,0:0|0:0|1:0,0:0:0:0:
164,204,100885,1,0,0:0:0:0:
116,252,101062,2,0,L|60:304,2,66.0000020141602,10|8|0,0:0|0:0|0:0,0:0:0:0:
164,204,101593,2,0,P|232:192|304:236,1,132.00000402832,10|8,0:0|0:0,0:0:0:0:
308,280,102122,5,6,1:2:0:0:
408,192,102475,1,2,0:0:0:0:
492,292,102828,2,0,P|456:316|416:328,1,66.0000020141602,0|0,1:0|0:0,0:0:0:0:
372,308,103181,2,0,B|308:292|308:292|244:312,1,132.00000402832,10|0,0:0|0:0,0:0:0:0:
184,292,103710,2,0,B|160:232|160:232|180:152,1,132.00000402832,8|0,0:0|1:0,0:0:0:0:
236,136,104240,5,6,1:2:0:0:
340,216,104593,1,2,0:0:0:0:
236,136,104946,2,0,L|228:60,1,66.0000020141602,0|2,1:0|0:0,0:0:0:0:
184,24,105299,2,0,P|260:48|328:24,1,132.00000402832,10|2,0:0|0:0,0:0:0:0:
372,56,105828,2,0,P|400:44|444:40,2,66.0000020141602,8|0|2,0:0|0:0|1:2,0:0:0:0:
344,116,106358,5,6,1:2:0:0:
404,232,106711,1,2,0:0:0:0:
376,292,106888,1,8,0:0:0:0:
316,316,107064,2,0,P|284:324|244:320,2,66.0000020141602,0|0|10,1:0|0:0|0:0,0:0:0:0:
272,192,107770,1,0,0:0:0:0:
220,148,107947,1,8,0:0:0:0:
156,136,108123,2,0,P|128:140|92:160,1,66.0000020141602,2|0,0:0|1:0,0:0:0:0:
56,212,108476,6,0,P|64:144|40:76,2,132.00000402832,2|2|0,1:2|0:0|1:0,0:0:0:0:
16,264,109359,1,2,0:0:0:0:
44,324,109535,2,0,B|104:336|104:336|188:296,1,132.00000402832,8|2,0:0|0:0,0:0:0:0:
232,328,110065,1,8,0:0:0:0:
296,308,110241,2,0,L|372:320,2,66.0000020141602,8|2|6,0:0|1:2|1:2,0:0:0:0:
232,192,110948,5,2,0:0:0:0:
352,136,111301,2,0,L|432:148,1,66.0000020141602,0|2,1:0|0:0,0:0:0:0:
476,180,111654,2,0,P|444:92|456:44,1,132.00000402832,8|0,0:0|0:0,0:0:0:0:
328,8,112360,1,0,0:0:0:0:
224,92,112713,6,0,P|152:92|96:60,1,132.00000402832,2|2,1:2|0:0,0:0:0:0:
12,164,113419,1,0,1:0:0:0:
112,248,113772,2,0,P|116:280|108:324,2,66.0000020141602,10|0|2,0:0|0:0|0:0,0:0:0:0:
160,204,114302,2,0,P|192:220|224:248,2,66.0000020141602,8|0|2,0:0|0:0|1:2,0:0:0:0:
156,140,114831,6,0,P|228:120|288:128,1,132.00000402832,6|2,1:2|0:0,0:0:0:0:
415,139,115537,2,0,P|407:170|391:199,1,66.0000020141602,0|2,1:0|0:0,0:0:0:0:
340,244,115890,2,0,P|404:276|476:271,1,132.00000402832,10|2,0:0|0:0,0:0:0:0:
360,356,116596,2,0,P|328:348|276:348,1,66.0000020141602,0|2,0:0|1:2,0:0:0:0:
232,368,116949,5,2,1:2:0:0:
296,252,117302,1,2,0:0:0:0:
212,148,117655,1,10,1:2:0:0:
296,252,118008,2,0,P|372:240|412:192,1,132.00000402832,10|0,0:0|0:0,0:0:0:0:
416,136,118538,2,0,P|387:110|348:96,1,66.0000020141602,10|2,0:0|1:2,0:0:0:0:
296,108,118891,1,2,1:2:0:0:
256,192,119068,12,0,121186,0:0:0:0:
