osu file format v14

[General]
AudioFilename: totto.mp3
AudioLeadIn: 0
PreviewTime: 59668
Countdown: 0
SampleSet: Soft
StackLeniency: 0.2
Mode: 0
LetterboxInBreaks: 0
WidescreenStoryboard: 1

[Editor]
DistanceSpacing: 1
BeatDivisor: 2
GridSize: 4
TimelineZoom: 1

[Metadata]
Title:Youkakushi -Ayakashi Kakushi-
TitleUnicode:妖隠し -あやかしかくし-
Artist:DJ TOTTO feat.3L
ArtistUnicode:DJ TOTTO feat.3L
Creator:jonathanlfj
Version:Easy
Source:東方妖々夢 〜 Perfect Cherry Blossom.
Tags:Raose Trust 東方Project Touhou Necrofantasia ネクロファンタジア beatmania IIDX Konami BEMANI×東方Project Ultimate MasterPieces 八雲 紫 Yukari Yakumo ZUN 安保 さゆり Sayuri Anpo Reitaisai 12 博麗神社例大祭12
BeatmapID:1152832
BeatmapSetID:516454

[Difficulty]
HPDrainRate:2
CircleSize:3
OverallDifficulty:2.5
ApproachRate:3
SliderMultiplier:0.9
SliderTickRate:1

[Events]
//Background and Video events
0,0,"yukari.jpg",0,0
//Break Periods
//Storyboard Layer 0 (Background)
//Storyboard Layer 1 (Fail)
//Storyboard Layer 2 (Pass)
//Storyboard Layer 3 (Foreground)
//Storyboard Sound Samples

[TimingPoints]
445,353.045013239188,6,2,1,50,1,0
445,-111.111111111111,6,2,1,50,0,0
2563,-111.111111111111,6,2,1,60,0,0
3622,-111.111111111111,6,2,1,70,0,0
4681,-100,6,2,1,70,0,0
21627,-111.111111111111,6,2,1,50,0,0
38573,-111.111111111111,6,2,1,60,0,0
59756,-100,6,2,1,70,0,1
76702,-100,6,2,1,70,0,0
95767,-100,6,2,1,80,0,1
110595,-100,6,2,1,70,0,0
119068,-100,6,2,1,40,0,0
121186,-100,6,2,1,10,0,0

[Colours]
Combo1 : 249,54,254
Combo2 : 151,36,255
Combo3 : 187,0,4
Combo4 : 254,147,1

[HitObjects]
156,168,445,6,0,L|40:184,2,80.9999975280763,0|2|0,0:0|0:0|0:0,0:0:0:0:
212,228,1504,2,0,P|296:224|328:160,1,161.999995056153
300,84,2563,2,0,L|468:64,1,161.999995056153,2|0,0:0|0:0,0:0:0:0:
496,144,3622,1,6,0:0:0:0:
496,144,3798,2,0,B|464:192|464:192|460:276,1,121.499996292114,8|8,0:0|0:0,0:0:0:0:
412,332,4681,6,0,P|452:344|508:336,2,90,6|0|2,1:2|0:0|1:2,0:0:0:0:
368,252,5740,2,0,P|296:224|192:260,1,180,8|0,0:0|0:0,0:0:0:0:
136,188,6799,2,0,L|156:68,1,90,2|2,1:2|0:0,0:0:0:0:
164,12,7505,1,0,1:0:0:0:
80,48,7858,2,0,B|215:62|215:62|272:56,1,180,8|0,0:0|0:0,0:0:0:0:
348,44,8918,6,0,L|456:56,2,90,2|10|2,1:2|0:0|1:2,0:0:0:0:
316,128,9977,2,0,B|317:176|352:208|352:208|323:244|333:293,1,180,8|0,0:0|0:0,0:0:0:0:
419,267,11036,2,0,P|467:247|495:219,1,90,2|2,1:2|0:0,0:0:0:0:
504,132,11742,1,2,1:2:0:0:
460,52,12095,2,0,P|364:32|316:48,1,135,10|10,0:0|0:0,0:0:0:0:
252,88,12978,1,2,1:2:0:0:
252,88,13154,6,0,P|206:89|140:76,2,90,6|0|0,1:2|0:0|1:0,0:0:0:0:
332,128,14213,2,0,P|336:208|260:272,1,180,8|0,0:0|0:0,0:0:0:0:
191,220,15272,2,0,P|178:263|184:307,1,90,6|2,1:2|0:0,0:0:0:0:
260,356,15978,1,0,1:0:0:0:
340,316,16332,2,0,B|404:296|460:320|460:320|484:300|492:272,1,180,8|0,0:0|0:0,0:0:0:0:
464,188,17391,6,0,P|464:136|480:84,2,90,6|2|0,1:2|0:0|1:0,0:0:0:0:
380,216,18450,2,0,P|376:120|412:28,1,180,8|0,0:0|0:0,0:0:0:0:
316,16,19509,2,0,P|256:28|224:48,1,90,2|2,1:2|0:0,0:0:0:0:
196,124,20215,1,2,1:2:0:0:
256,192,20568,2,0,P|192:212|120:176,2,135,10|10|2,0:0|0:0|0:0,0:0:0:0:
428,20,22686,5,10,0:0:0:0:
256,192,23745,2,0,L|256:284,2,80.9999975280763,2|0|2,0:0|0:0|0:0,0:0:0:0:
188,148,24805,2,0,P|256:112|336:172,1,161.999995056153,10|0,0:0|0:0,0:0:0:0:
256,192,25864,5,2,0:0:0:0:
84,20,26923,1,10,0:0:0:0:
256,192,27982,2,0,P|300:196|344:184,1,80.9999975280763,2|2,0:0|0:0,0:0:0:0:
380,120,28688,2,0,L|424:120,2,40.4999987640381,0|2|10,0:0|0:0|0:0,0:0:0:0:
164,232,30100,6,0,P|172:320|248:364,1,161.999995056153,2|0,0:0|0:0,0:0:0:0:
300,324,31159,2,0,P|292:236|216:192,1,161.999995056153,10|0,0:0|0:0,0:0:0:0:
164,232,32219,2,0,B|80:224|80:224|40:192,2,121.499996292114,2|0|8,0:0|0:0|0:0,0:0:0:0:
236,195,33631,1,2,0:0:0:0:
224,116,33984,1,2,0:0:0:0:
144,104,34337,6,0,P|208:36|280:56,1,161.999995056153,2|0,0:0|0:0,0:0:0:0:
304,120,35396,2,0,P|381:125|428:62,1,161.999995056153,8|2,0:0|0:0,0:0:0:0:
348,52,36455,2,0,L|364:236,1,161.999995056153,2|0,0:0|0:0,0:0:0:0:
424,268,37514,2,0,B|464:280|464:280|512:272,2,80.9999975280763,8|2|0,0:0|0:0|0:0,0:0:0:0:
362,213,38573,6,0,B|322:201|322:201|274:209,1,80.9999975280763,4|0,0:0|0:0,0:0:0:0:
248,228,39103,2,0,P|264:132|256:92,1,121.499996292114,2|8,0:0|0:1,0:0:0:0:
204,48,39986,1,0,0:0:0:0:
124,52,40339,1,8,0:1:0:0:
80,120,40692,2,0,P|81:182|108:240,2,121.499996292114,2|2|8,0:0|0:0|0:0,0:0:0:0:
216,32,42457,1,8,0:1:0:0:
280,80,42810,6,0,P|328:88|368:84,1,80.9999975280763,2|0,0:0|0:0,0:0:0:0:
396,64,43339,2,0,L|376:188,1,121.499996292114,2|8,0:0|0:1,0:0:0:0:
421,251,44222,2,0,P|361:263|305:223,1,121.499996292114
284,264,44928,2,0,P|225:276|174:247,2,121.499996292114,2|2|8,0:0|0:0|0:0,0:0:0:0:
240,196,46340,1,0,0:0:0:0:
244,115,46693,1,2,0:0:0:0:
308,64,47046,6,0,L|400:72,1,80.9999975280763,10|0,0:0|0:0,0:0:0:0:
420,96,47576,2,0,P|440:168|416:228,1,121.499996292114,2|8,0:0|0:1,0:0:0:0:
356,248,48459,1,2,0:0:0:0:
280,220,48812,1,2,0:0:0:0:
256,144,49165,2,0,L|272:24,2,121.499996292114,2|2|8,0:0|0:0|0:0,0:0:0:0:
184,288,50930,1,2,0:0:0:0:
124,232,51283,6,0,L|104:140,1,80.9999975280763,10|0,0:0|0:0,0:0:0:0:
132,120,51813,2,0,P|192:128|248:96,1,121.499996292114,2|8,0:0|0:1,0:0:0:0:
324,84,52695,2,0,P|384:112|412:164,1,121.499996292114,0|2,0:0|0:0,0:0:0:0:
404,200,53401,2,0,B|348:260|348:260|344:340,1,161.999995056153,2|0,0:0|0:0,0:0:0:0:
264,328,54460,2,0,L|268:244,2,80.9999975280763,10|2|2,0:0|0:0|0:0,0:0:0:0:
256,192,55520,12,2,57638,0:0:0:0:
268,280,59756,6,0,L|176:296,2,90,4|2|0,1:2|0:0|1:0,0:0:0:0:
348,320,60815,2,0,P|428:288|436:188,1,180,10|2,0:0|0:0,0:0:0:0:
364,160,61874,2,0,P|354:97|377:47,1,90,2|2,1:2|0:0,0:0:0:0:
441,114,62580,1,0,1:0:0:0:
442,203,62933,2,0,L|300:236,2,135,8|8|2,0:0|0:0|1:2,0:0:0:0:
444,112,64346,6,0,L|448:56,2,45,2|8|0,0:0|0:0|1:0,0:0:0:0:
356,84,65052,1,8,0:0:0:0:
288,144,65405,2,0,L|264:96,2,45,2|8|0,0:0|0:0|0:0,0:0:0:0:
200,168,66111,1,2,1:2:0:0:
176,256,66464,2,0,L|120:224,2,45,2|8|0,0:0|0:0|1:0,0:0:0:0:
264,232,67170,2,0,P|325:231|380:280,1,135,10|10,0:0|0:0,0:0:0:0:
448,216,68053,1,2,1:2:0:0:
448,216,68229,6,0,P|456:156|444:112,2,90,6|2|0,1:2|0:0|1:0,0:0:0:0:
368,172,69288,2,0,B|308:176|308:176|256:200|256:200|192:204,1,180,10|2,0:0|0:0,0:0:0:0:
112,164,70347,2,0,B|100:120|100:120|112:64,1,90,6|2,1:2|0:0,0:0:0:0:
192,116,71054,1,0,1:0:0:0:
193,203,71407,2,0,B|176:272|176:272|128:320,2,135,10|10|2,0:0|0:0|1:2,0:0:0:0:
192,116,72819,6,0,L|124:136,2,45,2|8|0,0:0|0:0|1:0,0:0:0:0:
272,160,73525,1,8,0:0:0:0:
352,200,73878,2,0,L|420:180,2,45,2|8|2,0:0|0:0|0:0,0:0:0:0:
276,248,74584,2,0,B|264:280|264:312|264:312|220:348|156:336,1,180,2|0,1:2|1:0,0:0:0:0:
100,264,75643,1,8,0:0:0:0:
156,192,75996,1,2,0:0:0:0:
96,124,76349,2,0,L|32:128,2,45,10|0|4,0:0|1:0|1:2,0:0:0:0:
164,64,77055,6,0,B|200:56|200:56|224:80|224:80|256:64|256:64|292:80|332:72,1,180,2|10,0:0|0:0,0:0:0:0:
404,24,78114,2,0,P|416:80|404:120,1,90,2|2,0:0|0:0,0:0:0:0:
336,164,78820,2,0,B|312:204|328:252|328:252|344:276|344:276|332:304|332:304|344:332,1,180,2|2,1:2|1:2,0:0:0:0:
432,308,79880,2,0,P|468:232|456:164,1,135,10|10,0:0|0:0,0:0:0:0:
412,116,80762,1,2,1:2:0:0:
412,116,80939,6,0,L|300:130,2,90,2|2|2,1:2|0:0|1:2,0:0:0:0:
368,36,81998,2,0,L|188:60,1,180,10|2,0:0|0:0,0:0:0:0:
128,124,83057,1,2,1:2:0:0:
40,104,83410,2,0,L|24:48,2,45,2|8|0,0:0|0:0|1:0,0:0:0:0:
68,188,84116,2,0,L|44:344,2,135,8|8|6,0:0|0:0|1:2,0:0:0:0:
148,232,85528,6,0,B|184:240|184:240|208:216|208:216|240:232|240:232|276:216|316:224,1,180,2|8,0:0|0:0,0:0:0:0:
384,172,86587,2,0,P|396:116|384:76,1,90,0|0,0:0|0:0,0:0:0:0:
312,36,87293,2,0,B|264:48|224:28|224:28|200:44|200:44|172:32|172:32|144:44,1,180,6|2,1:2|1:2,0:0:0:0:
172,132,88353,2,0,P|160:200|104:240,1,135,10|10,0:0|0:0,0:0:0:0:
80,152,89235,1,2,1:2:0:0:
80,152,89412,6,0,P|40:180|20:220,2,90,6|2|0,1:2|0:0|1:0,0:0:0:0:
110,238,90471,2,0,B|136:280|136:280|216:304|260:244,1,180,10|0,0:0|0:0,0:0:0:0:
305,178,91530,1,2,1:2:0:0:
233,126,91883,1,2,0:0:0:0:
181,198,92236,1,0,1:0:0:0:
254,250,92589,2,0,L|396:212,1,135,8|10,0:0|0:0,0:0:0:0:
340,136,93472,2,0,L|268:132,1,45,10|6,0:0|1:2,0:0:0:0:
28,104,94708,6,0,L|220:52,1,180,2|2,1:2|0:0,0:0:0:0:
284,96,95767,6,0,P|300:156|292:192,1,90,6|0,1:2|0:0,0:0:0:0:
232,244,96473,1,0,1:0:0:0:
147,213,96826,2,0,P|212:157|295:182,1,180,8|2,0:0|0:0,0:0:0:0:
320,268,97885,5,2,1:2:0:0:
384,204,98238,2,0,L|440:188,2,45,2|8|0,0:0|0:0|1:0,0:0:0:0:
294,181,98944,1,8,0:0:0:0:
230,117,99297,2,0,L|174:101,2,45,2|8|0,0:0|0:0|0:0,0:0:0:0:
316,96,100003,1,2,1:2:0:0:
380,32,100356,2,0,L|436:16,2,45,2|8|0,0:0|0:0|1:0,0:0:0:0:
404,120,101062,2,0,B|440:176|440:176|508:200,1,135,10|10,0:0|0:0,0:0:0:0:
500,288,101945,1,0,1:0:0:0:
500,288,102121,6,0,B|476:328|476:328|424:352,2,90,6|2|0,1:2|0:0|1:0,0:0:0:0:
416,260,103181,2,0,B|388:264|360:248|360:248|304:280|240:256,1,180,10|2,0:0|0:0,0:0:0:0:
180,192,104240,2,0,L|192:76,1,90,6|2,1:2|0:0,0:0:0:0:
116,52,104946,1,0,1:0:0:0:
56,120,105299,2,0,B|44:252|44:252|72:292,1,180,10|0,0:0|0:0,0:0:0:0:
128,360,106358,5,6,1:2:0:0:
164,276,106711,2,0,L|168:220,2,45,2|8|0,0:0|0:0|1:0,0:0:0:0:
220,348,107417,1,10,0:0:0:0:
256,264,107770,2,0,L|260:208,2,45,0|8|2,0:0|0:0|0:0,0:0:0:0:
312,336,108476,2,0,P|404:328|436:240,1,180,2|0,1:2|1:0,0:0:0:0:
348,256,109535,1,8,0:0:0:0:
348,168,109888,1,2,0:0:0:0:
436,168,110241,2,0,L|504:168,2,45,8|2|6,0:0|1:2|1:2,0:0:0:0:
392,88,110948,6,0,P|328:80|288:96,1,90,2|0,0:0|1:0,0:0:0:0:
260,164,111654,2,0,P|180:184|100:124,1,180,8|0,0:0|0:0,0:0:0:0:
32,184,112713,2,0,B|24:228|24:228|36:280,1,90,2|2,1:2|0:0,0:0:0:0:
104,328,113419,1,0,1:0:0:0:
184,288,113772,2,0,B|228:272|228:272|364:284,1,180,10|0,0:0|0:0,0:0:0:0:
432,340,114831,6,0,P|448:288|440:240,2,90,6|2|0,1:2|0:0|1:0,0:0:0:0:
360,283,115890,2,0,P|372:200|456:164,1,180,10|0,0:0|0:0,0:0:0:0:
424,80,116949,2,0,P|368:96|332:120,1,90,2|2,1:2|0:0,0:0:0:0:
284,184,117655,1,10,1:2:0:0:
228,252,118008,2,0,P|184:264|132:268,1,90,10|10,0:0|0:0,0:0:0:0:
96,252,118538,2,0,L|80:144,1,90,10|2,0:0|1:2,0:0:0:0:
256,192,119068,12,0,121186,0:0:0:0:
