osu file format v14

[General]
AudioFilename: audio.mp3
AudioLeadIn: 0
PreviewTime: 44061
Countdown: 0
SampleSet: Soft
StackLeniency: 0.7
Mode: 0
LetterboxInBreaks: 0
WidescreenStoryboard: 0

[Editor]
Bookmarks: 24248,44783,65318,75585,85852,96120
DistanceSpacing: 0.4
BeatDivisor: 4
GridSize: 4
TimelineZoom: 2.599999

[Metadata]
Title:illumina
TitleUnicode:illumina
Artist:DJ TOTTO feat. *spiLa*
ArtistUnicode:DJ TOTTO feat. *spiLa*
Creator:Toyosaki Aki
Version:meg's insane*
Source:pop'n music ラピストリア
Tags:bemani hiumi 田川 義浩 yoshihiro tagawa 兎々 Nanashima Asami kurantemelodii Firis Mistlud [_-Scarlet-_] HappyRocket88 Meg iMage--
BeatmapID:1500044
BeatmapSetID:582132

[Difficulty]
HPDrainRate:6
CircleSize:4
OverallDifficulty:7
ApproachRate:9
SliderMultiplier:1.6
SliderTickRate:1

[Events]
//Background and Video events
0,0,"illumina.jpg",0,0
//Break Periods
2,85852,92953
//Storyboard Layer 0 (Background)
//Storyboard Layer 1 (Fail)
//Storyboard Layer 2 (Pass)
//Storyboard Layer 3 (Foreground)
//Storyboard Sound Samples

[TimingPoints]
1147,320.855614973262,4,2,1,50,1,0
1147,-133.333333333333,4,2,1,50,0,0
24248,-100,4,2,1,60,0,0
44783,-90.9090909090909,4,2,1,70,0,1
64034,-90.9090909090909,4,2,1,60,0,0
85852,-90.9090909090909,4,2,1,40,0,0
93553,-200,4,2,1,40,0,0
94676,-90.9090909090909,4,2,1,50,0,0
95478,-90.9090909090909,4,2,1,60,0,0
95799,-90.9090909090909,4,2,1,70,0,0
96120,-90.9090909090909,4,2,1,80,0,1
105104,-90.9090909090909,4,2,1,50,0,0
108794,-90.9090909090909,4,2,1,20,0,0

[Colours]
Combo1 : 230,140,43
Combo2 : 86,135,226

[HitObjects]
160,152,1147,6,0,P|213:127|272:135,1,120.000004577637,0|0,0:0|0:0,0:0:0:0:
352,232,1628,2,0,P|298:256|239:248,1,120.000004577637,0|0,0:0|0:0,0:0:0:0:
279,75,2109,2,0,P|277:105|272:135,1,60.0000022888184,0|0,0:0|0:0,0:0:0:0:
256,192,2430,12,4,3713,0:3:0:0:
36,342,4676,6,0,P|53:318|79:303,1,60.0000022888184,0|0,0:0|0:0,0:0:0:0:
182,235,4997,2,0,P|211:286|265:310,1,120.000004577637,0|0,0:0|0:0,0:0:0:0:
441,315,5478,2,0,P|412:305|383:308,1,60.0000022888184,0|0,0:0|0:0,0:0:0:0:
404,176,5799,2,0,P|377:188|358:211,1,60.0000022888184,0|0,3:0|0:0,0:0:0:0:
279,103,6120,1,0,0:0:0:0:
279,103,6280,6,0,P|257:157|256:218,1,120.000004577637,4|0,0:3|0:0,0:0:0:0:
462,52,6922,1,8,0:0:0:0:
394,210,7403,2,0,P|396:225|403:239,1,30.0000011444092,0|0,0:0|0:0,0:0:0:0:
466,316,7564,6,0,P|452:310|437:309,3,30.0000011444092,0|0|0|0,0:0|0:0|0:0|0:0,0:0:0:0:
358,303,7884,2,0,P|350:315|339:325,3,30.0000011444092,0|0|0|0,0:0|0:0|0:0|0:0,0:0:0:0:
258,355,8205,2,0,P|252:325|242:297,1,60.0000022888184,8|0,0:0|3:0,0:0:0:0:
142,267,8526,2,0,P|147:237|157:209,1,60.0000022888184,0|0,0:0|0:0,0:0:0:0:
263,66,8847,6,0,P|314:90|311:147,1,120.000004577637,4|0,0:3|0:0,0:0:0:0:
260,286,9328,2,0,L|141:266,1,120.000004577637,0|0,0:0|0:0,0:0:0:0:
57,126,9810,1,0,0:0:0:0:
172,81,9970,1,0,0:0:0:0:
172,81,10050,1,0,0:0:0:0:
172,81,10130,6,0,P|197:99|204:130,1,60.0000022888184,0|0,1:0|0:0,0:0:0:0:
291,237,10451,2,0,P|269:257|259:285,1,60.0000022888184,0|0,0:0|0:0,0:0:0:0:
146,341,10772,2,0,P|90:321|32:308,1,120.000004577637,8|0,0:0|0:0,0:0:0:0:
262,370,11253,1,0,0:0:0:0:
262,370,11414,6,0,P|318:349|376:336,1,120.000004577637,4|0,0:3|1:0,0:0:0:0:
495,311,11895,2,0,P|490:340|479:368,1,60.0000022888184,0|8,0:0|0:0,0:0:0:0:
415,230,12216,2,0,P|403:202|398:172,1,60.0000022888184,0|0,0:0|0:0,0:0:0:0:
485,44,12537,1,0,0:0:0:0:
485,44,12617,1,0,0:0:0:0:
485,43,12697,6,0,P|474:54|462:63,3,30.0000011444092,0|0|0|0,0:0|0:0|0:0|0:0,0:0:0:0:
396,98,13018,2,0,P|381:97|366:95,3,30.0000011444092,0|0|0|0,0:0|0:0|0:0|0:0,0:0:0:0:
292,70,13339,2,0,P|261:38|222:17,2,90.0000034332277,8|8|8,0:0|0:0|0:0,0:0:0:0:
191,157,13981,6,0,L|311:149,1,120.000004577637,4|0,0:3|0:0,0:0:0:0:
211,299,14462,2,0,P|154:281|122:231,1,120.000004577637,0|0,0:0|0:0,0:0:0:0:
311,149,14943,2,0,L|315:208,1,60.0000022888184,0|0,0:0|0:0,0:0:0:0:
316,222,15184,1,0,0:0:0:0:
317,237,15264,6,0,L|325:356,1,120.000004577637,0|0,0:0|0:0,0:0:0:0:
401,160,15745,2,0,L|403:130,2,30.0000011444092,0|0|8,0:0|0:0|0:0,0:0:0:0:
316,237,16066,2,0,P|259:250|208:223,1,120.000004577637,0|0,3:0|0:0,0:0:0:0:
147,97,16548,6,0,P|107:141|51:159,2,120.000004577637,4|0|8,0:3|0:0|0:0,0:0:0:0:
105,357,17671,2,0,L|93:329,1,30.0000011444092,0|0,0:0|0:0,0:0:0:0:
21,239,17831,6,0,L|50:243,3,30.0000011444092,0|0|0|0,0:0|0:0|0:0|0:0,0:0:0:0:
123,260,18152,2,0,L|152:264,3,30.0000011444092,0|0|0|0,0:0|0:0|0:0|0:0,0:0:0:0:
225,281,18473,2,0,L|284:289,1,60.0000022888184,8|0,0:0|0:0,0:0:0:0:
462,241,18794,2,0,L|403:233,1,60.0000022888184,8|8,0:0|0:0,0:0:0:0:
285,172,19114,6,0,B|268:115|268:115|284:56,1,120.000004577637,4|0,0:3|1:0,0:0:0:0:
167,112,19596,2,0,P|155:139|144:167,1,60.0000022888184,0|8,0:0|0:0,0:0:0:0:
42,40,19917,2,0,P|53:68|65:96,1,60.0000022888184,0|0,0:0|0:0,0:0:0:0:
63,235,20237,1,0,0:0:0:0:
63,235,20318,1,0,0:0:0:0:
63,235,20398,6,0,L|4:223,1,60.0000022888184,0|0,1:0|0:0,0:0:0:0:
110,344,20719,2,0,P|148:320|173:283,1,90.0000034332277,0|0,0:0|0:0,0:0:0:0:
181,257,21040,1,8,0:0:0:0:
64,96,21200,1,0,0:0:0:0:
63,235,21360,1,0,0:0:0:0:
176,137,21521,1,0,0:0:0:0:
325,147,21681,6,0,L|441:176,1,120.000004577637,4|0,0:3|0:0,0:0:0:0:
488,53,22163,2,0,P|464:72|441:90,1,60.0000022888184,0|8,0:0|0:0,0:0:0:0:
325,147,22483,1,0,3:0:0:0:
388,254,22644,1,8,0:0:0:0:
397,282,22724,1,0,0:0:0:0:
398,306,22804,1,8,0:0:0:0:
395,323,22884,1,0,0:0:0:0:
390,334,22965,5,4,0:0:0:0:
390,334,24248,6,0,L|231:312,1,160,4|0,0:3|0:0,0:0:0:0:
129,195,24729,1,0,0:0:0:0:
31,275,24890,2,0,P|23:314|24:354,1,80,0|0,0:0|0:0,0:0:0:0:
231,312,25211,1,0,0:0:0:0:
113,221,25371,1,0,0:0:0:0:
277,218,25532,6,0,L|395:201,1,120,0|0,0:0|0:0,0:0:0:0:
420,198,25852,2,0,P|420:158|413:118,1,80,0|0,0:0|0:0,0:0:0:0:
403,108,26093,1,0,0:0:0:0:
391,101,26173,2,0,L|311:90,1,80,0|0,0:0|0:0,0:0:0:0:
277,218,26494,2,0,L|197:207,1,80,0|0,0:0|3:0,0:0:0:0:
108,44,26815,6,0,P|68:111|86:187,1,160,0|0,3:0|0:0,0:0:0:0:
277,218,27296,1,0,0:0:0:0:
172,127,27457,1,0,0:0:0:0:
145,263,27617,1,0,0:0:0:0:
265,228,27778,1,0,0:0:0:0:
160,137,27938,1,0,0:0:0:0:
133,273,28098,6,0,L|140:352,1,80,0|0,0:0|0:0,0:0:0:0:
253,238,28419,2,0,L|245:158,1,80,0|0,0:0|0:0,0:0:0:0:
251,144,28660,1,0,0:0:0:0:
257,130,28740,2,0,P|296:133|335:142,1,80,0|0,0:0|0:0,0:0:0:0:
126,86,29061,2,0,P|156:60|190:39,1,80,0|0,0:0|0:0,0:0:0:0:
0,147,29382,6,0,P|48:86|125:85,1,160,0|0,3:0|0:0,0:0:0:0:
245,158,29863,1,0,0:0:0:0:
96,241,30024,2,0,P|91:201|87:161,1,80,0|0,0:0|0:0,0:0:0:0:
202,261,30344,2,0,P|197:300|192:340,1,80,0|0,0:0|0:0,0:0:0:0:
181,349,30585,1,0,0:0:0:0:
170,358,30665,6,0,L|329:347,1,160,0|0,0:0|0:0,0:0:0:0:
468,252,31146,2,0,L|458:330,1,80
321,235,31467,2,0,P|310:157|326:79,1,160,0|0,0:0|3:0,0:0:0:0:
192,101,31949,6,0,L|112:88,1,80,0|0,3:0|0:0,0:0:0:0:
242,223,32269,2,0,L|321:235,1,80,0|0,0:0|0:0,0:0:0:0:
128,199,32590,1,0,0:0:0:0:
178,321,32751,1,0,0:0:0:0:
128,199,32911,1,0,0:0:0:0:
178,77,33072,1,0,0:0:0:0:
178,77,33152,1,0,0:0:0:0:
178,77,33232,6,0,P|252:101|326:74,1,160,0|0,0:0|0:0,0:0:0:0:
501,113,33713,2,0,P|483:102|465:95,1,40,0|0,0:0|0:0,0:0:0:0:
368,139,33874,1,0,0:0:0:0:
351,157,33954,1,0,0:0:0:0:
345,181,34034,1,0,0:0:0:0:
349,206,34114,1,0,0:0:0:0:
364,226,34195,1,0,0:0:0:0:
385,238,34275,1,0,0:0:0:0:
410,240,34355,1,0,0:0:0:0:
433,232,34435,1,0,0:0:0:0:
450,214,34515,6,0,L|370:208,1,80,4|0,3:0|0:0,0:0:0:0:
334,332,34836,2,0,L|254:326,1,80,0|0,3:0|0:0,0:0:0:0:
210,197,35157,2,0,L|130:191,1,80,0|0,3:0|0:0,0:0:0:0:
94,315,35478,2,0,L|14:309,1,80,0|0,3:0|0:0,0:0:0:0:
254,324,35799,6,0,P|265:248|209:195,1,160,0|0,3:0|3:0,0:0:0:0:
42,120,36280,1,0,0:0:0:0:
42,120,36360,1,0,0:0:0:0:
41,120,36441,2,0,P|21:154|14:193,1,80,0|0,3:0|0:0,0:0:0:0:
94,315,36761,1,0,3:0:0:0:
94,315,36922,1,0,0:0:0:0:
142,122,37082,6,0,L|128:43,1,80,0|0,3:0|0:0,0:0:0:0:
283,136,37403,2,0,L|269:57,1,80,0|0,3:0|0:0,0:0:0:0:
168,279,37724,2,0,L|154:200,1,80,0|0,3:0|0:0,0:0:0:0:
309,293,38045,2,0,L|295:214,1,80,0|0,3:0|0:0,0:0:0:0:
128,43,38366,5,0,3:0:0:0:
154,200,38526,1,0,0:0:0:0:
269,57,38687,2,0,P|325:38|384:46,1,120,0|0,3:0|0:0,0:0:0:0:
406,69,39007,2,0,P|386:102|355:128,1,80,0|0,3:0|0:0,0:0:0:0:
226,176,39328,2,0,P|263:189|295:213,1,80,0|0,3:0|0:0,0:0:0:0:
485,343,39649,6,0,P|414:329|420:257,1,160,4|0,3:0|3:0,0:0:0:0:
472,161,40130,1,0,0:0:0:0:
484,342,40291,2,0,P|407:324|328:331,1,160,0|0,3:0|3:0,0:0:0:0:
200,358,40772,1,0,0:0:0:0:
200,358,40852,1,0,0:0:0:0:
200,357,40933,6,0,P|221:324|231:285,1,80,0|0,3:0|0:0,0:0:0:0:
106,161,41253,2,0,P|116:200|138:234,1,80,0|0,3:0|0:0,0:0:0:0:
312,168,41574,1,0,3:0:0:0:
231,285,41735,1,0,0:0:0:0:
208,88,41895,1,0,3:0:0:0:
208,88,42216,5,0,3:0:0:0:
312,168,42376,1,0,0:0:0:0:
312,168,42457,1,0,0:0:0:0:
312,168,42537,2,0,P|380:140|369:67,1,160,0|0,3:0|3:0,0:0:0:0:
208,88,43018,1,0,0:0:0:0:
208,88,43098,1,0,0:0:0:0:
208,88,43179,2,0,L|191:166,1,80,0|0,3:0|0:0,0:0:0:0:
157,322,43499,5,4,0:3:0:0:
359,121,44141,2,0,B|269:133|300:77|207:87,1,160,0|0,0:0|0:0,0:0:0:0:
226,203,44622,2,0,L|231:163,1,40,0|0,0:0|0:0,0:0:0:0:
336,45,44783,6,0,P|417:64|435:145,1,176.000005371094,4|8,3:0|0:3,0:0:0:0:
468,291,45264,1,0,0:0:0:0:
468,291,45344,1,0,0:0:0:0:
468,291,45425,1,0,3:0:0:0:
322,232,45585,2,0,P|305:272|296:315,1,88.000002685547,0|8,3:0|0:3,0:0:0:0:
434,145,45906,6,0,L|347:126,1,88.000002685547,0|0,3:0|0:0,0:0:0:0:
139,184,46227,2,0,L|225:202,1,88.000002685547,0|8,3:0|0:3,0:0:0:0:
298,12,46548,2,0,P|286:30|279:51,1,44.0000013427735,0|0,0:0|0:0,0:0:0:0:
322,232,46708,5,0,3:0:0:0:
347,126,46868,1,0,3:0:0:0:
326,236,47029,1,8,0:3:0:0:
415,64,47189,1,0,0:0:0:0:
224,140,47350,6,0,L|49:118,1,176.000005371094,0|8,3:0|0:3,0:0:0:0:
147,27,47831,1,0,0:0:0:0:
147,27,47911,1,0,0:0:0:0:
147,27,47991,1,0,3:0:0:0:
38,205,48152,2,0,L|48:117,1,88.000002685547,0|8,3:0|0:3,0:0:0:0:
195,106,48473,6,0,P|213:120|223:139,1,44.0000013427735,0|0,3:0|0:0,0:0:0:0:
208,243,48633,1,0,0:0:0:0:
305,121,48794,6,0,P|308:142|301:163,1,44.0000013427735,0|0,3:0|0:0,0:0:0:0:
151,177,48954,1,8,0:3:0:0:
179,16,49114,1,0,0:0:0:0:
179,16,49195,1,0,0:0:0:0:
179,16,49275,6,0,L|266:27,1,88.000002685547,0|0,3:0|3:0,0:0:0:0:
389,152,49596,2,0,L|301:163,1,88.000002685547,8|0,0:3|0:0,0:0:0:0:
178,287,49917,6,0,L|353:308,1,176.000005371094,4|8,3:0|0:3,0:0:0:0:
222,138,50398,1,0,0:0:0:0:
222,138,50478,1,0,0:0:0:0:
222,138,50558,1,0,3:0:0:0:
359,45,50719,1,0,3:0:0:0:
296,215,50879,1,8,0:3:0:0:
126,84,51040,6,0,L|83:94,2,44.0000013427735,0|0|0,3:0|0:0|0:0,0:0:0:0:
328,131,51360,1,0,3:0:0:0:
178,287,51521,2,0,L|175:155,1,132.00000402832,8|0,0:3|0:0,0:0:0:0:
131,165,51842,6,0,L|45:185,1,88.000002685547,0|0,0:0|3:0,0:0:0:0:
296,215,52163,2,0,L|381:194,1,88.000002685547,8|0,0:3|0:0,0:0:0:0:
256,30,52483,5,0,3:0:0:0:
256,30,52564,1,0,0:0:0:0:
256,30,52644,1,0,0:0:0:0:
131,165,52804,1,8,0:3:0:0:
283,117,52965,5,0,0:0:0:0:
283,117,53045,1,0,0:0:0:0:
283,117,53125,1,0,3:0:0:0:
103,77,53286,1,0,3:0:0:0:
220,185,53446,1,8,0:3:0:0:
166,9,53606,5,4,3:0:0:0:
166,9,53687,1,0,0:0:0:0:
166,9,53767,1,0,0:0:0:0:
131,165,53927,1,0,3:0:0:0:
256,30,54088,2,0,L|343:24,1,88.000002685547,8|0,0:3|0:0,0:0:0:0:
444,147,54409,5,0,0:0:0:0:
413,164,54489,1,0,0:0:0:0:
379,172,54569,1,0,3:0:0:0:
344,169,54649,1,0,0:0:0:0:
312,155,54729,2,0,L|302:111,3,44.0000013427735,8|0|0|0,0:3|0:0|3:0|0:0,0:0:0:0:
222,139,55050,6,0,P|196:217|257:274,1,176.000005371094,4|8,3:0|0:3,0:0:0:0:
406,252,55532,1,0,0:0:0:0:
406,252,55612,1,0,0:0:0:0:
406,252,55692,1,0,3:0:0:0:
398,97,55852,6,0,L|384:10,1,88.000002685547,0|8,3:0|0:3,0:0:0:0:
323,220,56173,2,0,L|405:251,1,88.000002685547,0|0,3:0|0:0,0:0:0:0:
253,93,56494,2,0,L|184:148,1,88.000002685547,0|8,3:0|0:3,0:0:0:0:
17,82,56815,1,0,0:0:0:0:
17,82,56895,1,0,0:0:0:0:
17,82,56975,5,0,0:0:0:0:
133,31,57136,1,0,3:0:0:0:
67,198,57296,2,0,L|56:330,1,132.00000402832,8|0,0:3|0:0,0:0:0:0:
38,357,57617,6,0,B|94:325|94:325|202:350,1,176.000005371094,0|8,3:0|0:3,0:0:0:0:
184,147,58098,1,0,0:0:0:0:
184,147,58179,1,0,0:0:0:0:
184,147,58259,1,0,3:0:0:0:
322,220,58419,6,0,P|291:251|251:268,1,88.000002685547,0|8,3:0|0:3,0:0:0:0:
67,198,58740,2,0,P|97:166|137:149,1,88.000002685547,0|0,3:0|0:0,0:0:0:0:
301,13,59061,2,0,L|289:100,1,88.000002685547,0|8,3:0|0:3,0:0:0:0:
251,268,59382,1,0,0:0:0:0:
251,268,59462,1,0,0:0:0:0:
251,268,59542,5,0,3:0:0:0:
186,110,59703,1,0,3:0:0:0:
330,199,59863,1,8,0:3:0:0:
159,211,60024,1,0,0:0:0:0:
289,100,60184,6,0,L|464:84,1,176.000005371094,4|8,3:0|0:3,0:0:0:0:
330,199,60665,2,0,L|417:190,1,88.000002685547,0|0,0:0|3:0,0:0:0:0:
289,100,60986,1,0,3:0:0:0:
159,211,61146,1,8,0:3:0:0:
371,298,61307,6,0,L|458:289,1,88.000002685547,4|0,3:0|0:0,0:0:0:0:
330,199,61628,1,0,3:0:0:0:
244,356,61788,6,0,P|201:308|137:307,1,132.00000402832,8|0,0:3|0:0,0:0:0:0:
103,329,62109,1,0,3:0:0:0:
238,235,62269,1,0,3:0:0:0:
83,127,62430,2,0,L|77:214,1,88.000002685547,8|0,0:3|0:0,0:0:0:0:
248,311,62751,5,4,3:0:0:0:
279,301,62831,1,0,0:0:0:0:
303,279,62911,1,0,0:0:0:0:
316,249,62991,1,0,0:0:0:0:
315,217,63072,1,8,0:3:0:0:
301,187,63152,1,0,0:0:0:0:
276,166,63232,1,0,0:0:0:0:
245,157,63312,1,0,0:0:0:0:
212,162,63392,6,0,P|201:181|192:201,3,44.0000013427735,0|0|0|0,3:0|0:0|3:0|0:0,0:0:0:0:
101,267,63713,2,0,P|122:267|144:264,3,44.0000013427735,8|0|0|0,1:3|0:0|1:0|0:0,0:0:0:0:
248,311,64034,5,4,0:3:0:0:
248,311,65318,6,0,P|289:323|332:313,1,88.000002685547,4|0,3:0|0:0,0:0:0:0:
452,207,65638,2,0,P|410:194|367:204,1,88.000002685547,8|0,0:3|0:0,0:0:0:0:
180,226,65959,2,0,L|191:183,1,44.0000013427735,0|0,3:0|0:0,0:0:0:0:
174,77,66120,2,0,L|204:108,1,44.0000013427735,0|0,3:0|0:0,0:0:0:0:
306,146,66280,2,0,L|263:156,1,44.0000013427735,8|0,0:3|0:0,0:0:0:0:
99,229,66441,1,0,3:0:0:0:
99,229,66521,1,0,0:0:0:0:
99,229,66601,6,0,L|122:138,1,88.000002685547,0|0,0:0|3:0,0:0:0:0:
253,231,66922,2,0,L|231:316,1,88.000002685547,8|0,0:3|0:0,0:0:0:0:
232,317,67163,1,0,0:0:0:0:
232,317,67243,5,0,0:0:0:0:
99,229,67403,1,0,3:0:0:0:
306,146,67564,1,8,0:3:0:0:
173,58,67724,2,0,P|167:79|163:100,1,44.0000013427735,0|0,0:0|0:0,0:0:0:0:
253,231,67884,6,0,P|337:241|400:183,1,176.000005371094,0|8,3:0|0:3,0:0:0:0:
463,36,68366,1,0,0:0:0:0:
463,36,68446,1,0,0:0:0:0:
463,36,68526,2,0,L|377:14,1,88.000002685547,0|0,3:0|3:0,0:0:0:0:
262,153,68847,2,0,L|305:145,1,44.0000013427735,8|0,0:3|0:0,0:0:0:0:
359,89,69007,6,0,L|327:262,1,176.000005371094,0|0,3:0|3:0,0:0:0:0:
350,292,69409,1,0,0:0:0:0:
350,292,69489,2,0,L|262:279,1,88.000002685547,8|0,0:3|0:0,0:0:0:0:
124,189,69810,6,0,L|116:232,1,44.0000013427735,0|0,0:0|0:0,0:0:0:0:
60,331,69970,1,0,3:0:0:0:
60,331,70050,1,0,0:0:0:0:
60,331,70130,1,8,0:3:0:0:
217,218,70291,1,0,0:0:0:0:
25,208,70451,6,0,P|2:125|46:51,1,176.000005371094,4|8,3:0|0:3,0:0:0:0:
185,29,70933,1,0,0:0:0:0:
214,32,71013,1,0,0:0:0:0:
243,36,71093,1,0,3:0:0:0:
272,40,71173,1,0,0:0:0:0:
301,43,71253,1,0,3:0:0:0:
330,47,71334,1,0,0:0:0:0:
359,51,71414,2,0,L|446:62,1,88.000002685547,8|0,0:3|3:0,0:0:0:0:
382,219,71735,6,0,L|202:196,1,176.000005371094,0|8,0:0|0:3,0:0:0:0:
60,331,72216,1,0,0:0:0:0:
60,331,72296,1,0,0:0:0:0:
60,331,72376,5,0,0:0:0:0:
216,294,72537,1,0,3:0:0:0:
194,107,72697,1,8,0:3:0:0:
38,144,72858,1,0,0:0:0:0:
207,196,73018,6,0,L|337:179,1,132.00000402832,0|0,3:0|0:0,0:0:0:0:
381,173,73339,2,0,L|369:79,1,88.000002685547,8|0,0:3|0:0,0:0:0:0:
183,20,73660,2,0,L|194:107,1,88.000002685547,0|0,3:0|3:0,0:0:0:0:
112,263,73981,1,12,0:3:0:0:
80,272,74061,1,0,0:0:0:0:
48,264,74141,1,4,3:0:0:0:
23,243,74221,1,0,0:0:0:0:
12,212,74302,5,8,0:3:0:0:
207,196,74462,2,0,L|200:239,1,44.0000013427735,0|0,3:0|0:0,0:0:0:0:
176,325,74622,2,0,L|182:368,3,44.0000013427735,8|0|0|0,0:3|0:0|0:0|0:0,0:0:0:0:
279,354,74943,2,0,L|273:311,3,44.0000013427735,0|0|0|0,0:0|0:0|3:0|0:0,0:0:0:0:
370,297,75264,2,0,L|376:340,3,44.0000013427735,8|0|0|0,0:3|0:0|3:0|0:0,0:0:0:0:
472,325,75585,5,4,3:0:0:0:
343,194,75745,1,0,0:0:0:0:
343,194,75826,1,0,0:0:0:0:
343,194,75906,1,8,0:3:0:0:
418,119,76066,1,0,0:0:0:0:
370,297,76227,5,0,3:0:0:0:
166,241,76387,1,0,3:0:0:0:
166,241,76467,1,0,0:0:0:0:
166,241,76548,1,8,0:3:0:0:
268,269,76708,1,0,3:0:0:0:
268,269,76788,1,0,0:0:0:0:
268,269,76868,5,0,0:0:0:0:
139,138,77029,1,0,3:0:0:0:
91,316,77189,1,8,0:3:0:0:
91,316,77269,1,0,0:0:0:0:
91,316,77350,1,0,0:0:0:0:
166,241,77510,5,0,0:0:0:0:
37,110,77671,1,0,3:0:0:0:
37,110,77751,1,0,0:0:0:0:
37,110,77831,2,0,L|78:96,1,44.0000013427735,8|0,0:3|0:0,0:0:0:0:
160,23,77991,2,0,L|175:64,1,44.0000013427735,0|0,0:0|0:0,0:0:0:0:
241,165,78152,6,0,P|296:102|380:110,1,176.000005371094,0|8,3:0|0:3,0:0:0:0:
342,227,78633,1,0,0:0:0:0:
342,227,78713,1,0,0:0:0:0:
342,227,78794,1,0,3:0:0:0:
460,86,78954,2,0,P|462:129|441:167,1,88.000002685547,0|8,3:0|0:3,0:0:0:0:
457,316,79275,6,0,L|281:300,1,176.000005371094,0|0,3:0|3:0,0:0:0:0:
80,345,79756,2,0,P|119:327|153:299,1,88.000002685547,8|0,0:3|0:0,0:0:0:0:
162,272,79997,1,0,0:0:0:0:
162,272,80077,5,0,0:0:0:0:
76,134,80237,1,0,3:0:0:0:
50,246,80398,1,8,0:3:0:0:
188,160,80558,1,0,0:0:0:0:
188,160,80638,1,0,0:0:0:0:
188,160,80719,6,0,P|242:97|202:24,1,176.000005371094,4|8,3:0|0:3,0:0:0:0:
76,134,81200,1,0,0:0:0:0:
162,272,81360,2,0,L|249:267,1,88.000002685547,0|0,3:0|3:0,0:0:0:0:
431,213,81681,1,8,0:3:0:0:
486,315,81842,1,4,3:0:0:0:
486,315,81922,1,0,0:0:0:0:
486,315,82002,5,0,0:0:0:0:
340,233,82163,2,0,P|339:212|341:190,1,44.0000013427735,0|0,3:0|0:0,0:0:0:0:
401,117,82323,2,0,L|488:109,1,88.000002685547,8|0,0:3|0:0,0:0:0:0:
389,319,82644,2,0,L|301:326,1,88.000002685547,0|0,0:0|3:0,0:0:0:0:
152,325,82965,1,8,0:3:0:0:
135,296,83045,1,0,0:0:0:0:
132,264,83125,1,0,0:0:0:0:
143,233,83205,1,0,0:0:0:0:
166,209,83286,6,0,L|340:233,1,176.000005371094,4|8,3:0|0:3,0:0:0:0:
410,76,83767,1,0,0:0:0:0:
410,76,83847,1,0,0:0:0:0:
410,76,83927,2,0,L|367:65,3,44.0000013427735,0|0|0|0,3:0|0:0|3:0|0:0,0:0:0:0:
288,30,84248,2,0,L|250:52,3,44.0000013427735,8|0|0|0,0:3|0:0|0:0|0:0,0:0:0:0:
170,87,84569,5,4,3:0:0:0:
237,236,93553,6,0,P|293:152|207:205,1,280,4|4,0:3|0:3,0:0:0:0:
423,345,95157,1,4,0:3:0:0:
403,252,95318,5,2,0:0:0:0:
386,240,95398,1,2,0:0:0:0:
367,233,95478,2,0,P|345:232|323:236,3,44.0000013427735,0|0|4|0,0:0|0:0|0:0|0:0,0:0:0:0:
241,284,95799,2,0,P|219:284|197:280,3,44.0000013427735
115,233,96120,6,0,B|119:185|82:155|82:155|67:114|90:70,1,176.000005371094,4|8,3:0|0:3,0:0:0:0:
204,124,96601,1,0,0:0:0:0:
30,224,96761,1,0,3:0:0:0:
204,124,96922,2,0,L|289:144,1,88.000002685547,0|8,0:0|0:3,0:0:0:0:
445,54,97243,5,0,0:0:0:0:
445,54,97323,1,0,0:0:0:0:
445,54,97403,1,0,3:0:0:0:
343,215,97564,1,0,0:0:0:0:
250,48,97724,2,0,L|336:69,1,88.000002685547,8|0,0:3|0:0,0:0:0:0:
471,242,98045,5,0,3:0:0:0:
404,156,98205,1,0,0:0:0:0:
301,321,98366,2,0,P|245:351|190:319,1,132.00000402832,8|0,0:3|0:0,0:0:0:0:
179,298,98687,6,0,L|203:123,1,176.000005371094,4|8,3:0|0:3,0:0:0:0:
332,288,99168,2,0,P|302:257|292:215,1,88.000002685547,0|0,0:0|3:0,0:0:0:0:
26,242,99489,2,0,P|64:222|89:186,1,88.000002685547,0|8,0:0|0:3,0:0:0:0:
203,123,99810,5,0,0:0:0:0:
203,123,99890,1,0,0:0:0:0:
203,123,99970,1,0,3:0:0:0:
103,44,100130,1,0,0:0:0:0:
285,94,100291,2,0,P|288:137|270:176,1,88.000002685547,8|0,0:3|0:0,0:0:0:0:
93,320,100612,5,0,3:0:0:0:
184,198,100772,1,0,3:0:0:0:
228,327,100933,1,8,0:3:0:0:
49,191,101093,1,0,0:0:0:0:
228,327,101253,6,0,L|403:313,1,176.000005371094,4|8,3:0|0:3,0:0:0:0:
497,205,101735,2,0,P|496:162|486:119,1,88.000002685547,0|0,0:0|3:0,0:0:0:0:
331,39,102056,2,0,P|331:82|341:125,1,88.000002685547,0|8,0:0|0:3,0:0:0:0:
229,223,102376,1,0,0:0:0:0:
229,223,102457,1,0,0:0:0:0:
229,223,102537,6,0,P|302:268|389:266,1,176.000005371094,4|8,3:0|0:3,0:0:0:0:
196,141,103018,2,0,P|175:149|158:162,1,44.0000013427735,0|0,0:0|0:0,0:0:0:0:
72,263,103179,1,0,3:0:0:0:
229,223,103339,1,0,0:0:0:0:
103,81,103499,2,0,P|74:113|61:155,1,88.000002685547,8|0,0:3|0:0,0:0:0:0:
168,336,103820,5,4,3:0:0:0:
200,332,103901,1,0,0:0:0:0:
233,329,103981,1,0,0:0:0:0:
266,326,104061,1,0,0:0:0:0:
299,323,104141,1,8,0:3:0:0:
332,320,104221,1,0,0:0:0:0:
365,316,104302,1,0,0:0:0:0:
397,313,104382,1,0,0:0:0:0:
430,310,104462,6,0,L|439:267,3,44.0000013427735,4|0|0|0,3:0|0:0|0:0|0:0,0:0:0:0:
384,200,104783,2,0,L|393:157,3,44.0000013427735,8|0|0|0,1:3|0:0|1:0|0:0,0:0:0:0:
338,90,105104,5,4,0:3:0:0:
430,310,106387,1,4,0:3:0:0:
256,192,106548,12,0,108794,0:0:0:0:
