osu file format v14

[General]
AudioFilename: audio.mp3
AudioLeadIn: 0
PreviewTime: 44061
Countdown: 0
SampleSet: Soft
StackLeniency: 0.7
Mode: 0
LetterboxInBreaks: 0
WidescreenStoryboard: 0

[Editor]
Bookmarks: 8286,33072,33152,33713,33794,33874,33954,34034,34114,34195,34275,34355,34435,34515,60826,60986,61146,61307,85852
DistanceSpacing: 1.5
BeatDivisor: 4
GridSize: 4
TimelineZoom: 1.299999

[Metadata]
Title:illumina
TitleUnicode:illumina
Artist:DJ TOTTO feat. *spiLa*
ArtistUnicode:DJ TOTTO feat. *spiLa*
Creator:Toyosaki Aki
Version:happy's easy*
Source:pop'n music ラピストリア
Tags:bemani hiumi 田川 義浩 yoshihiro tagawa 兎々 Nanashima Asami kurantemelodii Firis Mistlud [_-Scarlet-_] HappyRocket88 Meg iMage--
BeatmapID:1466323
BeatmapSetID:582132

[Difficulty]
HPDrainRate:3
CircleSize:2.3
OverallDifficulty:2
ApproachRate:2.5
SliderMultiplier:0.8
SliderTickRate:1

[Events]
//Background and Video events
0,0,"illumina.jpg",0,0
//Break Periods
2,86052,92053
//Storyboard Layer 0 (Background)
//Storyboard Layer 1 (Fail)
//Storyboard Layer 2 (Pass)
//Storyboard Layer 3 (Foreground)
//Storyboard Sound Samples

[TimingPoints]
1147,320.855614973262,4,2,1,40,1,0
3713,-133.333333333333,4,2,1,40,0,0
24248,-133.333333333333,4,2,1,50,0,0
34515,-133.333333333333,4,2,1,60,0,0
44783,-133.333333333333,4,2,1,70,0,1
54409,-133.333333333333,4,2,1,70,0,0
54729,-133.333333333333,4,3,2,70,0,0
54810,-133.333333333333,4,2,1,70,0,0
55050,-133.333333333333,4,2,1,70,0,1
63072,-133.333333333333,4,3,2,70,0,1
63152,-133.333333333333,4,2,1,70,0,1
65318,-133.333333333333,4,2,1,70,0,0
74302,-133.333333333333,4,3,2,70,0,0
74462,-133.333333333333,4,2,1,70,0,0
84569,-133.333333333333,4,2,1,50,0,0
93553,-133.333333333333,4,2,1,50,0,0
94676,-133.333333333333,4,2,1,60,0,0
96120,-133.333333333333,4,2,1,70,0,1
106387,-133.333333333333,4,2,1,50,0,0
109275,-133.333333333333,4,2,1,5,0,0

[Colours]
Combo1 : 243,249,21
Combo2 : 137,137,197
Combo3 : 0,115,255
Combo4 : 241,14,48
Combo5 : 62,255,62
SliderTrackOverride : 78,78,78

[HitObjects]
256,192,1147,12,4,3713,0:3:0:0:
68,232,4997,6,0,B|92:208|92:208|152:200,1,90.0000034332277,0|0,0:0|0:0,0:0:0:0:
228,240,5799,1,0,3:0:0:0:
344,172,6280,6,0,P|375:121|348:40,1,150.000005722046,4|0,0:3|0:0,0:0:0:0:
288,104,7403,2,0,B|296:148|296:148|320:168|320:168|308:200|308:200|316:248,1,150.000005722046,0|8,0:0|0:0,0:0:0:0:
380,300,8526,1,0,0:0:0:0:
321,372,8847,6,0,P|289:292|321:232,1,150.000005722046,4|0,0:3|0:0,0:0:0:0:
400,212,9970,2,0,P|458:255|467:327,1,150.000005722046,0|8,0:0|0:0,0:0:0:0:
380,300,11093,1,0,0:0:0:0:
321,372,11414,6,0,B|277:384|245:364|245:364|209:348|169:372,1,150.000005722046,4|0,0:3|0:0,0:0:0:0:
88,372,12537,2,0,P|44:328|44:244,1,150.000005722046,0|8,0:0|0:0,0:0:0:0:
112,184,13660,1,0,0:0:0:0:
196,204,13981,6,0,P|216:264|120:280,1,180.000006866455,4|0,0:3|0:0,0:0:0:0:
108,196,15264,2,0,B|108:152|144:128|144:128|108:63,1,150.000005722046,0|0,0:0|3:0,0:0:0:0:
240,40,16548,6,0,B|292:128|292:128|364:156,1,180.000006866455,4|0,0:3|0:0,0:0:0:0:
456,164,17831,2,0,P|444:112|388:68,1,120.000004577637,0|8,0:0|0:0,0:0:0:0:
364,156,18794,1,8,0:0:0:0:
400,236,19114,6,0,B|440:268|488:252|488:252|464:300|488:344,1,180.000006866455,4|0,0:3|0:0,0:0:0:0:
392,336,20398,2,0,P|368:324|324:328,1,60.0000022888184,0|0,1:0|0:0,0:0:0:0:
256,368,21040,1,8,0:0:0:0:
200,300,21360,1,0,0:0:0:0:
276,252,21681,6,0,B|321:225|321:177|321:177|321:125|364:99,1,180.000006866455,4|8,0:3|0:0,0:0:0:0:
408,176,22965,2,0,B|362:201|320:177|320:177|276:152|232:176,1,180.000006866455,4|0,0:3|0:0,0:0:0:0:
160,224,24248,6,0,P|124:224|100:208,1,60.0000022888184,4|0,0:3|0:0,0:0:0:0:
96,124,24890,2,0,P|132:124|156:140,1,60.0000022888184,0|0,0:0|0:0,0:0:0:0:
236,172,25532,2,0,B|268:176|292:156|292:156|348:188,1,120.000004577637,0|0,0:0|0:0,0:0:0:0:
424,228,26494,1,0,0:0:0:0:
348,276,26815,6,0,P|335:308|345:342,1,60.0000022888184,0|0,3:0|0:0,0:0:0:0:
429,316,27457,2,0,P|462:310|488:284,1,60.0000022888184,0|0,0:0|0:0,0:0:0:0:
424,228,28098,1,0,0:0:0:0:
344,185,28419,1,0,0:0:0:0:
288,256,28740,1,0,0:0:0:0:
340,332,29061,1,0,0:0:0:0:
252,356,29382,6,0,B|200:356|200:356|164:336|164:336|132:360|132:360|80:360,1,180.000006866455,0|0,3:0|0:0,0:0:0:0:
20,296,30665,2,0,P|8:248|28:200,2,90.0000034332277,0|0|0,0:0|0:0|0:0,0:0:0:0:
100,252,31949,6,0,P|174:236|140:348,1,240.000009155274,0|0,3:0|0:0,0:0:0:0:
56,332,33553,2,0,P|20:336|-4:352,2,60.0000022888184,0|0|0,0:0|0:0|0:0,0:0:0:0:
100,252,34515,5,4,3:0:0:0:
156,180,34836,1,0,3:0:0:0:
96,112,35157,1,0,3:0:0:0:
40,184,35478,1,0,3:0:0:0:
100,252,35799,6,0,P|132:268|168:268,1,60.0000022888184,0|0,3:0|3:0,0:0:0:0:
244,244,36441,2,0,P|273:247|299:261,1,60.0000022888184,0|0,3:0|3:0,0:0:0:0:
308,352,37082,5,0,3:0:0:0:
396,372,37403,1,0,3:0:0:0:
444,296,37724,1,0,3:0:0:0:
384,228,38045,1,0,3:0:0:0:
344,148,38366,6,0,B|353:116|353:116|372:90,1,60.0000022888184,0|0,3:0|3:0,0:0:0:0:
459,99,39007,2,0,B|449:130|449:130|430:156,1,60.0000022888184,0|0,3:0|3:0,0:0:0:0:
384,228,39649,6,0,B|328:208|328:208|272:228|272:228|212:204,1,180.000006866455,4|0,3:0|3:0,0:0:0:0:
180,124,40933,2,0,P|136:164|128:228,1,120.000004577637,0|0,3:0|3:0,0:0:0:0:
256,192,42216,12,4,43499,0:3:0:0:
140,45,44783,6,0,B|87:15|87:15|128:65|109:126,1,180.000006866455,4|8,3:0|0:3,0:0:0:0:
56,197,46066,2,0,P|36:253|60:313,1,120.000004577637,0|0,0:0|0:0,0:0:0:0:
128,253,47029,1,8,0:3:0:0:
212,289,47350,6,0,P|256:301|300:281,2,90.0000034332277,0|0|8,3:0|0:0|0:3,0:0:0:0:
252,209,48633,2,0,L|376:241,1,120.000004577637,0|0,0:0|0:0,0:0:0:0:
424,169,49596,1,8,0:3:0:0:
348,115,49917,6,0,P|292:131|252:219,1,150.000005722046,4|0,3:0|3:0,0:0:0:0:
164,208,51040,2,0,P|135:140|63:120,1,150.000005722046,0|0,3:0|0:0,0:0:0:0:
76,209,52163,1,8,0:3:0:0:
116,289,52483,6,0,B|160:313|208:289|208:289|272:305,1,150.000005722046,0|0,3:0|3:0,0:0:0:0:
342,264,53606,2,0,P|399:291|423:379,1,150.000005722046,4|0,3:0|0:0,0:0:0:0:
334,356,54729,1,8,0:3:0:0:
260,302,55050,6,0,B|238:247|276:202|276:202|241:164,1,150.000005722046,4|0,3:0|3:0,0:0:0:0:
225,83,56173,2,0,B|263:67|300:94|300:94|356:148,1,150.000005722046,0|0,3:0|0:0,0:0:0:0:
418,202,57296,1,8,0:3:0:0:
361,272,57617,6,0,P|367:332|447:377,1,150.000005722046,0|0,3:0|3:0,0:0:0:0:
447,287,58740,2,0,B|399:252|348:276|348:276|288:308|241:269,1,210.000008010865,0|8,3:0|0:3,0:0:0:0:
295,197,60184,6,0,P|275:145|220:196,1,150.000005722046,4|0,3:0|3:0,0:0:0:0:
145,242,61307,2,0,P|129:188|158:101,1,150.000005722046,4|0,3:0|0:0,0:0:0:0:
234,55,62430,1,8,0:3:0:0:
319,83,62751,6,0,P|376:100|438:69,1,120.000004577637,4|0,3:0|3:0,0:0:0:0:
372,8,63713,1,8,1:3:0:0:
256,192,64034,12,4,65318,3:0:0:0:
176,104,66601,6,0,B|152:144|152:144|152:168|152:168|116:216,1,120.000004577637,0|0,3:0|0:0,0:0:0:0:
148,296,67564,1,8,0:3:0:0:
220,244,67884,2,0,P|276:228|332:264,1,120.000004577637,0|0,3:0|3:0,0:0:0:0:
392,140,69007,6,0,P|356:108|348:60,1,90.0000034332277,0|8,3:0|0:3,0:0:0:0:
436,60,69810,1,0,0:0:0:0:
480,140,70130,1,8,0:3:0:0:
432,216,70451,6,0,B|400:236|360:220|360:220|320:244|276:224,1,150.000005722046,4|0,3:0|3:0,0:0:0:0:
208,180,71574,2,0,P|137:170|80:220,1,150.000005722046,0|0,3:0|0:0,0:0:0:0:
160,256,72697,1,8,0:3:0:0:
240,296,73018,6,0,P|183:342|108:328,1,150.000005722046,0|0,3:0|3:0,0:0:0:0:
160,256,74141,2,0,L|305:210,1,150.000005722046,4|0,3:0|0:0,0:0:0:0:
389,234,75264,1,8,0:3:0:0:
365,147,75585,6,0,B|333:117|289:123|289:123|224:143,1,150.000005722046,4|0,3:0|3:0,0:0:0:0:
136,161,76708,2,0,P|85:140|56:53,1,150.000005722046,0|0,3:0|0:0,0:0:0:0:
144,71,77831,1,8,0:3:0:0:
217,123,78152,6,0,B|235:168|211:210|211:210|276:195,1,150.000005722046,0|0,3:0|3:0,0:0:0:0:
358,200,79275,2,0,B|361:166|341:144|341:144|373:136|390:112|390:112|405:131|445:132|445:132|418:177|448:230,1,270.000010299683,0|4,3:0|3:0,0:0:0:0:
384,287,81040,6,0,B|341:298|311:276|311:276|277:251|229:271,2,150.000005722046,8|4|0,0:3|0:3|0:0,0:0:0:0:
441,217,82965,1,8,0:3:0:0:
367,165,83286,6,0,P|337:119|447:128,2,240.000009155274,4|4|4,3:0|3:0|3:0,0:0:0:0:
256,192,93553,12,4,96120,3:0:0:0:
328,176,97403,6,0,P|334:145|287:65,1,120.000004577637,0|0,0:0|3:0,0:0:0:0:
213,31,98366,1,8,0:3:0:0:
207,120,98687,6,0,P|241:184|312:201,1,150.000005722046,4|0,3:0|0:0,0:0:0:0:
402,197,99810,2,0,L|283:294,1,150.000005722046,0|0,0:0|3:0,0:0:0:0:
203,255,100933,1,8,0:3:0:0:
121,288,101253,6,0,P|176:343|228:341,1,120.000004577637,4|0,3:0|3:0,0:0:0:0:
285,291,102216,1,8,0:3:0:0:
365,251,102537,2,0,P|422:260|458:307,1,120.000004577637,4|0,3:0|3:0,0:0:0:0:
374,339,103499,1,8,0:3:0:0:
295,295,103820,6,0,B|325:244|325:244|321:171,2,120.000004577637,4|4|4,3:0|3:0|0:3,0:0:0:0:
256,192,106387,12,0,109275,0:0:0:0:
