osu file format v14

[General]
AudioFilename: audio.mp3
AudioLeadIn: 0
PreviewTime: 44061
Countdown: 0
SampleSet: Soft
StackLeniency: 0.7
Mode: 0
LetterboxInBreaks: 0
WidescreenStoryboard: 0

[Editor]
Bookmarks: 8286,33072,33152,33713,33794,33874,33954,34034,34114,34195,34275,34355,34435,34515,60826,60986,61146,61307,85852
DistanceSpacing: 1.6
BeatDivisor: 4
GridSize: 32
TimelineZoom: 2.299999

[Metadata]
Title:illumina
TitleUnicode:illumina
Artist:DJ TOTTO feat. *spiLa*
ArtistUnicode:DJ TOTTO feat. *spiLa*
Creator:Toyosaki Aki
Version:expert*
Source:pop'n music ラピストリア
Tags:bemani hiumi 田川 義浩 yoshihiro tagawa 兎々 Nanashima Asami kurantemelodii Firis Mistlud [_-Scarlet-_] HappyRocket88 Meg iMage--
BeatmapID:1232039
BeatmapSetID:582132

[Difficulty]
HPDrainRate:6
CircleSize:4.4
OverallDifficulty:8.5
ApproachRate:9.3
SliderMultiplier:1.6
SliderTickRate:1

[Events]
//Background and Video events
0,0,"illumina.jpg",0,0
//Break Periods
//Storyboard Layer 0 (Background)
//Storyboard Layer 1 (Fail)
//Storyboard Layer 2 (Pass)
//Storyboard Layer 3 (Foreground)
//Storyboard Sound Samples

[TimingPoints]
1147,320.855614973262,4,2,1,40,1,0
3713,-166.666666666667,4,2,1,40,0,0
24248,-133.333333333333,4,2,1,50,0,0
34515,-105.263157894737,4,2,1,60,0,0
44783,-95.2380952380954,4,2,1,70,0,1
54409,-95.2380952380954,4,2,1,70,0,0
54729,-95.2380952380954,4,3,2,70,0,0
54810,-95.2380952380954,4,2,1,70,0,0
55050,-95.2380952380954,4,2,1,70,0,1
63072,-95.2380952380954,4,3,2,70,0,1
63152,-95.2380952380954,4,2,1,70,0,1
65318,-95.2380952380954,4,2,1,70,0,0
74302,-95.2380952380954,4,3,2,70,0,0
74462,-95.2380952380954,4,2,1,70,0,0
84569,-200,4,2,1,50,0,0
93553,-200,4,2,1,50,0,0
94676,-111.111111111111,4,2,1,60,0,0
96120,-95.2380952380954,4,2,1,70,0,1
106387,-95.2380952380954,4,3,2,50,0,0

[Colours]
Combo1 : 230,140,43
Combo2 : 86,135,226

[HitObjects]
64,285,3713,6,0,L|126:272,1,47.9999985351563,4|0,0:3|3:0,0:0:0:0:
189,226,4034,2,0,P|199:180|179:137,1,95.9999970703126,0|8,0:0|0:0,0:0:0:0:
53,47,4676,2,0,P|58:70|66:93,1,47.9999985351563
136,84,4997,6,0,P|179:66|223:84,1,95.9999970703126
179,137,5478,1,0,0:0:0:0:
293,71,5799,1,0,3:0:0:0:
420,104,6120,1,0,0:0:0:0:
424,92,6200,1,0,0:0:0:0:
427,80,6280,6,0,L|314:100,1,95.9999970703126,4|0,0:3|2:0,0:0:0:0:
239,167,6761,1,0,0:0:0:0:
347,212,6922,1,8,0:0:0:0:
227,162,7403,2,0,L|234:195,1,23.9999992675781
270,264,7564,6,0,L|265:287,2,23.9999992675781
227,366,7804,1,0,0:0:0:0:
221,355,7884,2,0,L|166:348,1,47.9999985351563
94,328,8125,1,0,0:0:0:0:
82,330,8205,1,8,0:0:0:0:
161,267,8366,1,0,3:0:0:0:
79,220,8526,2,0,L|31:229,1,47.9999985351563
41,139,8847,6,0,L|135:157,1,95.9999970703126,4|0,0:3|2:0,0:0:0:0:
231,86,9328,2,0,L|279:77,1,47.9999985351563,0|8,0:0|0:0,0:0:0:0:
332,149,9649,2,0,L|380:158,1,47.9999985351563
433,86,9970,1,0,0:0:0:0:
444,84,10050,1,0,0:0:0:0:
455,82,10130,1,0,1:0:0:0:
380,158,10291,6,0,L|370:184,2,23.9999992675781
278,77,10612,2,0,L|269:47,2,23.9999992675781,0|0|8,0:0|0:0|0:0,0:0:0:0:
135,157,10933,1,0,3:0:0:0:
89,102,11093,2,0,P|110:86|139:85,1,47.9999985351563
211,157,11414,6,0,B|200:252,1,95.9999970703126,4|0,0:3|1:0,0:0:0:0:
130,310,11895,2,0,P|111:324|88:331,1,47.9999985351563,0|8,0:0|0:0,0:0:0:0:
199,252,12216,2,0,P|213:270|220:293,1,47.9999985351563
115,222,12537,1,0,0:0:0:0:
118,210,12617,1,0,0:0:0:0:
121,198,12697,6,0,L|131:162,1,23.9999992675781
197,51,12858,1,0,0:0:0:0:
200,63,12938,1,0,0:0:0:0:
203,75,13018,2,0,L|213:111,1,23.9999992675781
266,206,13179,2,0,L|276:170,1,23.9999992675781
336,102,13339,6,0,L|389:114,1,47.9999985351563,8|0,0:0|0:0,0:0:0:0:
499,166,13580,2,0,L|452:155,1,47.9999985351563,8|0,0:0|0:0,0:0:0:0:
336,102,13820,1,8,0:0:0:0:
499,166,13981,6,0,P|492:213|486:261,1,95.9999970703126,4|0,0:3|1:0,0:0:0:0:
397,293,14462,1,0,0:0:0:0:
396,293,14622,2,0,P|350:300|309:278,1,95.9999970703126,8|0,0:0|0:0,0:0:0:0:
260,205,15104,1,0,0:0:0:0:
260,205,15184,1,0,0:0:0:0:
259,205,15264,5,0,0:0:0:0:
344,160,15425,2,0,L|376:166,2,23.9999992675781
171,168,15745,2,0,L|147:163,1,23.9999992675781
73,147,15906,1,8,0:0:0:0:
179,79,16066,1,0,3:0:0:0:
165,301,16387,5,0,0:0:0:0:
165,301,16548,2,0,L|65:282,1,95.9999970703126,4|0,0:3|1:0,0:0:0:0:
70,283,17029,1,0,0:0:0:0:
204,222,17189,1,8,0:0:0:0:
204,222,17671,5,0,0:0:0:0:
215,224,17751,1,0,0:0:0:0:
226,226,17831,2,0,L|249:231,3,23.9999992675781
307,299,18152,2,0,L|330:293,1,23.9999992675781
382,223,18312,2,0,L|405:228,1,23.9999992675781
463,296,18473,5,8,0:0:0:0:
482,269,18553,1,8,0:0:0:0:
491,238,18633,1,0,0:0:0:0:
488,205,18713,1,0,0:0:0:0:
457,172,18794,5,8,0:0:0:0:
446,139,18874,1,0,0:0:0:0:
449,106,18954,1,8,0:0:0:0:
462,76,19034,1,0,0:0:0:0:
495,44,19114,6,0,L|396:55,1,95.9999970703126,4|0,0:3|1:0,0:0:0:0:
318,120,19596,2,0,L|329:186,1,47.9999985351563,0|8,0:0|0:0,0:0:0:0:
222,61,19917,2,0,L|229:13,1,47.9999985351563
113,83,20237,6,0,L|70:75,2,23.9999992675781,0|0|0,0:0|0:0|1:0,0:0:0:0:
135,192,20558,2,0,L|92:184,2,23.9999992675781
31,147,20879,1,0,0:0:0:0:
31,147,21040,2,0,L|19:242,1,95.9999970703126,8|0,0:0|0:0,0:0:0:0:
98,334,21521,1,0,0:0:0:0:
150,285,21681,6,0,P|132:270|110:263,1,47.9999985351563,4|0,0:3|3:0,0:0:0:0:
56,356,22002,2,0,P|78:349|97:333,1,47.9999985351563
140,170,22323,2,0,L|202:182,1,47.9999985351563,8|0,0:0|3:0,0:0:0:0:
254,132,22564,1,0,3:0:0:0:
263,125,22644,2,0,L|286:129,1,23.9999992675781,8|8,0:0|0:0,0:0:0:0:
348,176,22804,2,0,L|372:181,1,23.9999992675781,8|0,0:0|0:0,0:0:0:0:
433,225,22965,6,0,P|447:181|433:136,1,95.9999970703126
443,112,23446,1,0,0:0:0:0:
443,112,23606,2,0,P|466:179|447:247,1,143.999995605469
308,300,24248,6,0,L|230:288,1,60.0000022888184,4|0,0:3|0:0,0:0:0:0:
137,184,24569,2,0,L|196:193,1,60.0000022888184
155,275,24890,1,0,0:0:0:0:
137,184,25050,1,0,0:0:0:0:
282,128,25211,1,0,0:0:0:0:
264,219,25371,1,0,0:0:0:0:
177,99,25532,6,0,L|168:36,1,60.0000022888184
294,69,25852,2,0,L|280:135,1,60.0000022888184
210,187,26093,1,0,0:0:0:0:
196,193,26173,2,0,B|98:184,1,90.0000034332277
90,184,26494,1,0,0:0:0:0:
86,310,26655,1,0,3:0:0:0:
86,310,26735,1,0,0:0:0:0:
86,310,26815,6,0,L|155:297,1,60.0000022888184,0|0,3:0|0:0,0:0:0:0:
327,329,27136,2,0,L|258:316,1,60.0000022888184
213,245,27457,1,0,0:0:0:0:
252,164,27617,1,0,0:0:0:0:
294,232,27778,1,0,0:0:0:0:
176,176,27938,1,0,0:0:0:0:
291,99,28098,6,0,L|352:108,1,60.0000022888184
176,176,28419,2,0,L|116:167,1,60.0000022888184
60,110,28660,1,0,0:0:0:0:
60,110,28740,1,0,0:0:0:0:
83,37,28901,5,0,0:0:0:0:
107,49,28981,1,0,0:0:0:0:
125,68,29061,1,0,0:0:0:0:
136,93,29141,1,0,0:0:0:0:
138,119,29221,1,0,0:0:0:0:
131,145,29302,1,0,0:0:0:0:
116,167,29382,6,0,L|56:158,2,60.0000022888184,0|0|0,3:0|0:0|0:0,0:0:0:0:
175,244,29863,1,0,0:0:0:0:
175,244,30184,2,0,L|227:237,1,30.0000011444092
257,187,30344,2,0,P|275:210|277:240,1,60.0000022888184
237,312,30585,1,0,0:0:0:0:
246,323,30665,6,0,L|379:305,1,120.000004577637
473,245,31146,2,0,L|433:239,1,30.0000011444092
368,223,31307,1,0,0:0:0:0:
404,161,31467,1,0,0:0:0:0:
380,92,31628,1,0,0:0:0:0:
416,30,31788,1,0,3:0:0:0:
416,30,31868,1,0,0:0:0:0:
416,30,31949,6,0,L|356:36,1,60.0000022888184,0|0,3:0|0:0,0:0:0:0:
201,110,32269,2,0,P|185:84|183:55,1,60.0000022888184
264,60,32590,1,0,0:0:0:0:
245,132,32751,1,0,0:0:0:0:
225,202,32911,1,0,0:0:0:0:
110,231,33072,1,0,0:0:0:0:
110,231,33152,1,0,0:0:0:0:
110,231,33232,2,0,B|89:147|89:147|111:172,1,120.000004577637
47,331,33713,5,0,0:0:0:0:
73,318,33794,1,0,0:0:0:0:
103,313,33874,1,8,0:0:0:0:
133,316,33954,1,8,0:0:0:0:
160,327,34034,1,8,0:0:0:0:
186,356,34114,5,8,0:0:0:0:
219,372,34195,1,8,0:0:0:0:
256,375,34275,1,0,0:0:0:0:
292,364,34355,1,0,0:0:0:0:
321,341,34435,1,0,0:0:0:0:
337,301,34515,6,0,L|356:389,1,75.9999979705811,4|0,3:0|0:0,0:0:0:0:
206,226,34836,2,0,L|219:147,1,75.9999979705811,0|0,3:0|0:0,0:0:0:0:
420,100,35157,2,0,P|417:152|327:169,1,151.999995941162,0|0,3:0|3:0,0:0:0:0:
229,63,35638,1,0,0:0:0:0:
146,175,35799,6,0,L|70:159,1,75.9999979705811,0|0,3:0|0:0,0:0:0:0:
154,47,36120,2,0,L|228:62,1,75.9999979705811,0|0,3:0|0:0,0:0:0:0:
34,199,36441,2,0,L|160:171,1,113.999996955872,0|0,3:0|0:0,0:0:0:0:
240,212,36761,2,0,P|249:248|241:285,1,75.9999979705811,0|0,3:0|0:0,0:0:0:0:
105,353,37082,5,0,3:0:0:0:
105,353,37403,1,0,3:0:0:0:
250,310,37564,1,0,0:0:0:0:
83,260,37724,1,0,3:0:0:0:
260,335,37884,1,0,0:0:0:0:
110,168,38045,1,0,3:0:0:0:
270,360,38205,1,0,0:0:0:0:
269,170,38366,6,0,L|190:193,1,75.9999979705811,0|0,3:0|0:0,0:0:0:0:
400,233,38687,2,0,L|479:256,1,75.9999979705811,0|0,3:0|0:0,0:0:0:0:
240,96,39007,2,0,L|229:19,1,75.9999979705811,0|0,3:0|0:0,0:0:0:0:
313,246,39328,2,0,L|302:321,1,75.9999979705811,0|0,3:0|0:0,0:0:0:0:
114,272,39649,5,4,3:0:0:0:
167,165,39810,1,0,0:0:0:0:
68,364,39970,1,0,3:0:0:0:
22,216,40130,1,0,0:0:0:0:
207,264,40291,1,0,3:0:0:0:
75,128,40451,1,0,0:0:0:0:
114,272,40612,1,0,3:0:0:0:
216,72,40772,1,0,0:0:0:0:
216,72,40852,1,0,0:0:0:0:
216,72,40933,6,0,L|133:63,1,75.9999979705811,0|0,3:0|0:0,0:0:0:0:
207,264,41253,2,0,L|281:250,1,75.9999979705811,0|0,3:0|0:0,0:0:0:0:
281,249,41494,1,0,0:0:0:0:
281,249,41574,1,0,3:0:0:0:
251,346,41735,1,0,0:0:0:0:
305,165,41895,1,0,3:0:0:0:
385,231,42056,1,0,0:0:0:0:
201,178,42216,1,0,3:0:0:0:
267,81,42376,5,0,0:0:0:0:
299,70,42457,1,0,0:0:0:0:
333,74,42537,1,0,3:0:0:0:
363,89,42617,1,0,0:0:0:0:
392,106,42697,1,0,0:0:0:0:
425,108,42778,1,0,0:0:0:0:
457,96,42858,5,0,3:0:0:0:
451,134,42938,1,0,0:0:0:0:
445,172,43018,1,0,0:0:0:0:
439,210,43098,1,0,0:0:0:0:
433,248,43179,6,0,L|379:276,1,37.9999989852906,0|0,3:0|0:0,0:0:0:0:
284,290,43339,2,0,L|326:300,1,37.9999989852906,0|0,1:0|0:0,0:0:0:0:
388,343,43499,1,4,0:3:0:0:
99,281,44783,6,0,P|118:221|106:160,1,125.999996154785,4|0,3:0|0:0,0:0:0:0:
94,133,45104,1,8,0:3:0:0:
203,216,45264,1,0,0:0:0:0:
203,216,45344,1,0,0:0:0:0:
203,216,45425,1,0,3:0:0:0:
39,190,45585,2,0,P|16:141|24:100,1,83.9999974365235,0|8,3:0|0:3,0:0:0:0:
282,208,45906,2,0,P|276:249|245:284,1,83.9999974365235,0|0,3:0|0:0,0:0:0:0:
180,83,46227,5,0,3:0:0:0:
180,83,46307,1,0,0:0:0:0:
180,83,46387,2,0,B|222:62|222:62|318:73,1,125.999996154785,8|0,0:3|0:0,0:0:0:0:
334,77,46708,1,0,0:0:0:0:
235,146,46868,1,0,3:0:0:0:
410,215,47029,2,0,B|419:175|419:175|407:133,1,83.9999974365235,8|0,0:3|0:0,0:0:0:0:
267,314,47350,6,0,B|255:272|255:272|264:232,1,83.9999974365235,0|0,3:0|0:0,0:0:0:0:
425,323,47671,1,8,0:3:0:0:
426,323,47751,1,0,0:0:0:0:
425,323,47831,2,0,L|373:334,1,41.9999987182618
306,240,47991,2,0,L|263:233,1,41.9999987182618,0|0,3:0|0:0,0:0:0:0:
164,294,48152,2,0,L|151:209,1,83.9999974365235,0|8,3:0|0:3,0:0:0:0:
248,43,48473,6,0,L|297:55,2,41.9999987182618,0|0|0,3:0|0:0|0:0,0:0:0:0:
66,117,48794,2,0,L|17:129,2,41.9999987182618,0|0|8,3:0|0:0|0:3,0:0:0:0:
214,189,49114,1,0,0:0:0:0:
153,10,49275,1,0,0:0:0:0:
74,213,49435,1,0,3:0:0:0:
279,131,49596,1,8,0:3:0:0:
64,91,49756,1,0,0:0:0:0:
312,198,49917,6,0,P|357:133|317:65,1,167.999994873047,4|8,3:0|0:3,0:0:0:0:
132,170,50398,1,0,0:0:0:0:
122,178,50478,1,0,0:0:0:0:
112,186,50558,1,0,3:0:0:0:
216,257,50719,1,0,3:0:0:0:
99,328,50879,1,8,0:3:0:0:
281,320,51040,6,0,L|299:153,1,167.999994873047,0|0,3:0|3:0,0:0:0:0:
174,75,51441,1,0,0:0:0:0:
174,75,51521,2,0,P|212:90|254:87,1,83.9999974365235,8|0,0:3|0:0,0:0:0:0:
447,211,51842,2,0,P|408:195|366:198,1,83.9999974365235,0|0,0:0|3:0,0:0:0:0:
214,251,52163,1,8,0:3:0:0:
331,84,52323,1,0,0:0:0:0:
404,284,52483,1,0,3:0:0:0:
410,298,52804,5,8,0:3:0:0:
230,319,52965,2,0,P|284:336|330:328,1,83.9999974365235,0|0,0:0|3:0,0:0:0:0:
123,252,53286,2,0,P|71:257|37:275,1,83.9999974365235,0|8,3:0|0:3,0:0:0:0:
284,262,53606,2,0,L|291:128,1,125.999996154785,4|0,3:0|0:0,0:0:0:0:
292,104,53927,1,0,3:0:0:0:
408,181,54088,2,0,P|449:182|487:165,1,83.9999974365235,8|0,0:3|0:0,0:0:0:0:
334,42,54409,5,0,0:0:0:0:
300,30,54489,1,0,0:0:0:0:
264,35,54569,1,0,3:0:0:0:
235,55,54649,1,0,0:0:0:0:
201,78,54729,5,8,0:3:0:0:
168,89,54809,1,0,0:0:0:0:
132,84,54889,1,0,3:0:0:0:
103,64,54969,1,0,0:0:0:0:
83,35,55050,6,0,L|101:131,1,83.9999974365235,4|0,3:0|0:0,0:0:0:0:
73,302,55371,1,8,0:3:0:0:
220,194,55532,2,0,L|313:183,1,83.9999974365235,0|0,0:0|3:0,0:0:0:0:
155,319,55852,2,0,L|64:300,1,83.9999974365235,0|8,3:0|0:3,0:0:0:0:
249,284,56173,1,0,3:0:0:0:
249,284,56253,1,0,0:0:0:0:
249,284,56334,5,0,0:0:0:0:
149,230,56494,1,0,3:0:0:0:
203,130,56655,1,8,0:3:0:0:
303,184,56815,1,0,0:0:0:0:
115,146,56975,5,0,0:0:0:0:
226,206,57136,1,0,3:0:0:0:
248,43,57296,1,8,0:3:0:0:
149,230,57457,1,0,0:0:0:0:
399,219,57617,6,0,L|386:93,1,125.999996154785,0|0,3:0|0:0,0:0:0:0:
381,61,57938,1,8,0:3:0:0:
282,164,58098,2,0,L|186:147,1,83.9999974365235,0|0,0:0|3:0,0:0:0:0:
368,293,58419,2,0,P|410:297|449:281,1,83.9999974365235,0|8,3:0|0:3,0:0:0:0:
252,283,58740,1,0,3:0:0:0:
254,295,58820,1,0,0:0:0:0:
256,307,58901,5,0,0:0:0:0:
351,229,59061,1,0,3:0:0:0:
165,203,59221,1,8,0:3:0:0:
351,229,59382,1,0,0:0:0:0:
256,103,59542,2,0,L|268:199,1,83.9999974365235,0|0,0:0|3:0,0:0:0:0:
471,68,59863,2,0,P|420:33|360:45,1,125.999996154785,8|0,0:3|0:0,0:0:0:0:
256,103,60184,6,0,B|217:108|217:108|169:95,1,83.9999974365235,4|0,3:0|0:0,0:0:0:0:
225,18,60505,1,8,0:3:0:0:
165,203,60665,1,0,0:0:0:0:
165,203,60745,1,0,0:0:0:0:
165,203,60826,2,0,L|95:216,1,41.9999987182618,0|0,3:0|0:0,0:0:0:0:
21,131,60986,2,0,L|115:143,1,83.9999974365235,0|8,3:0|0:3,0:0:0:0:
404,70,61307,6,0,L|278:83,1,125.999996154785,4|0,3:0|0:0,0:0:0:0:
256,87,61628,1,0,3:0:0:0:
374,237,61788,2,0,P|419:241|457:218,1,83.9999974365235,8|0,0:3|0:0,0:0:0:0:
295,157,62109,1,0,0:0:0:0:
295,157,62189,1,0,0:0:0:0:
295,157,62269,1,0,3:0:0:0:
176,249,62430,2,0,L|195:346,1,83.9999974365235,8|0,0:3|0:0,0:0:0:0:
295,157,62751,5,4,3:0:0:0:
105,207,62911,1,0,0:0:0:0:
105,207,62991,1,0,0:0:0:0:
105,207,63071,1,8,0:3:0:0:
131,183,63152,1,0,0:0:0:0:
165,172,63232,1,0,0:0:0:0:
201,176,63312,1,0,0:0:0:0:
230,206,63392,5,0,3:0:0:0:
265,228,63473,1,0,0:0:0:0:
306,232,63553,1,0,3:0:0:0:
344,215,63633,1,0,0:0:0:0:
375,181,63713,2,0,L|386:132,1,41.9999987182618,8|0,1:3|0:0,0:0:0:0:
330,32,63874,2,0,L|320:72,1,41.9999987182618,0|0,1:0|0:0,0:0:0:0:
295,157,64034,5,4,0:3:0:0:
295,157,65318,6,0,B|247:141|247:141|183:157|183:157|132:146,1,167.999994873047,4|8,3:0|0:3,0:0:0:0:
244,218,65799,1,0,0:0:0:0:
106,71,65959,5,0,3:0:0:0:
72,95,66039,1,0,0:0:0:0:
53,132,66119,1,0,3:0:0:0:
54,174,66199,1,0,0:0:0:0:
79,207,66280,2,0,L|69:275,1,41.9999987182618,8|0,0:3|0:0,0:0:0:0:
5,291,66441,2,0,L|14:338,1,41.9999987182618,0|0,3:0|0:0,0:0:0:0:
110,368,66601,6,0,L|192:354,1,83.9999974365235,0|0,0:0|3:0,0:0:0:0:
325,331,66922,1,8,0:3:0:0:
229,264,67082,1,0,0:0:0:0:
383,201,67243,1,0,0:0:0:0:
325,331,67403,1,0,3:0:0:0:
243,152,67564,1,8,0:3:0:0:
313,253,67724,1,0,0:0:0:0:
125,212,67884,5,0,3:0:0:0:
247,125,68045,1,0,0:0:0:0:
243,152,68125,1,0,0:0:0:0:
239,180,68205,1,8,0:3:0:0:
236,208,68285,1,0,0:0:0:0:
232,236,68365,1,0,0:0:0:0:
229,264,68446,1,0,0:0:0:0:
225,291,68526,1,0,3:0:0:0:
125,212,68687,1,0,3:0:0:0:
328,171,68847,1,8,0:3:0:0:
220,318,69007,6,0,P|142:324|105:277,1,125.999996154785,0|0,3:0|0:0,0:0:0:0:
91,272,69328,2,0,L|81:312,2,41.9999987182618,0|0|8,3:0|0:0|0:3,0:0:0:0:
124,151,69649,1,0,0:0:0:0:
176,263,69810,1,0,0:0:0:0:
34,196,69970,1,0,3:0:0:0:
34,196,70050,1,0,0:0:0:0:
34,196,70130,1,8,0:3:0:0:
208,108,70291,1,0,0:0:0:0:
134,184,70451,6,0,P|91:117|124:43,1,167.999994873047,4|8,3:0|0:3,0:0:0:0:
325,116,70933,1,0,0:0:0:0:
298,121,71013,1,0,0:0:0:0:
271,128,71093,1,0,3:0:0:0:
244,134,71173,1,0,0:0:0:0:
216,140,71253,5,0,3:0:0:0:
234,116,71333,1,0,0:0:0:0:
267,111,71413,1,8,0:3:0:0:
298,121,71493,1,0,0:0:0:0:
321,143,71573,1,0,3:0:0:0:
333,175,71654,1,0,0:0:0:0:
328,208,71735,5,0,0:0:0:0:
186,331,71895,1,0,3:0:0:0:
186,331,71975,1,0,0:3:0:0:
186,331,72056,1,8,0:3:0:0:
46,251,72216,1,0,0:0:0:0:
46,251,72296,1,0,0:0:0:0:
46,251,72376,1,0,0:0:0:0:
233,194,72537,1,0,3:0:0:0:
86,68,72697,1,8,0:3:0:0:
145,253,72858,1,0,0:0:0:0:
281,136,73018,6,0,P|243:119|202:127,1,83.9999974365235,0|0,3:0|0:0,0:0:0:0:
385,215,73339,1,8,0:3:0:0:
407,194,73419,1,0,0:0:0:0:
419,165,73499,1,0,0:0:0:0:
418,134,73579,1,0,0:0:0:0:
405,107,73659,1,0,3:0:0:0:
233,194,73820,6,0,L|217:259,1,41.9999987182618,0|0,3:0|0:0,0:0:0:0:
165,335,73981,2,0,L|154:294,1,41.9999987182618,12|0,0:3|0:0,0:0:0:0:
100,189,74141,2,0,L|84:254,1,41.9999987182618,4|0,3:0|0:0,0:0:0:0:
43,342,74302,1,8,0:3:0:0:
42,342,74462,5,0,3:0:0:0:
63,305,74542,1,0,0:0:0:0:
66,264,74622,1,8,0:3:0:0:
49,226,74702,1,0,0:0:0:0:
18,196,74783,5,0,0:0:0:0:
3,156,74863,1,0,0:0:0:0:
9,116,74943,1,0,0:0:0:0:
33,80,75023,1,0,0:0:0:0:
73,66,75104,1,0,3:0:0:0:
114,71,75184,1,0,0:0:0:0:
146,97,75264,2,0,P|138:126|133:148,2,41.9999987182618,8|0|0,0:3|0:0|3:0,0:0:0:0:
194,1,75585,1,4,3:0:0:0:
233,111,75745,5,0,0:0:0:0:
258,128,75825,1,0,0:0:0:0:
288,136,75905,1,8,0:3:0:0:
319,134,75985,1,0,0:0:0:0:
348,123,76065,1,0,0:0:0:0:
371,103,76146,1,0,0:0:0:0:
390,75,76227,5,0,3:0:0:0:
379,112,76307,1,0,0:0:0:0:
382,151,76387,1,0,3:0:0:0:
399,186,76467,1,0,0:0:0:0:
435,221,76548,2,0,L|477:213,1,41.9999987182618,8|0,0:3|0:0,0:0:0:0:
394,307,76708,2,0,L|352:299,1,41.9999987182618,0|0,3:0|0:0,0:0:0:0:
204,221,76868,5,0,0:0:0:0:
208,204,76948,1,0,0:0:0:0:
212,188,77029,2,0,P|232:185|253:187,1,41.9999987182618,0|0,3:0|0:0,0:0:0:0:
250,328,77189,2,0,L|241:370,1,41.9999987182618,8|0,0:3|0:0,0:0:0:0:
108,286,77350,2,0,L|73:308,1,41.9999987182618
66,144,77510,5,0,0:0:0:0:
96,122,77590,1,0,0:0:0:0:
133,114,77670,1,0,3:0:0:0:
169,123,77750,1,0,0:0:0:0:
197,148,77831,2,0,L|211:187,1,41.9999987182618,8|0,0:3|0:0,0:0:0:0:
258,82,77991,2,0,L|321:63,2,41.9999987182618,0|0|0,0:0|0:0|3:0,0:0:0:0:
124,26,78312,5,0,0:0:0:0:
128,69,78392,1,0,0:0:0:0:
133,114,78472,1,8,0:3:0:0:
139,158,78552,1,0,0:0:0:0:
143,202,78633,1,0,0:0:0:0:
148,247,78713,1,0,0:0:0:0:
154,288,78794,1,0,3:0:0:0:
285,234,78954,2,0,L|264:336,1,83.9999974365235,0|8,3:0|0:3,0:0:0:0:
452,103,79275,6,0,P|390:114|339:80,1,125.999996154785,0|0,3:0|0:0,0:0:0:0:
328,51,79596,1,0,3:0:0:0:
410,192,79756,1,8,0:3:0:0:
246,165,79917,1,0,0:0:0:0:
233,168,79997,1,0,0:0:0:0:
220,171,80077,5,0,0:0:0:0:
104,238,80237,1,0,3:0:0:0:
38,120,80398,1,8,0:3:0:0:
155,53,80558,2,0,L|201:58,2,41.9999987182618,0|0|4,0:0|0:0|3:0,0:0:0:0:
72,23,80879,5,0,0:0:0:0:
66,55,80959,1,0,0:0:0:0:
73,88,81039,1,8,0:3:0:0:
92,116,81119,1,0,0:0:0:0:
120,134,81199,1,0,0:0:0:0:
152,141,81280,1,0,0:0:0:0:
185,134,81360,1,0,3:0:0:0:
312,67,81521,5,0,3:0:0:0:
313,50,81601,1,0,0:0:0:0:
315,33,81681,1,8,0:3:0:0:
418,160,81842,5,4,3:0:0:0:
417,143,81922,1,0,0:0:0:0:
415,126,82002,1,0,0:0:0:0:
299,215,82163,6,0,B|274:204|274:204|203:213,2,83.9999974365235,0|8|0,3:0|0:3|0:0,0:0:0:0:
390,295,82644,1,0,0:0:0:0:
334,144,82804,1,0,3:0:0:0:
169,271,82965,5,8,0:3:0:0:
142,239,83045,1,0,0:0:0:0:
136,198,83125,1,0,0:0:0:0:
154,161,83205,1,0,0:0:0:0:
190,138,83286,6,0,P|130:158|71:134,1,125.999996154785,4|0,3:0|0:0,0:0:0:0:
30,56,83606,2,0,B|76:44|76:44|110:55,1,83.9999974365235,8|0,0:3|0:0,0:0:0:0:
217,211,83927,2,0,L|266:201,1,41.9999987182618,0|0,3:0|0:0,0:0:0:0:
423,160,84088,2,0,L|381:151,1,41.9999987182618,0|0,3:0|0:0,0:0:0:0:
286,99,84248,5,8,0:3:0:0:
290,140,84328,1,0,0:0:0:0:
295,182,84408,1,0,0:0:0:0:
299,224,84488,1,0,0:0:0:0:
304,265,84568,1,4,0:3:0:0:
150,315,85852,6,0,L|201:304,1,40,4|0,3:0|3:0,0:0:0:0:
293,283,86173,2,0,L|253:291,1,40
150,315,86494,1,8,0:0:0:0:
379,340,86975,1,0,0:0:0:0:
382,322,87055,1,0,0:0:0:0:
384,305,87136,6,0,L|388:265,1,40
396,193,87457,2,0,L|399:153,1,40
407,80,87778,1,8,0:0:0:0:
325,130,87938,1,0,0:0:0:0:
396,193,88098,1,0,0:0:0:0:
144,220,88419,6,0,L|183:216,1,40,4|0,3:0|3:0,0:0:0:0:
292,203,88740,2,0,L|252:206,1,40
144,220,89061,1,8,0:0:0:0:
93,90,89542,1,0,0:0:0:0:
90,108,89622,1,0,0:0:0:0:
88,125,89703,6,0,L|86:144,3,20
142,200,90024,2,0,L|143:219,3,20
105,278,90345,5,8,0:0:0:0:
170,314,90505,1,0,3:0:0:0:
229,269,90665,1,0,0:0:0:0:
294,305,90825,1,0,0:0:0:0:
294,305,90986,6,0,L|303:253,1,40,4|0,3:0|3:0,0:0:0:0:
322,158,91307,2,0,L|316:198,1,40
294,305,91628,1,8,0:0:0:0:
443,271,92109,1,0,0:0:0:0:
440,252,92189,1,0,0:0:0:0:
436,236,92270,6,0,L|427:196,1,40
404,107,92590,2,0,L|443:112,1,40
322,158,92911,2,0,L|282:163,1,40,8|0,0:0|3:0,0:0:0:0:
319,71,93232,1,0,0:0:0:0:
319,71,93392,1,0,0:0:0:0:
209,198,93553,6,0,L|219:105,1,80,4|0,0:3|0:0,0:0:0:0:
113,188,94515,5,0,0:0:0:0:
94,45,94676,2,0,L|112:188,1,143.999995605469,4|0,0:3|0:0,0:0:0:0:
176,117,95157,1,4,0:3:0:0:
42,216,95318,1,0,0:0:0:0:
235,272,95478,1,0,0:0:0:0:
236,251,95558,1,0,0:0:0:0:
237,231,95638,1,0,0:0:0:0:
238,211,95718,1,0,0:0:0:0:
239,191,95799,1,0,0:0:0:0:
240,171,95879,1,0,0:0:0:0:
242,152,95959,1,0,0:0:0:0:
243,132,96040,1,0,0:0:0:0:
245,113,96120,6,0,P|290:124|333:117,1,83.9999974365235,4|0,3:0|0:0,0:0:0:0:
142,53,96441,2,0,P|101:42|60:46,1,83.9999974365235,8|0,0:3|0:0,0:0:0:0:
122,243,96761,1,0,3:0:0:0:
203,146,96922,1,0,0:0:0:0:
6,194,97082,1,8,0:3:0:0:
184,319,97243,1,0,0:0:0:0:
184,319,97323,1,0,0:0:0:0:
184,319,97403,6,0,L|269:312,1,83.9999974365235,0|0,3:0|0:0,0:0:0:0:
460,255,97724,2,0,L|315:231,1,125.999996154785,8|0,0:3|0:0,0:0:0:0:
258,222,98045,1,0,3:0:0:0:
357,131,98205,1,0,0:0:0:0:
147,95,98366,2,0,L|161:182,1,83.9999974365235,8|0,0:3|0:0,0:0:0:0:
408,68,98687,6,0,P|350:48|296:78,1,125.999996154785,4|0,3:0|0:0,0:0:0:0:
282,149,99007,1,8,0:3:0:0:
95,54,99168,2,0,L|177:36,1,83.9999974365235,0|0,0:0|3:0,0:0:0:0:
142,247,99489,1,0,0:0:0:0:
26,149,99649,1,8,0:3:0:0:
216,200,99810,1,0,0:0:0:0:
220,223,99890,1,0,0:0:0:0:
223,247,99970,5,0,3:0:0:0:
325,256,100130,1,0,0:0:0:0:
328,279,100210,1,0,0:0:0:0:
331,303,100290,1,8,0:3:0:0:
433,311,100451,1,0,0:0:0:0:
222,333,100612,1,0,3:0:0:0:
325,256,100772,1,0,3:0:0:0:
100,224,100933,2,0,L|85:328,1,83.9999974365235,8|0,0:3|0:0,0:0:0:0:
302,80,101253,6,0,P|251:45|191:58,1,125.999996154785,4|0,3:0|0:0,0:0:0:0:
147,120,101574,1,8,0:3:0:0:
402,56,101735,2,0,L|391:139,1,83.9999974365235,0|0,0:0|3:0,0:0:0:0:
248,206,102056,2,0,L|236:113,1,83.9999974365235,0|8,0:0|0:3,0:0:0:0:
382,281,102376,1,0,0:0:0:0:
379,303,102456,1,0,0:0:0:0:
376,326,102537,6,0,B|336:343|336:343|254:332,1,125.999996154785,4|0,3:0|0:0,0:0:0:0:
108,274,102858,2,0,L|195:257,1,83.9999974365235,8|0,0:3|0:0,0:0:0:0:
289,190,103179,1,0,3:0:0:0:
183,330,103339,1,0,0:0:0:0:
78,177,103499,2,0,P|71:136|86:97,1,83.9999974365235,8|0,0:3|0:0,0:0:0:0:
169,147,103820,5,4,3:0:0:0:
27,60,103981,1,0,0:0:0:0:
60,35,104061,1,0,0:0:0:0:
101,31,104141,1,8,0:3:0:0:
137,50,104221,1,0,0:0:0:0:
174,67,104301,1,0,0:0:0:0:
216,65,104382,1,0,0:0:0:0:
250,40,104462,6,0,L|242:85,1,41.9999987182618,4|0,3:0|0:0,0:0:0:0:
314,258,104622,2,0,L|321:216,1,41.9999987182618
394,119,104783,2,0,L|352:111,1,41.9999987182618,0|0,1:0|0:0,0:0:0:0:
162,186,104943,2,0,L|218:196,1,41.9999987182618,0|0,1:0|0:0,0:0:0:0:
432,233,105104,5,4,0:3:0:0:
274,306,106227,6,0,L|232:301,2,41.9999987182618,0|0|8,0:0|0:0|0:0,0:0:0:0:
