osu file format v14

[General]
AudioFilename: audio.mp3
AudioLeadIn: 0
PreviewTime: 44061
Countdown: 0
SampleSet: Soft
StackLeniency: 0.2
Mode: 0
LetterboxInBreaks: 0
WidescreenStoryboard: 0

[Editor]
Bookmarks: 8286,33072,33152,33713,33794,33874,33954,34034,34114,34195,34275,34355,34435,34515,60826,60986,61146,61307,85852
DistanceSpacing: 0.9
BeatDivisor: 4
GridSize: 4
TimelineZoom: 2.599999

[Metadata]
Title:illumina
TitleUnicode:illumina
Artist:DJ TOTTO feat. *spiLa*
ArtistUnicode:DJ TOTTO feat. *spiLa*
Creator:Toyosaki Aki
Version:[ -scarlet- ]'s expert*
Source:pop'n music ラピストリア
Tags:bemani hiumi 田川 義浩 yoshihiro tagawa 兎々 Nanashima Asami kurantemelodii Firis Mistlud [_-Scarlet-_] HappyRocket88 Meg iMage--
BeatmapID:1466329
BeatmapSetID:582132

[Difficulty]
HPDrainRate:5.5
CircleSize:5
OverallDifficulty:9
ApproachRate:9.6
SliderMultiplier:2
SliderTickRate:1

[Events]
//Background and Video events
0,0,"illumina.jpg",0,0
//Break Periods
//Storyboard Layer 0 (Background)
//Storyboard Layer 1 (Fail)
//Storyboard Layer 2 (Pass)
//Storyboard Layer 3 (Foreground)
//Storyboard Sound Samples

[TimingPoints]
1147,320.855614973262,4,2,1,40,1,0
3713,-166.666666666667,4,2,1,40,0,0
3874,-100,4,2,1,40,0,0
4676,-166.666666666667,4,2,1,40,0,0
5799,-100,4,2,1,40,0,0
6280,-166.666666666667,4,2,1,40,0,0
6441,-100,4,2,1,40,0,0
7403,-166.666666666667,4,2,1,40,0,0
9007,-100,4,2,1,40,0,0
9970,-166.666666666667,4,2,1,40,0,0
10933,-100,4,2,1,40,0,0
11414,-166.666666666667,4,2,1,40,0,0
13339,-100,4,2,1,40,0,0
13981,-166.666666666667,4,2,1,40,0,0
14141,-100,4,2,1,40,0,0
14943,-166.666666666667,4,2,1,40,0,0
16708,-100,4,2,1,40,0,0
17671,-166.666666666667,4,2,1,40,0,0
18794,-100,4,2,1,40,0,0
19114,-166.666666666667,4,2,1,40,0,0
22965,-100,4,2,1,40,0,0
23366,-100,4,2,1,40,0,0
23446,-125,4,2,1,40,0,0
23606,-90.9090909090909,4,2,1,40,0,0
24248,-125,4,2,1,50,0,0
34515,-100,4,2,1,60,0,0
40933,-83.3333333333333,4,2,1,60,0,0
41253,-100,4,2,1,60,0,0
41574,-83.3333333333333,4,2,1,60,0,0
41895,-100,4,2,1,60,0,0
44783,-83.3333333333333,4,2,1,70,0,1
47029,-125,4,2,1,70,0,1
47350,-83.3333333333333,4,2,1,70,0,1
52163,-125,4,2,1,70,0,1
52483,-83.3333333333333,4,2,1,70,0,1
54729,-83.3333333333333,4,3,2,70,0,1
54810,-83.3333333333333,4,2,1,70,0,1
54970,-83.3333333333333,4,2,1,70,0,0
55050,-83.3333333333333,4,2,1,70,0,1
57296,-125,4,2,1,70,0,1
57617,-83.3333333333333,4,2,1,70,0,1
59863,-125,4,2,1,70,0,1
60184,-83.3333333333333,4,2,1,70,0,1
61307,-71.4285714285714,4,2,1,70,0,1
61788,-83.3333333333333,4,2,1,70,0,1
62430,-125,4,2,1,70,0,1
62751,-83.3333333333333,4,2,1,70,0,1
63072,-83.3333333333333,4,3,2,70,0,1
63152,-83.3333333333333,4,2,1,70,0,1
65318,-71.4285714285714,4,2,1,70,0,0
65959,-83.3333333333333,4,2,1,70,0,0
69810,-71.4285714285714,4,2,1,70,0,0
70130,-83.3333333333333,4,2,1,70,0,0
71735,-125,4,2,1,70,0,0
74302,-125,4,3,2,70,0,0
74462,-125,4,2,1,70,0,0
74943,-83.3333333333333,4,2,1,70,0,0
84569,-83.3333333333333,4,2,1,50,0,0
85852,-200,4,2,1,50,0,0
94676,-83.3333333333333,4,2,1,60,0,0
95157,-100,4,2,1,60,0,0
96120,-100,4,2,1,70,0,0
96441,-66.6666666666667,4,2,1,70,0,0
96761,-100,4,2,1,70,0,0
97082,-66.6666666666667,4,2,1,70,0,0
97403,-100,4,2,1,70,0,0
97724,-66.6666666666667,4,2,1,70,0,0
98366,-125,4,2,1,70,0,0
98687,-100,4,2,1,70,0,0
98927,-66.6666666666667,4,2,1,70,0,0
99328,-100,4,2,1,70,0,0
99649,-66.6666666666667,4,2,1,70,0,0
99970,-100,4,2,1,70,0,0
100291,-66.6666666666667,4,2,1,70,0,0
100933,-125,4,2,1,70,0,0
101253,-100,4,2,1,70,0,0
106387,-250,4,2,1,50,0,0
108954,-250,4,2,1,30,0,0

[Colours]
Combo1 : 230,140,43
Combo2 : 86,135,226

[HitObjects]
256,192,1147,12,0,3553,0:0:0:0:
292,328,3713,6,0,L|336:312,1,29.9999990844727,4|0,0:3|0:0,0:0:0:0:
448,308,3874,6,0,B|412:316|380:372|380:372|408:324|388:284|388:284|408:240|384:208|384:208|384:240|356:264,1,300,0|8,3:0|0:0,0:0:0:0:
372,60,4676,5,0,0:0:0:0:
288,116,4836,2,0,L|296:152,1,29.9999990844727,0|0,0:0|0:0,0:0:0:0:
294,145,4997,6,0,P|308:108|288:56,1,89.9999972534181,0|0,0:0|0:0,0:0:0:0:
268,40,5318,1,0,0:0:0:0:
196,104,5478,1,0,0:0:0:0:
104,80,5638,2,0,P|96:64|100:44,1,29.9999990844727,0|0,0:0|0:0,0:0:0:0:
28,52,5799,6,0,P|-4:84|40:72,1,100,0|0,3:0|0:0,0:0:0:0:
96,320,6280,2,0,L|108:280,1,29.9999990844727,4|0,0:3|0:0,0:0:0:0:
0,224,6441,6,0,B|80:264|72:200|148:232|148:232|116:208|116:152|116:152|104:196|56:208,1,300,0|8,0:0|0:0,0:0:0:0:
244,308,7403,1,0,0:0:0:0:
244,308,7484,1,0,0:0:0:0:
244,308,7564,6,0,L|248:364,3,29.9999990844727,0|0|0|0,0:0|0:0|0:0|0:0,0:0:0:0:
320,344,7884,2,0,L|362:380,3,29.9999990844727,0|0|0|0,0:0|0:0|0:0|0:0,0:0:0:0:
416,340,8205,1,8,0:0:0:0:
440,336,8286,1,0,0:0:0:0:
464,332,8366,1,0,3:0:0:0:
488,328,8446,1,0,0:0:0:0:
512,324,8526,5,0,0:0:0:0:
504,332,8606,1,0,0:0:0:0:
496,344,8687,1,0,0:0:0:0:
488,356,8767,1,0,0:0:0:0:
480,364,8847,2,0,P|460:372|436:368,1,29.9999990844727,4|0,0:3|0:0,0:0:0:0:
380,228,9007,6,0,B|448:204|452:132|452:132|476:192|424:236|460:312,1,300,0|8,0:0|0:0,0:0:0:0:
24,316,9970,5,0,0:0:0:0:
48,288,10050,1,0,0:0:0:0:
84,276,10130,1,0,1:0:0:0:
200,240,10291,5,0,0:0:0:0:
180,216,10371,1,0,0:0:0:0:
152,208,10451,1,0,0:0:0:0:
80,144,10612,5,0,0:0:0:0:
96,124,10692,1,0,0:0:0:0:
120,116,10772,2,0,P|144:124|152:132,1,29.9999990844727,8|0,0:0|0:0,0:0:0:0:
216,144,10933,6,0,P|244:112|212:120,1,100,0|0,3:0|0:0,0:0:0:0:
384,68,11414,6,0,L|388:112,1,29.9999990844727,4|0,0:3|0:0,0:0:0:0:
392,164,11574,1,0,0:0:0:0:
293,213,11735,2,0,L|253:173,1,29.9999990844727,0|0,1:0|0:0,0:0:0:0:
272,192,11895,6,0,P|300:204|344:184,1,59.9999981689454,0|8,0:0|0:0,0:0:0:0:
512,144,12216,2,0,P|484:132|440:152,1,59.9999981689454,0|0,0:0|0:0,0:0:0:0:
364,264,12537,1,0,0:0:0:0:
368,292,12617,1,0,0:0:0:0:
372,320,12697,6,0,L|380:372,3,29.9999990844727,0|0|0|0,0:0|0:0|0:0|0:0,0:0:0:0:
296,360,13018,2,0,L|288:308,3,29.9999990844727,0|0|0|0,0:0|0:0|0:0|0:0,0:0:0:0:
240,256,13339,6,0,B|184:224|184:224|152:248,1,100,8|0,0:0|0:0,0:0:0:0:
0,252,13580,2,0,B|56:284|56:284|88:260,1,100,8|0,0:0|0:0,0:0:0:0:
136,316,13820,1,8,0:0:0:0:
292,204,13981,2,0,L|292:156,1,29.9999990844727,4|0,0:3|0:0,0:0:0:0:
240,120,14141,6,0,B|292:84|348:120|348:120|344:44|412:16|412:16|380:52|396:88,1,300,0|8,0:0|0:0,0:0:0:0:
256,32,14943,6,0,P|212:24|180:44,1,59.9999981689454,0|0,0:0|0:0,0:0:0:0:
124,40,15184,1,0,0:0:0:0:
124,40,15264,6,0,B|156:76|156:76|140:144,1,89.9999972534181,0|0,0:0|0:0,0:0:0:0:
136,184,15585,1,0,0:0:0:0:
16,184,15745,2,0,P|40:167|70:167,1,59.9999981689454,0|8,0:0|0:0,0:0:0:0:
132,260,16066,2,0,P|161:266|182:286,1,59.9999981689454,0|0,3:0|0:0,0:0:0:0:
359,305,16548,2,0,L|356:334,1,29.9999990844727,4|0,0:3|0:0,0:0:0:0:
266,348,16708,6,0,B|280:284|362:258|362:258|410:298|414:342|414:342|378:322|308:346,1,300,0|8,0:0|0:0,0:0:0:0:
120,268,17671,1,0,0:0:0:0:
120,268,17751,1,0,0:0:0:0:
120,268,17831,6,0,L|68:280,3,29.9999990844727,0|0|0|0,0:0|0:0|0:0|0:0,0:0:0:0:
48,216,18152,2,0,L|2:187,3,29.9999990844727,0|0|0|0,0:0|0:0|0:0|0:0,0:0:0:0:
16,128,18473,1,8,0:0:0:0:
24,92,18553,1,8,0:0:0:0:
48,64,18633,1,0,0:0:0:0:
84,52,18713,1,0,0:0:0:0:
120,60,18794,6,0,L|200:44,1,50,8|8,0:0|0:0,0:0:0:0:
288,128,18954,2,0,L|238:137,1,50,8|8,0:0|0:0,0:0:0:0:
168,236,19114,6,0,L|176:284,1,29.9999990844727,4|0,0:3|0:0,0:0:0:0:
184,336,19275,1,0,0:0:0:0:
61,277,19435,2,0,L|29:245,1,29.9999990844727,0|0,1:0|0:0,0:0:0:0:
40,256,19596,6,0,P|88:264|116:240,1,59.9999981689454,0|8,0:0|0:0,0:0:0:0:
144,168,19917,2,0,P|172:161|200:172,1,59.9999981689454,0|0,0:0|0:0,0:0:0:0:
296,352,20237,5,0,0:0:0:0:
328,336,20318,1,0,0:0:0:0:
344,304,20398,1,0,1:0:0:0:
428,328,20558,5,0,0:0:0:0:
436,300,20638,1,0,0:0:0:0:
428,272,20719,1,0,0:0:0:0:
504,248,20879,5,0,0:0:0:0:
496,224,20959,1,0,0:0:0:0:
476,208,21040,1,8,0:0:0:0:
296,248,21200,1,0,0:0:0:0:
428,272,21360,1,0,0:0:0:0:
308,140,21521,1,0,0:0:0:0:
300,336,21681,6,0,L|256:328,1,29.9999990844727,4|0,0:3|0:0,0:0:0:0:
204,320,21842,1,0,3:0:0:0:
211,225,22002,2,0,L|215:185,1,29.9999990844727,0|0,0:0|0:0,0:0:0:0:
214,196,22163,6,0,P|230:224|218:264,1,59.9999981689454,0|8,0:0|0:0,0:0:0:0:
112,344,22483,2,0,L|108:296,1,29.9999990844727,0|0,3:0|3:0,0:0:0:0:
36,264,22644,5,8,0:0:0:0:
60,240,22724,1,0,0:0:0:0:
92,228,22804,1,8,0:0:0:0:
128,228,22884,1,0,0:0:0:0:
160,240,22965,6,0,P|240:300|208:196,1,250,4|0,0:3|0:0,0:0:0:0:
232,216,23446,1,0,0:0:0:0:
288,132,23606,6,0,P|360:20|352:172,1,385.000011749268
288,212,24248,6,0,B|244:216|216:180|216:180|188:224|124:220,1,160,4|0,0:3|0:0,0:0:0:0:
20,116,24729,1,0,0:0:0:0:
52,48,24890,2,0,L|152:24,1,80,0|0,0:0|0:0,0:0:0:0:
208,116,25211,1,0,0:0:0:0:
152,219,25371,1,0,0:0:0:0:
152,219,25451,1,0,0:0:0:0:
152,219,25532,6,0,L|52:240,1,80,0|0,0:0|0:0,0:0:0:0:
264,332,25852,2,0,L|342:315,1,80,0|0,0:0|0:0,0:0:0:0:
404,336,26093,1,0,0:0:0:0:
404,348,26173,5,0,0:0:0:0:
468,300,26334,1,0,0:0:0:0:
484,220,26494,1,0,0:0:0:0:
448,148,26655,2,0,L|408:140,1,40,0|0,3:0|0:0,0:0:0:0:
292,120,26815,6,0,P|348:108|368:32,1,120,0|0,3:0|0:0,0:0:0:0:
332,4,27136,1,0,0:0:0:0:
224,144,27296,1,0,0:0:0:0:
120,0,27457,5,0,0:0:0:0:
224,144,27617,1,0,0:0:0:0:
140,92,27778,5,0,0:0:0:0:
316,104,27938,1,0,0:0:0:0:
84,152,28098,6,0,P|64:120|68:72,1,80,0|0,0:0|0:0,0:0:0:0:
208,248,28419,2,0,P|209:287|189:321,1,80,0|0,0:0|0:0,0:0:0:0:
124,344,28660,1,0,0:0:0:0:
116,328,28740,5,0,0:0:0:0:
164,176,28901,1,0,0:0:0:0:
200,156,28981,1,0,0:0:0:0:
240,164,29061,1,0,0:0:0:0:
272,192,29141,5,0,0:0:0:0:
308,204,29221,1,0,0:0:0:0:
344,184,29302,1,0,0:0:0:0:
372,156,29382,6,0,L|360:64,1,80,0|0,3:0|0:0,0:0:0:0:
352,8,29703,1,0,0:0:0:0:
432,208,29863,2,0,P|468:228|528:220,1,80,0|0,0:0|0:0,0:0:0:0:
148,60,30344,6,0,P|108:52|68:76,1,80,0|0,0:0|0:0,0:0:0:0:
52,160,30585,1,0,0:0:0:0:
44,152,30665,2,0,L|136:128,1,80,0|0,0:0|0:0,0:0:0:0:
228,312,30986,6,0,P|188:320|148:296,1,80,0|0,0:0|0:0,0:0:0:0:
132,216,31227,1,0,0:0:0:0:
124,220,31307,2,0,L|216:244,1,80,0|0,0:0|0:0,0:0:0:0:
328,320,31628,1,0,0:0:0:0:
400,308,31788,1,0,3:0:0:0:
472,296,31949,6,0,P|436:316|420:368,1,80,0|0,3:0|0:0,0:0:0:0:
340,348,32189,1,0,0:0:0:0:
333,357,32269,2,0,P|325:339|328:320,1,40,0|0,0:0|0:0,0:0:0:0:
252,304,32430,2,0,P|253:284|266:268,1,40,0|0,0:0|0:0,0:0:0:0:
228,196,32590,5,0,0:0:0:0:
360,252,32751,1,0,0:0:0:0:
212,80,32911,5,0,0:0:0:0:
60,164,33072,1,0,0:0:0:0:
60,164,33152,1,0,0:0:0:0:
60,164,33232,2,0,B|52:208|52:208|96:196,1,80,0|0,0:0|0:0,0:0:0:0:
212,80,33553,2,0,B|220:36|220:36|176:48,1,80,0|0,0:0|0:0,0:0:0:0:
136,100,33794,1,0,0:0:0:0:
128,108,33874,5,0,0:0:0:0:
144,144,33954,1,0,0:0:0:0:
180,168,34034,1,0,0:0:0:0:
228,168,34114,1,0,0:0:0:0:
272,140,34195,2,0,L|316:132,1,40,0|0,0:0|0:0,0:0:0:0:
460,224,34355,2,0,L|420:231,1,40,0|0,0:0|0:0,0:0:0:0:
296,316,34515,6,0,B|328:320|356:352|356:352|316:292|332:216,1,200,4|0,3:0|3:0,0:0:0:0:
216,276,34997,1,0,0:0:0:0:
216,276,35157,2,0,P|156:292|124:312,1,100,0|0,3:0|0:0,0:0:0:0:
68,140,35478,1,0,3:0:0:0:
144,156,35638,1,0,0:0:0:0:
196,92,35799,5,0,3:0:0:0:
88,232,35959,1,0,0:0:0:0:
116,80,36120,5,0,3:0:0:0:
168,248,36280,1,0,0:0:0:0:
40,160,36441,5,0,3:0:0:0:
272,104,36601,1,0,0:0:0:0:
116,80,36761,5,0,3:0:0:0:
328,216,36922,1,0,0:0:0:0:
176,368,37082,6,0,P|196:320|164:272,1,100,0|0,3:0|0:0,0:0:0:0:
88,232,37403,1,0,3:0:0:0:
20,308,37564,1,0,0:0:0:0:
144,168,37724,5,0,3:0:0:0:
175,279,37884,1,0,0:0:0:0:
12,184,38045,5,0,3:0:0:0:
64,76,38205,1,0,0:0:0:0:
268,112,38366,5,0,3:0:0:0:
188,12,38526,1,0,0:0:0:0:
176,104,38687,5,0,3:0:0:0:
292,28,38847,1,0,0:0:0:0:
316,192,39007,5,0,3:0:0:0:
104,48,39168,1,0,0:0:0:0:
96,184,39328,5,0,3:0:0:0:
360,88,39489,1,0,0:0:0:0:
128,308,39649,6,0,P|72:304|24:328,1,100,4|0,3:0|0:0,0:0:0:0:
172,372,39970,2,0,P|208:324|184:264,1,100,0|0,3:0|0:0,0:0:0:0:
360,198,40291,6,0,P|416:194|464:218,1,100,0|0,3:0|0:0,0:0:0:0:
312,266,40612,2,0,P|276:218|300:158,1,100,0|0,3:0|0:0,0:0:0:0:
296,80,40852,1,0,0:0:0:0:
264,104,40933,6,0,P|276:48|292:120,1,179.999994506836,0|0,3:0|0:0,0:0:0:0:
204,140,41253,2,0,B|100:124,1,100,0|0,3:0|0:0,0:0:0:0:
44,232,41494,1,0,0:0:0:0:
76,256,41575,6,0,P|64:200|48:272,1,179.999994506836,0|0,3:0|0:0,0:0:0:0:
132,296,41895,2,0,B|236:280,1,100,0|0,3:0|0:0,0:0:0:0:
304,352,42136,1,0,0:0:0:0:
296,364,42216,2,0,P|288:344|300:292,1,50,0|0,3:0|0:0,0:0:0:0:
496,288,42377,5,0,0:0:0:0:
456,320,42457,1,0,0:0:0:0:
408,336,42538,2,0,P|376:336|352:328,1,50,0|0,3:0|0:0,0:0:0:0:
292,124,42697,5,0,0:0:0:0:
339,142,42777,1,0,0:0:0:0:
377,176,42858,2,0,P|393:203|398:228,1,50,0|0,3:0|0:0,0:0:0:0:
252,376,43018,5,0,0:0:0:0:
244,325,43098,1,0,0:0:0:0:
254,275,43179,2,0,P|270:247|288:230,1,50,0|0,3:0|0:0,0:0:0:0:
136,292,43339,1,0,0:0:0:0:
97,287,43419,1,0,0:0:0:0:
60,303,43499,6,0,L|68:355,7,50,4|0|0|0|0|0|0|0,0:3|0:0|0:0|0:0|0:0|0:0|0:0|0:0,0:0:0:0:
0,236,44141,5,0,0:0:0:0:
24,216,44221,1,0,0:0:0:0:
56,208,44302,1,0,0:0:0:0:
96,212,44382,1,0,0:0:0:0:
128,244,44462,1,0,0:0:0:0:
160,280,44542,1,0,0:0:0:0:
216,288,44622,1,0,0:0:0:0:
268,256,44703,1,0,0:0:0:0:
288,192,44783,6,0,B|316:156|372:148|372:148|408:196|468:184,1,179.999994506836,4|0,3:0|0:0,0:0:0:0:
500,144,45104,1,8,0:3:0:0:
260,52,45264,1,0,0:0:0:0:
260,52,45344,1,0,0:0:0:0:
260,52,45425,2,0,B|232:44|232:44|192:60,1,59.9999981689454,0|0,3:0|0:0,0:0:0:0:
152,120,45585,2,0,B|123:131|123:131|95:123,1,59.9999981689454,0|0,3:0|0:0,0:0:0:0:
40,72,45745,5,8,0:3:0:0:
24,260,45906,2,0,B|48:200|128:196|128:196|100:220|100:256,1,179.999994506836,0|0,3:0|0:0,0:0:0:0:
84,304,46227,1,0,3:0:0:0:
188,376,46387,2,0,L|172:212,1,119.999996337891,8|0,0:3|0:0,0:0:0:0:
256,184,46628,1,0,0:0:0:0:
254,173,46708,6,0,P|235:191|239:231,1,59.9999981689454,0|0,3:0|0:0,0:0:0:0:
388,228,46868,1,0,3:0:0:0:
432,60,47029,2,0,P|406:25|420:72,1,120,8|0,0:3|0:0,0:0:0:0:
392,156,47350,6,0,B|508:112|508:112|468:188,1,179.999994506836,0|0,3:0|0:0,0:0:0:0:
436,216,47671,1,8,0:3:0:0:
220,356,47831,1,0,0:0:0:0:
220,356,47911,1,0,0:0:0:0:
220,356,47991,6,0,P|216:324|244:292,1,59.9999981689454,0|0,3:0|0:0,0:0:0:0:
363,286,48152,2,0,P|367:256|353:230,1,59.9999981689454,0|0,3:0|0:0,0:0:0:0:
236,140,48312,1,8,0:3:0:0:
368,160,48473,6,0,B|308:176|308:176|280:204|280:204|204:224,1,179.999994506836,0|0,3:0|0:0,0:0:0:0:
136,240,48794,1,0,3:0:0:0:
323,347,48954,2,0,L|354:232,1,119.999996337891,8|0,0:3|0:0,0:0:0:0:
364,144,49195,1,0,0:0:0:0:
368,160,49275,6,0,P|328:168|296:148,1,59.9999981689454,0|0,3:0|0:0,0:0:0:0:
208,72,49435,1,0,3:0:0:0:
356,16,49596,1,8,0:3:0:0:
488,96,49756,1,0,0:0:0:0:
256,256,49917,6,0,B|164:224|160:320|48:224,1,179.999994506836,4|0,3:0|0:0,0:0:0:0:
48,192,50237,1,8,0:3:0:0:
212,336,50398,1,0,0:0:0:0:
212,336,50478,1,0,0:0:0:0:
212,336,50558,6,0,L|288:320,1,59.9999981689454,0|0,3:0|0:0,0:0:0:0:
405,292,50719,2,0,L|464:280,1,59.9999981689454,0|0,3:0|0:0,0:0:0:0:
348,360,50879,1,8,0:3:0:0:
240,248,51040,6,0,B|292:232|328:260|328:260|348:216|400:208,1,179.999994506836,0|0,3:0|0:0,0:0:0:0:
464,208,51360,1,0,3:0:0:0:
256,164,51521,2,0,P|256:84|308:36,1,119.999996337891,8|0,0:3|0:0,0:0:0:0:
336,12,51761,1,0,0:0:0:0:
344,12,51842,6,0,P|360:40|340:72,1,59.9999981689454,0|0,0:0|0:0,0:0:0:0:
256,164,52002,1,0,3:0:0:0:
128,76,52163,2,0,P|120:60|116:104,1,120,8|0,0:3|0:0,0:0:0:0:
142,159,52483,6,0,B|228:96|228:96|256:164,1,179.999994506836,0|0,3:0|0:0,0:0:0:0:
276,228,52804,1,8,0:3:0:0:
109,319,52965,1,0,0:0:0:0:
109,319,53045,1,0,0:0:0:0:
109,319,53125,6,0,L|189:303,1,59.9999981689454,0|0,3:0|0:0,0:0:0:0:
217,239,53286,2,0,L|275:227,1,59.9999981689454,0|0,3:0|0:0,0:0:0:0:
336,168,53446,1,8,0:3:0:0:
424,328,53606,6,0,B|416:364|416:364|360:320|376:260|428:228,1,179.999994506836,4|0,3:0|0:0,0:0:0:0:
472,272,53927,1,0,3:0:0:0:
364,120,54088,2,0,P|384:48|416:116,1,179.999994506836,8|0,0:3|0:0,0:0:0:0:
488,148,54409,5,0,0:0:0:0:
468,176,54489,1,0,0:0:0:0:
440,196,54569,1,0,3:0:0:0:
404,204,54649,1,0,0:0:0:0:
368,200,54729,6,0,P|340:196|300:156,1,59.9999981689454,8|0,0:3|0:0,0:0:0:0:
120,188,54890,2,0,P|148:173|171:130,1,59.9999981689454,0|0,3:0|0:0,0:0:0:0:
208,44,55050,6,0,L|260:256,1,179.999994506836,4|0,3:0|0:0,0:0:0:0:
204,276,55371,1,8,0:3:0:0:
405,196,55532,1,0,0:0:0:0:
405,196,55612,1,0,0:0:0:0:
405,196,55692,6,0,B|373:184|373:184|325:208,1,59.9999981689454,0|0,3:0|0:0,0:0:0:0:
277,328,55852,2,0,B|282:361|282:361|327:391,1,59.9999981689454,0|0,3:0|0:0,0:0:0:0:
457,368,56013,2,0,B|483:346|483:346|486:292,1,59.9999981689454,8|0,0:3|0:0,0:0:0:0:
377,300,56173,6,0,B|309:284|309:284|273:296|273:296|193:272,1,179.999994506836,0|0,3:0|0:0,0:0:0:0:
141,256,56494,1,0,3:0:0:0:
316,36,56655,2,0,P|336:92|304:152,1,119.999996337891,8|0,0:3|0:0,0:0:0:0:
260,192,56895,1,0,0:0:0:0:
256,204,56975,6,0,P|236:188|248:144,1,59.9999981689454,0|0,0:0|0:0,0:0:0:0:
404,120,57136,1,0,3:0:0:0:
200,80,57296,2,0,P|224:116|232:60,1,120,8|0,0:3|0:0,0:0:0:0:
188,0,57617,6,0,B|132:16|116:76|116:76|100:28|16:28,1,179.999994506836,0|0,3:0|0:0,0:0:0:0:
0,56,57938,1,8,0:3:0:0:
104,164,58098,1,0,0:0:0:0:
104,164,58179,1,0,0:0:0:0:
104,164,58259,6,0,P|124:188|124:244,1,59.9999981689454,0|0,3:0|0:0,0:0:0:0:
268,308,58419,2,0,P|237:313|188:285,1,59.9999981689454,0|0,3:0|0:0,0:0:0:0:
56,376,58580,2,0,P|66:346|115:318,1,59.9999981689454,8|0,0:3|0:0,0:0:0:0:
244,228,58740,6,0,B|364:260|364:260|328:196,1,179.999994506836,0|0,3:0|0:0,0:0:0:0:
284,168,59061,1,0,3:0:0:0:
320,340,59221,2,0,L|456:312,1,119.999996337891,8|0,0:3|0:0,0:0:0:0:
488,364,59462,1,0,0:0:0:0:
484,372,59542,6,0,P|512:344|492:304,1,59.9999981689454,0|0,3:0|0:0,0:0:0:0:
416,180,59703,1,0,3:0:0:0:
282,329,59863,2,0,P|289:376|320:340,1,120,8|0,0:3|0:0,0:0:0:0:
308,260,60184,6,0,B|196:220|196:220|232:296,1,179.999994506836,4|0,3:0|0:0,0:0:0:0:
200,340,60505,1,8,0:3:0:0:
32,312,60665,1,0,0:0:0:0:
32,312,60745,1,0,0:0:0:0:
32,312,60826,6,0,P|64:292|108:296,1,59.9999981689454,0|0,3:0|0:0,0:0:0:0:
208,196,60986,2,0,P|176:176|132:180,1,59.9999981689454,0|0,3:0|0:0,0:0:0:0:
36,72,61146,2,0,P|68:52|112:56,1,59.9999981689454,8|0,0:3|0:0,0:0:0:0:
272,112,61307,6,0,B|324:76|360:88|368:164|500:116|464:4|360:8|384:80,1,279.999991455078,4|0,3:0|3:0,0:0:0:0:
320,176,61788,2,0,P|300:232|320:312,1,119.999996337891,8|0,0:3|0:0,0:0:0:0:
416,344,62029,1,0,0:0:0:0:
424,336,62109,6,0,P|400:312|352:316,1,59.9999981689454,0|0,3:0|0:0,0:0:0:0:
252,368,62269,1,0,3:0:0:0:
168,224,62430,2,0,P|168:272|136:232,1,120,8|0,0:3|0:0,0:0:0:0:
128,164,62751,6,0,P|156:152|188:156,1,59.9999981689454,4|0,3:0|0:0,0:0:0:0:
268,262,62911,1,0,0:0:0:0:
308,292,62991,1,0,0:0:0:0:
356,292,63072,1,8,0:3:0:0:
400,272,63152,1,0,0:0:0:0:
432,236,63232,1,0,0:0:0:0:
440,188,63312,1,0,0:0:0:0:
420,144,63392,5,0,3:0:0:0:
388,160,63473,1,0,0:0:0:0:
368,188,63553,1,0,3:0:0:0:
364,224,63633,1,0,0:0:0:0:
368,260,63713,6,0,L|432:276,1,59.9999981689454,8|0,1:3|0:0,0:0:0:0:
264,176,63874,2,0,L|205:161,1,59.9999981689454,0|0,1:0|0:0,0:0:0:0:
306,41,64034,5,4,0:3:0:0:
317,38,64114,1,0,0:0:0:0:
329,36,64195,1,0,0:0:0:0:
341,34,64275,1,0,0:0:0:0:
353,32,64355,1,0,0:0:0:0:
365,30,64435,1,0,0:0:0:0:
376,28,64515,1,0,0:0:0:0:
388,26,64596,1,0,0:0:0:0:
400,24,64676,5,0,0:0:0:0:
394,61,64756,1,0,0:0:0:0:
374,97,64836,1,0,0:0:0:0:
342,133,64917,1,0,0:0:0:0:
294,157,64997,1,0,0:0:0:0:
234,169,65077,1,0,0:0:0:0:
170,173,65157,1,0,0:0:0:0:
102,153,65237,1,0,0:0:0:0:
48,104,65318,6,0,B|64:8|184:8|184:8|216:72|132:128,1,279.999991455078,4|8,3:0|0:3,0:0:0:0:
204,316,65959,5,0,3:0:0:0:
236,280,66040,1,0,0:0:0:0:
284,272,66120,1,0,3:0:0:0:
328,288,66200,1,0,0:0:0:0:
352,328,66280,5,8,0:3:0:0:
372,284,66360,1,0,0:0:0:0:
416,264,66441,1,0,3:0:0:0:
464,268,66521,1,0,0:0:0:0:
504,292,66601,5,0,0:0:0:0:
344,204,66761,1,0,3:0:0:0:
204,316,66922,1,8,0:3:0:0:
296,372,67082,1,0,0:0:0:0:
308,352,67163,1,0,0:0:0:0:
308,328,67243,5,0,0:0:0:0:
204,212,67403,1,0,3:0:0:0:
64,280,67564,1,8,0:3:0:0:
172,108,67724,1,0,0:0:0:0:
172,108,67804,1,0,0:0:0:0:
172,108,67884,2,0,L|148:44,1,59.9999981689454,0|0,3:0|0:0,0:0:0:0:
0,152,68045,5,0,0:0:0:0:
28,128,68125,1,0,0:0:0:0:
64,124,68205,1,8,0:3:0:0:
96,136,68286,1,0,0:0:0:0:
116,168,68366,5,0,0:0:0:0:
160,188,68446,1,0,0:0:0:0:
208,184,68526,1,0,3:0:0:0:
244,152,68606,1,0,0:0:0:0:
264,108,68687,6,0,P|288:96|344:112,1,59.9999981689454,0|0,3:0|0:0,0:0:0:0:
384,152,68847,1,8,0:3:0:0:
308,288,69007,2,0,B|252:332|252:332|308:160,1,239.999992675781,0|0,3:0|3:0,0:0:0:0:
364,240,69409,1,0,0:0:0:0:
360,232,69489,6,0,P|384:260|376:308,1,59.9999981689454,8|0,0:3|0:0,0:0:0:0:
288,360,69649,2,0,P|251:366|214:335,1,59.9999981689454,0|0,0:0|0:0,0:0:0:0:
166,189,69810,6,0,L|304:171,1,139.999995727539,0|0,0:0|3:0,0:0:0:0:
376,132,70050,1,0,0:0:0:0:
372,140,70130,6,0,P|396:112|388:64,1,59.9999981689454,8|0,0:3|0:0,0:0:0:0:
300,12,70290,2,0,P|263:5|226:36,1,59.9999981689454,0|0,0:0|0:0,0:0:0:0:
52,88,70451,6,0,B|116:84|152:28|152:28|160:108|276:136,1,239.999992675781,4|8,3:0|0:3,0:0:0:0:
20,320,70933,5,0,0:0:0:0:
52,268,71013,1,0,0:0:0:0:
100,240,71093,1,0,3:0:0:0:
144,224,71173,1,0,0:0:0:0:
180,220,71253,1,0,3:0:0:0:
208,224,71334,1,0,0:0:0:0:
232,232,71414,5,8,0:3:0:0:
228,244,71494,1,0,0:0:0:0:
224,256,71574,1,0,3:0:0:0:
220,268,71655,1,0,0:0:0:0:
216,276,71735,2,0,L|196:328,1,40
96,332,71895,5,0,3:0:0:0:
96,332,71975,1,0,0:3:0:0:
96,332,72056,2,0,L|160:320,1,40,8|0,0:3|0:0,0:0:0:0:
192,380,72216,2,0,L|256:368,1,40
276,308,72376,1,0,0:0:0:0:
380,356,72537,5,0,3:0:0:0:
324,244,72697,1,8,0:3:0:0:
416,156,72858,1,0,0:0:0:0:
468,272,73018,1,0,3:0:0:0:
480,272,73339,5,8,3:0:0:0:
420,140,73499,1,0,0:0:0:0:
312,236,73660,1,0,3:0:0:0:
376,368,73820,1,0,3:0:0:0:
188,240,73981,1,12,0:3:0:0:
197,231,74061,1,0,0:0:0:0:
206,223,74141,5,4,3:0:0:0:
189,268,74221,1,0,0:0:0:0:
144,283,74302,2,0,P|119:277|92:253,1,40,8|0,0:3|0:0,0:0:0:0:
40,140,74462,5,0,3:0:0:0:
64,100,74542,1,0,0:0:0:0:
104,80,74622,1,8,0:3:0:0:
144,76,74703,1,0,0:0:0:0:
180,88,74783,1,0,0:0:0:0:
204,108,74863,1,0,0:0:0:0:
220,132,74943,6,0,P|248:144|284:136,1,59.9999981689454,0|0,0:0|0:0,0:0:0:0:
436,92,75104,2,0,P|408:80|372:88,1,59.9999981689454,0|0,3:0|0:0,0:0:0:0:
380,232,75264,6,0,L|392:164,1,59.9999981689454,8|0,0:3|0:0,0:0:0:0:
272,12,75425,2,0,L|261:71,1,59.9999981689454,0|0,3:0|0:0,0:0:0:0:
100,184,75585,1,4,3:0:0:0:
280,328,75745,5,0,0:0:0:0:
324,344,75826,1,0,0:0:0:0:
368,324,75906,1,8,0:3:0:0:
416,332,75986,1,0,0:0:0:0:
456,304,76066,2,0,P|464:276|436:232,1,59.9999981689454,0|0,3:0|0:0,0:0:0:0:
212,260,76227,5,0,3:0:0:0:
168,276,76307,1,0,0:0:0:0:
124,256,76387,1,0,3:0:0:0:
76,264,76467,1,0,0:0:0:0:
36,236,76548,2,0,P|28:208|56:164,1,59.9999981689454,8|0,0:3|0:0,0:0:0:0:
276,188,76708,5,0,3:0:0:0:
320,204,76788,1,0,0:0:0:0:
364,184,76868,1,0,0:0:0:0:
412,192,76949,1,0,0:0:0:0:
452,164,77029,2,0,P|460:136|432:92,1,59.9999981689454,0|0,3:0|0:0,0:0:0:0:
212,116,77189,5,8,0:3:0:0:
168,132,77269,1,0,0:0:0:0:
124,112,77350,1,0,0:0:0:0:
76,120,77430,1,0,0:0:0:0:
36,92,77510,2,0,P|28:64|56:20,1,59.9999981689454
280,40,77671,5,0,3:0:0:0:
324,56,77751,1,0,0:0:0:0:
368,36,77831,1,8,0:3:0:0:
416,44,77911,1,0,0:0:0:0:
456,16,77991,2,0,P|484:52|476:88,1,59.9999981689454
464,184,78152,6,0,P|396:168|336:192,1,119.999996337891,0|0,3:0|0:0,0:0:0:0:
308,232,78392,1,0,0:0:0:0:
300,256,78473,1,8,0:3:0:0:
300,280,78553,1,0,0:0:0:0:
308,304,78633,5,0,0:0:0:0:
328,268,78713,1,0,0:0:0:0:
308,232,78794,1,0,3:0:0:0:
268,228,78874,1,0,0:0:0:0:
232,244,78954,2,0,P|200:252|136:228,1,59.9999981689454,0|0,3:0|0:0,0:0:0:0:
80,136,79114,2,0,P|112:144|176:120,1,59.9999981689454,8|0,0:3|0:0,0:0:0:0:
76,364,79275,6,0,P|108:280|60:192,1,179.999994506836,0|0,3:0|0:0,0:0:0:0:
80,87,79596,2,0,B|52:59|52:59|48:143|120:159|180:127,1,179.999994506836,0|0,3:0|0:0,0:0:0:0:
208,124,79917,1,0,0:0:0:0:
188,88,79997,1,0,0:0:0:0:
148,72,80077,5,0,0:0:0:0:
284,240,80237,1,0,3:0:0:0:
384,48,80398,1,8,0:3:0:0:
212,212,80558,2,0,P|204:240|228:288,1,59.9999981689454,0|0,0:0|0:0,0:0:0:0:
389,363,80719,6,0,P|414:314|413:227,1,119.999996337891,4|0,3:0|0:0,0:0:0:0:
422,202,80959,1,0,0:0:0:0:
395,245,81040,1,8,0:3:0:0:
355,269,81120,1,0,0:0:0:0:
311,281,81200,1,0,0:0:0:0:
263,277,81280,1,0,0:0:0:0:
223,253,81360,1,0,3:0:0:0:
80,316,81521,6,0,B|92:344|92:344|136:316,2,59.9999981689454,0|0|8,3:0|0:0|0:3,0:0:0:0:
220,172,81842,5,4,3:0:0:0:
184,180,81922,1,0,0:0:0:0:
156,204,82002,1,0,0:0:0:0:
20,48,82163,5,0,3:0:0:0:
56,56,82243,1,0,0:0:0:0:
84,80,82323,1,8,0:3:0:0:
224,252,82483,1,0,0:0:0:0:
224,252,82564,1,0,0:0:0:0:
224,252,82644,6,0,L|204:352,2,79.9999975585938,0|0|0,0:0|0:0|0:0,0:0:0:0:
148,176,82965,5,8,0:3:0:0:
220,164,83045,1,0,0:0:0:0:
292,152,83125,1,0,0:0:0:0:
364,140,83205,1,0,0:0:0:0:
428,184,83286,6,0,P|444:268|376:192,1,239.999992675781,4|8,3:0|0:3,0:0:0:0:
328,24,83767,5,0,0:0:0:0:
304,84,83847,1,0,0:0:0:0:
252,112,83927,1,0,3:0:0:0:
196,116,84007,1,0,0:0:0:0:
148,100,84088,1,0,3:0:0:0:
112,68,84168,1,0,0:0:0:0:
100,24,84248,6,0,L|160:8,1,59.9999981689454,8|0,0:3|0:0,0:0:0:0:
88,180,84409,2,0,L|29:193,1,59.9999981689454
152,336,84569,5,8,3:0:0:0:
252,300,84729,1,0,0:0:0:0:
348,352,84890,1,0,0:0:0:0:
448,316,85050,1,0,0:0:0:0:
432,168,85211,5,0,0:0:0:0:
428,156,85291,1,0,0:0:0:0:
424,144,85371,1,0,0:0:0:0:
420,132,85451,1,0,0:0:0:0:
392,124,85532,5,0,0:0:0:0:
396,112,85612,1,0,0:0:0:0:
400,100,85692,1,0,0:0:0:0:
404,88,85772,1,0,0:0:0:0:
420,72,85852,6,0,L|400:20,1,50,4|0,3:0|3:0,0:0:0:0:
332,24,86173,1,0,0:0:0:0:
332,24,86334,1,0,0:0:0:0:
304,136,86494,1,8,0:0:0:0:
116,260,86975,1,0,0:0:0:0:
116,260,87056,1,0,0:0:0:0:
116,260,87136,6,0,P|96:300|100:316,1,50,0|0,0:0|0:0,0:0:0:0:
40,356,87457,2,0,P|23:337|20:312,1,50,0|0,0:0|0:0,0:0:0:0:
88,140,87778,1,8,0:0:0:0:
160,112,87938,1,0,0:0:0:0:
232,88,88098,6,0,L|328:108,1,75,0|0,0:0|0:0,0:0:0:0:
344,112,88419,1,4,3:0:0:0:
400,8,88580,1,0,3:0:0:0:
400,8,88660,1,0,0:0:0:0:
400,8,88740,2,0,L|408:72,1,50,0|0,0:0|0:0,0:0:0:0:
406,57,89061,1,8,0:0:0:0:
332,256,89542,1,0,0:0:0:0:
332,256,89622,1,0,0:0:0:0:
332,256,89703,6,0,L|340:296,3,25,0|0|0|0,0:0|0:0|0:0|0:0,0:0:0:0:
284,324,90024,2,0,L|261:357,3,25,0|0|0|0,0:0|0:0|0:0|0:0,0:0:0:0:
200,340,90344,2,0,P|168:344|140:328,1,50,8|0,0:0|3:0,0:0:0:0:
108,272,90665,2,0,P|84:264|59:269,1,50,0|0,0:0|0:0,0:0:0:0:
76,344,90986,5,4,3:0:0:0:
144,196,91146,1,0,3:0:0:0:
144,196,91227,1,0,0:0:0:0:
144,196,91307,2,0,L|128:136,1,50,0|0,0:0|0:0,0:0:0:0:
131,147,91628,1,8,0:0:0:0:
260,308,92109,1,0,0:0:0:0:
260,308,92189,1,0,0:0:0:0:
260,308,92269,6,0,L|304:300,3,25,0|0|0|0,0:0|0:0|0:0|0:0,0:0:0:0:
352,332,92590,2,0,L|396:324,3,25,0|0|0|0,0:0|0:0|0:0|0:0,0:0:0:0:
440,360,92911,2,0,P|452:324|476:312,1,50,8|0,0:0|3:0,0:0:0:0:
424,220,93232,2,0,P|412:256|388:268,1,50,0|0,0:0|0:0,0:0:0:0:
344,204,93553,5,4,0:3:0:0:
215,253,94515,2,0,L|251:245,1,25
240,248,94676,6,0,B|289:303|248:392|176:372|176:372|200:352|197:307,1,239.999992675781,4|0,0:3|0:0,0:0:0:0:
68,332,95157,2,0,L|132:316,1,50,4|0,0:3|0:0,0:0:0:0:
324,328,95318,5,0,0:0:0:0:
380,348,95398,1,0,0:0:0:0:
432,332,95478,1,0,0:0:0:0:
468,296,95558,1,0,0:0:0:0:
468,252,95638,1,0,0:0:0:0:
448,216,95719,1,0,0:0:0:0:
416,200,95799,5,0,0:0:0:0:
400,208,95879,1,0,0:0:0:0:
388,224,95959,1,0,0:0:0:0:
384,244,96040,1,0,0:0:0:0:
388,264,96120,6,0,P|344:288|276:276,1,100,4|0,3:0|0:0,0:0:0:0:
168,184,96360,1,0,0:0:0:0:
124,132,96441,6,0,P|41:164|61:240,1,150.000005722046,8|0,0:3|0:0,0:0:0:0:
236,236,96681,1,0,0:0:0:0:
244,216,96761,6,0,L|232:104,1,100,0|0,3:0|0:0,0:0:0:0:
484,56,97001,1,0,0:0:0:0:
480,120,97082,6,0,P|432:136|384:64,1,150.000005722046,8|0,0:3|0:0,0:0:0:0:
244,96,97323,1,0,0:0:0:0:
233,116,97403,6,0,B|124:136,1,100,0|0,3:0|0:0,0:0:0:0:
56,260,97643,1,0,0:0:0:0:
44,324,97724,6,0,P|120:348|168:292,1,150.000005722046,8|0,0:3|0:0,0:0:0:0:
184,220,97965,1,0,0:0:0:0:
176,204,98045,5,0,3:0:0:0:
292,380,98205,1,0,0:0:0:0:
432,224,98366,2,0,P|436:172|396:220,1,120,8|0,0:3|0:0,0:0:0:0:
356,260,98687,6,0,P|308:232|244:232,1,100,4|0,3:0|0:0,0:0:0:0:
136,280,98927,1,0,0:0:0:0:
116,344,99007,6,0,P|140:388|180:328,1,150.000005722046,8|0,0:3|0:0,0:0:0:0:
4,264,99248,1,0,0:0:0:0:
20,272,99328,6,0,P|68:244|100:189,1,100,0|0,3:0|0:0,0:0:0:0:
112,71,99569,1,0,0:0:0:0:
67,22,99649,6,0,P|16:20|48:85,1,150.000005722046,8|0,0:3|0:0,0:0:0:0:
208,4,99890,1,0,0:0:0:0:
192,16,99970,6,0,P|191:71|223:126,1,100,0|0,3:0|0:0,0:0:0:0:
319,196,100211,1,0,0:0:0:0:
384,181,100291,6,0,P|410:138|338:133,1,150.000005722046,8|0,0:3|0:0,0:0:0:0:
356,268,100532,1,0,0:0:0:0:
368,276,100612,5,0,3:0:0:0:
196,184,100772,1,0,3:0:0:0:
80,340,100933,2,0,P|176:356|212:332,1,120,8|0,0:3|0:0,0:0:0:0:
248,312,101253,5,4,3:0:0:0:
196,184,101414,1,0,0:0:0:0:
144,280,101574,5,8,0:3:0:0:
180,120,101735,1,0,0:0:0:0:
68,200,101895,5,0,3:0:0:0:
180,56,102056,1,0,0:0:0:0:
36,100,102216,5,8,0:3:0:0:
212,0,102376,1,0,0:0:0:0:
224,8,102457,1,0,0:0:0:0:
236,16,102537,5,4,3:0:0:0:
396,8,102697,1,0,0:0:0:0:
204,88,102858,5,8,0:3:0:0:
372,156,103018,1,0,0:0:0:0:
144,144,103179,5,0,3:0:0:0:
280,288,103339,1,0,0:0:0:0:
64,168,103500,5,8,0:3:0:0:
152,368,103660,1,0,0:0:0:0:
132,360,103740,1,0,0:0:0:0:
112,352,103820,6,0,L|44:364,1,50,4|0,3:0|0:0,0:0:0:0:
224,204,103981,1,0,0:0:0:0:
272,188,104061,1,0,0:0:0:0:
320,192,104141,1,8,0:3:0:0:
364,220,104221,1,0,0:0:0:0:
384,268,104302,1,0,0:0:0:0:
376,316,104382,1,0,0:0:0:0:
340,352,104462,5,4,3:0:0:0:
316,332,104542,1,0,0:0:0:0:
308,304,104622,1,0,0:0:0:0:
308,272,104703,1,0,0:0:0:0:
272,256,104783,5,8,1:3:0:0:
276,232,104863,1,0,0:0:0:0:
288,212,104943,1,0,1:0:0:0:
308,196,105024,1,0,0:0:0:0:
324,168,105104,5,4,0:3:0:0:
340,164,105184,1,0,0:0:0:0:
356,168,105264,1,0,0:0:0:0:
368,176,105344,1,0,0:0:0:0:
376,188,105425,1,0,0:0:0:0:
380,204,105505,1,0,0:0:0:0:
376,220,105585,1,0,0:0:0:0:
364,232,105665,1,0,0:0:0:0:
340,204,105745,5,0,0:0:0:0:
288,184,105826,1,0,0:0:0:0:
232,180,105906,1,0,0:0:0:0:
176,188,105986,1,0,0:0:0:0:
124,208,106066,1,0,0:0:0:0:
76,236,106146,1,0,0:0:0:0:
40,276,106227,1,0,0:0:0:0:
20,328,106307,1,0,0:0:0:0:
20,380,106387,6,0,B|68:372|104:352|132:308|132:308|160:352|212:372|212:372|240:336|228:272|228:272|264:304|292:320|344:300|344:300|348:352|396:368|396:368|428:336|408:296,1,640,4|0,0:3|0:0,0:0:0:0:
