osu file format v14

[General]
AudioFilename: audio.mp3
AudioLeadIn: 0
PreviewTime: 44061
Countdown: 0
SampleSet: Soft
StackLeniency: 0.2
Mode: 0
LetterboxInBreaks: 0
WidescreenStoryboard: 0

[Editor]
Bookmarks: 8286,27778,33072,33152,33713,33794,33874,33954,34034,34114,34195,34275,34355,34435,34515,60826,60986,61146,61307,85852
DistanceSpacing: 1
BeatDivisor: 4
GridSize: 4
TimelineZoom: 2.699998

[Metadata]
Title:illumina
TitleUnicode:illumina
Artist:DJ TOTTO feat. *spiLa*
ArtistUnicode:DJ TOTTO feat. *spiLa*
Creator:Toyosaki Aki
Version:firis' expert*
Source:pop'n music ラピストリア
Tags:bemani hiumi 田川 義浩 yoshihiro tagawa 兎々 Nanashima Asami kurantemelodii Firis Mistlud [_-Scarlet-_] HappyRocket88 Meg iMage--
BeatmapID:1456484
BeatmapSetID:582132

[Difficulty]
HPDrainRate:6
CircleSize:4
OverallDifficulty:8
ApproachRate:9.3
SliderMultiplier:2
SliderTickRate:1

[Events]
//Background and Video events
0,0,"illumina.jpg",0,0
//Break Periods
//Storyboard Layer 0 (Background)
//Storyboard Layer 1 (Fail)
//Storyboard Layer 2 (Pass)
//Storyboard Layer 3 (Foreground)
//Storyboard Sound Samples

[TimingPoints]
1147,320.855614973262,4,2,1,40,1,0
3713,-200,4,2,1,40,0,0
22965,-263.157894736842,4,2,1,40,0,0
23606,-83.3333333333333,4,2,1,40,0,0
24248,-133.333333333333,4,2,1,50,0,0
34515,-105.263157894737,4,2,1,60,0,0
44783,-95.2380952380954,4,2,1,70,0,1
53606,-66.6666666666667,4,2,1,70,0,1
54088,-95.2380952380952,4,2,1,70,0,1
54409,-95.2380952380954,4,2,1,70,0,0
54729,-95.2380952380954,4,3,2,70,0,0
54810,-95.2380952380954,4,2,1,70,0,0
55050,-95.2380952380954,4,2,1,70,0,1
60184,-66.6666666666667,4,2,1,70,0,1
60665,-95.2380952380954,4,2,1,70,0,1
61307,-66.6666666666667,4,2,1,70,0,1
61788,-95.2380952380952,4,2,1,70,0,1
63072,-95.2380952380954,4,3,2,70,0,1
63152,-95.2380952380954,4,2,1,70,0,1
64034,-117.647058823529,4,2,1,70,0,1
65318,-95.2380952380954,4,2,1,70,0,0
74302,-95.2380952380954,4,3,2,70,0,0
74462,-95.2380952380954,4,2,1,70,0,0
84569,-200,4,2,1,40,0,0
93553,-133.333333333333,4,2,1,50,0,0
94676,-66.6666666666667,4,2,1,60,0,0
95157,-95.2380952380952,4,2,1,60,0,0
96120,-95.2380952380952,4,2,1,70,0,1
98687,-66.6666666666667,4,2,1,70,0,1
99168,-95.2380952380954,4,2,1,70,0,1
101253,-66.6666666666667,4,2,1,70,0,1
101735,-95.2380952380952,4,2,1,70,0,1
102537,-66.6666666666667,4,2,1,70,0,1
103018,-95.2380952380952,4,2,1,70,0,1
105104,-117.647058823529,4,2,1,70,0,0
106227,-263.157894736842,4,2,1,40,0,0

[Colours]
Combo1 : 230,140,43
Combo2 : 86,135,226

[HitObjects]
333,194,3713,5,4,0:3:0:0:
458,248,3874,2,0,B|405:252|405:252|363:274|363:274|297:280,1,150,0|8,3:0|0:0,0:0:0:0:
194,374,4676,2,0,P|188:342|199:310,1,50
224,261,4917,1,0,0:0:0:0:
233,249,4997,6,0,L|125:239,1,100,0|0,0:0|0:0,0:0:0:0:
51,232,5478,1,0,0:0:0:0:
39,231,5558,1,0,0:0:0:0:
27,230,5638,1,0,0:0:0:0:
119,318,5799,1,0,3:0:0:0:
119,318,6280,5,4,0:3:0:0:
266,325,6441,2,0,P|315:266|289:187,1,150,0|8,0:0|0:0,0:0:0:0:
222,156,7403,1,0,0:0:0:0:
222,156,7483,1,0,0:0:0:0:
222,156,7564,6,0,P|224:133|231:118,3,25,0|0|0|0,0:0|0:0|0:0|0:0,0:0:0:0:
269,71,7884,2,0,P|289:61|306:59,3,25,0|0|0|0,0:0|0:0|0:0|0:0,0:0:0:0:
366,69,8205,1,8,0:0:0:0:
374,77,8285,1,0,0:0:0:0:
382,87,8365,1,0,3:0:0:0:
388,98,8445,1,0,0:0:0:0:
393,109,8525,1,0,0:0:0:0:
396,122,8606,1,0,0:0:0:0:
398,134,8686,1,0,0:0:0:0:
398,146,8766,1,0,0:0:0:0:
397,159,8846,5,4,0:3:0:0:
322,255,9007,2,0,B|403:232|391:289|485:255,1,150,0|8,0:0|0:0,0:0:0:0:
468,260,9970,5,0,0:0:0:0:
468,260,10050,2,0,L|463:230,1,25,0|0,0:0|1:0,0:0:0:0:
352,350,10291,1,0,0:0:0:0:
352,350,10371,2,0,L|357:320,1,25,0|0,0:0|0:0,0:0:0:0:
244,259,10612,1,0,0:0:0:0:
244,259,10692,2,0,L|240:235,1,25,0|8,0:0|0:0,0:0:0:0:
263,343,10933,1,0,3:0:0:0:
263,343,11414,5,4,0:3:0:0:
314,208,11574,2,0,P|293:178|181:185,1,150,0|8,0:0|0:0,0:0:0:0:
200,190,12376,1,0,0:0:0:0:
200,190,12457,1,0,0:0:0:0:
200,190,12537,6,0,L|157:185,3,25,0|0|0|0,0:0|0:0|0:0|0:0,0:0:0:0:
100,215,12858,2,0,L|57:220,3,25
11,167,13179,1,0,0:0:0:0:
11,167,13259,1,0,0:0:0:0:
11,167,13339,2,0,P|30:139|39:115,1,50,8|0,0:0|0:0,0:0:0:0:
11,80,13580,2,0,P|25:110|42:130,1,50,8|0,0:0|0:0,0:0:0:0:
86,123,13820,1,8,0:0:0:0:
157,76,13981,5,4,0:3:0:0:
101,196,14141,2,0,P|89:248|94:350,1,150,0|8,0:0|0:0,0:0:0:0:
262,263,14943,2,0,P|235:260|202:265,1,50,0|0,0:0|0:0,0:0:0:0:
182,325,15184,1,0,0:0:0:0:
188,340,15264,6,0,P|216:365|276:342,1,100,0|0,0:0|0:0,0:0:0:0:
337,258,15745,1,0,0:0:0:0:
336,246,15825,1,0,0:0:0:0:
335,234,15905,1,8,0:0:0:0:
382,361,16066,1,0,3:0:0:0:
382,361,16548,5,4,0:3:0:0:
262,263,16708,2,0,L|250:105,1,150,0|8,0:0|0:0,0:0:0:0:
262,124,17671,1,0,0:0:0:0:
262,124,17751,1,0,0:0:0:0:
262,124,17831,6,0,P|285:122|300:115,3,25,0|0|0|0,0:0|0:0|0:0|0:0,0:0:0:0:
194,157,18152,2,0,P|184:177|182:194,3,25,0|0|0|0,0:0|0:0|0:0|0:0,0:0:0:0:
199,81,18473,1,8,0:0:0:0:
197,68,18553,1,8,0:0:0:0:
195,56,18633,1,0,0:0:0:0:
130,118,18794,2,0,P|107:120|92:127,1,25,8|8,0:0|0:0,0:0:0:0:
262,124,18954,2,0,P|285:122|300:115,1,25,8|8,0:0|0:0,0:0:0:0:
384,23,19114,5,4,0:3:0:0:
328,158,19275,2,0,P|366:189|478:182,1,150,0|8,0:0|0:0,0:0:0:0:
463,190,20237,5,0,0:0:0:0:
463,190,20318,2,0,L|433:185,1,25,0|0,0:0|1:0,0:0:0:0:
323,246,20558,1,0,0:0:0:0:
323,246,20638,2,0,L|293:251,1,25,0|0,0:0|0:0,0:0:0:0:
183,190,20879,1,0,0:0:0:0:
183,190,20959,2,0,L|153:185,1,25,0|8,0:0|0:0,0:0:0:0:
252,198,21200,1,0,0:0:0:0:
202,271,21360,2,0,L|207:301,3,25,0|0|0|0,0:0|0:0|0:0|0:0,0:0:0:0:
211,321,21681,5,4,0:3:0:0:
252,198,21842,2,0,L|227:38,1,150,0|8,3:0|0:0,0:0:0:0:
114,86,22483,1,0,3:0:0:0:
84,111,22564,1,0,3:0:0:0:
120,123,22644,1,8,0:0:0:0:
110,97,22724,5,0,0:0:0:0:
95,109,22805,1,8,0:0:0:0:
113,115,22885,1,0,0:0:0:0:
109,104,22965,6,0,P|89:169|116:221,1,113.999998608398,0|0,0:0|0:0,0:0:0:0:
173,158,23606,6,0,P|44:150|180:248,1,419.999987182618,0|0,0:0|0:0,0:0:0:0:
170,261,24248,6,0,P|129:267|80:356,1,150.000005722046,4|0,0:3|0:0,0:0:0:0:
164,345,24729,1,0,0:0:0:0:
256,242,24890,2,0,L|248:157,1,75.0000028610231,0|0,0:0|0:0,0:0:0:0:
170,261,25211,1,0,0:0:0:0:
298,319,25371,2,0,L|345:311,1,37.5000014305115,0|0,0:0|0:0,0:0:0:0:
411,229,25532,6,0,B|372:224|372:224|317:245,1,75.0000028610231,0|0,0:0|0:0,0:0:0:0:
377,382,25852,2,0,L|385:297,1,75.0000028610231,0|0,0:0|0:0,0:0:0:0:
403,154,26093,1,0,0:0:0:0:
403,154,26173,2,0,L|410:228,1,75.0000028610231,0|0,0:0|0:0,0:0:0:0:
298,319,26494,1,0,0:0:0:0:
466,292,26655,1,0,3:0:0:0:
325,159,26815,5,0,3:0:0:0:
325,159,27136,1,0,0:0:0:0:
493,186,27296,1,0,0:0:0:0:
326,173,27457,1,0,0:0:0:0:
454,61,27617,1,0,0:0:0:0:
327,187,27778,1,0,0:0:0:0:
325,17,27938,1,0,0:0:0:0:
325,17,28018,1,0,0:0:0:0:
325,17,28098,6,0,P|333:61|319:98,1,75.0000028610231,0|0,0:0|0:0,0:0:0:0:
187,89,28419,2,0,P|178:53|187:17,1,75.0000028610231,0|0,0:0|0:0,0:0:0:0:
186,17,28660,1,0,0:0:0:0:
186,17,28740,1,0,0:0:0:0:
256,144,28901,1,0,0:0:0:0:
237,160,28981,1,0,0:0:0:0:
215,171,29061,1,0,0:0:0:0:
190,176,29141,1,0,0:0:0:0:
165,174,29221,1,0,0:0:0:0:
142,166,29302,1,0,0:0:0:0:
121,150,29382,6,0,P|72:136|43:143,1,75.0000028610231,0|0,3:0|0:0,0:0:0:0:
49,140,29622,1,0,0:0:0:0:
49,140,29703,1,0,0:0:0:0:
98,62,29863,1,0,0:0:0:0:
98,62,30184,1,0,0:0:0:0:
76,220,30344,2,0,L|87:301,1,75.0000028610231,0|0,0:0|0:0,0:0:0:0:
154,323,30585,1,0,0:0:0:0:
154,323,30665,6,0,P|78:306|60:384,1,150.000005722046,0|0,0:0|0:0,0:0:0:0:
214,381,31146,2,0,P|236:331|231:294,1,75.0000028610231,0|0,0:0|0:0,0:0:0:0:
235,311,31387,1,0,0:0:0:0:
235,311,31467,1,0,0:0:0:0:
167,237,31628,1,0,0:0:0:0:
306,373,31788,1,0,3:0:0:0:
443,235,31949,6,0,P|440:197|421:165,1,75.0000028610231,0|0,3:0|0:0,0:0:0:0:
344,110,32189,1,0,0:0:0:0:
344,110,32269,2,0,L|351:161,1,37.5000014305115,0|0,0:0|0:0,0:0:0:0:
364,257,32430,2,0,L|369:219,1,37.5000014305115,0|0,0:0|0:0,0:0:0:0:
421,94,32590,1,0,0:0:0:0:
292,204,32751,1,0,0:0:0:0:
267,45,32911,1,0,0:0:0:0:
425,10,33072,5,0,0:0:0:0:
425,10,33152,1,0,0:0:0:0:
425,10,33232,2,0,P|477:32|497:58,1,75.0000028610231,0|0,0:0|0:0,0:0:0:0:
422,166,33553,2,0,P|415:109|427:79,1,75.0000028610231,0|0,0:0|0:0,0:0:0:0:
494,213,33874,1,0,0:0:0:0:
474,233,33954,1,0,0:0:0:0:
449,245,34034,1,0,0:0:0:0:
421,250,34114,1,0,0:0:0:0:
394,245,34194,1,0,0:0:0:0:
369,231,34275,1,0,0:0:0:0:
351,211,34355,1,0,0:0:0:0:
339,185,34435,1,0,0:0:0:0:
337,157,34515,6,0,B|276:148|276:148|212:169|212:169|126:160,1,189.999994926453,0|0,3:0|3:0,0:0:0:0:
200,87,34997,1,0,0:0:0:0:
285,231,35157,2,0,P|298:290|276:338,1,94.9999974632264,0|0,3:0|0:0,0:0:0:0:
215,279,35478,1,0,3:0:0:0:
399,291,35638,1,0,0:0:0:0:
218,364,35799,5,0,3:0:0:0:
70,324,35959,1,0,0:0:0:0:
215,279,36120,5,0,3:0:0:0:
70,324,36280,1,0,0:0:0:0:
215,279,36441,5,0,3:0:0:0:
73,239,36601,1,0,0:0:0:0:
212,194,36761,5,0,3:0:0:0:
73,239,36922,1,0,0:0:0:0:
215,279,37082,6,0,P|276:247|270:133,1,189.999994926453,0|0,3:0|3:0,0:0:0:0:
212,194,37564,1,0,0:0:0:0:
357,319,37724,1,0,3:0:0:0:
215,279,37884,1,0,0:0:0:0:
374,154,38044,1,0,3:0:0:0:
209,109,38205,1,0,0:0:0:0:
348,238,38366,5,0,3:0:0:0:
374,154,38526,1,0,0:0:0:0:
338,239,38687,5,0,3:0:0:0:
304,134,38847,1,0,0:0:0:0:
259,268,39008,5,0,3:0:0:0:
294,133,39168,1,0,0:0:0:0:
249,270,39328,5,0,3:0:0:0:
210,111,39489,1,0,0:0:0:0:
414,220,39649,6,0,L|513:216,1,94.9999974632264,4|0,3:0|0:0,0:0:0:0:
397,348,39970,2,0,L|298:344,1,94.9999974632264,0|0,3:0|0:0,0:0:0:0:
115,348,40291,2,0,L|214:344,1,94.9999974632264,0|0,3:0|0:0,0:0:0:0:
98,220,40612,2,0,L|-1:216,1,94.9999974632264,0|0,3:0|0:0,0:0:0:0:
3,216,40852,1,0,0:0:0:0:
3,216,40932,5,0,3:0:0:0:
115,348,41093,1,0,0:0:0:0:
164,164,41253,5,0,3:0:0:0:
209,344,41414,1,0,0:0:0:0:
348,164,41574,5,0,3:0:0:0:
303,344,41735,1,0,0:0:0:0:
509,216,41895,5,0,3:0:0:0:
397,348,42056,1,0,0:0:0:0:
397,348,42136,1,0,0:0:0:0:
397,348,42216,5,0,3:0:0:0:
265,236,42376,1,0,0:0:0:0:
241,195,42456,1,0,0:0:0:0:
237,148,42536,1,0,3:0:0:0:
253,103,42616,1,0,0:0:0:0:
286,70,42696,1,0,0:0:0:0:
330,53,42777,1,0,0:0:0:0:
377,57,42858,6,0,P|389:92|389:118,1,47.4999987316132,0|0,3:0|0:0,0:0:0:0:
280,309,43019,2,0,P|290:273|306:252,1,47.4999987316132,0|0,0:0|0:0,0:0:0:0:
507,163,43179,2,0,P|477:185|452:193,1,47.4999987316132,0|0,3:0|0:0,0:0:0:0:
237,148,43339,2,0,P|274:146|299:155,1,47.4999987316132,0|0,1:0|0:0,0:0:0:0:
416,288,43499,5,4,0:3:0:0:
416,297,43579,1,0,0:0:0:0:
415,306,43659,1,0,0:0:0:0:
414,315,43739,1,0,0:0:0:0:
414,323,43819,1,0,0:0:0:0:
413,332,43900,1,0,0:0:0:0:
412,341,43980,1,0,0:0:0:0:
411,350,44060,1,0,0:0:0:0:
411,359,44141,5,0,0:0:0:0:
457,352,44221,1,0,0:0:0:0:
493,322,44301,1,0,0:0:0:0:
508,277,44381,1,0,0:0:0:0:
497,232,44461,1,0,0:0:0:0:
463,199,44542,1,0,0:0:0:0:
417,188,44622,1,0,0:0:0:0:
373,203,44702,1,0,0:0:0:0:
340,245,44783,6,0,B|273:241|273:241|210:197|210:197|125:190,1,209.999993591309,4|8,3:0|0:3,0:0:0:0:
177,275,45264,1,0,0:0:0:0:
306,168,45425,1,0,3:0:0:0:
251,326,45585,1,0,3:0:0:0:
144,191,45745,1,8,0:3:0:0:
340,245,45906,6,0,P|390:169|287:87,1,209.999993591309,0|0,3:0|3:0,0:0:0:0:
255,248,46387,2,0,L|267:354,1,104.999996795654,8|0,0:3|0:0,0:0:0:0:
266,352,46628,1,0,0:0:0:0:
266,352,46708,1,0,0:0:0:0:
416,288,46868,1,0,3:0:0:0:
306,168,47029,2,0,P|232:155|159:240,1,157.499995193482,8|0,0:3|0:0,0:0:0:0:
164,255,47350,6,0,L|27:261,1,104.999996795654,0|0,3:0|0:0,0:0:0:0:
148,109,47671,1,8,0:3:0:0:
255,248,47831,1,0,0:0:0:0:
93,182,47991,1,0,3:0:0:0:
159,20,48152,2,0,P|210:46|235:99,1,104.999996795654,0|8,3:0|0:3,0:0:0:0:
164,255,48473,5,0,3:0:0:0:
164,255,48553,2,0,L|94:257,1,52.4999983978272,0|0,0:0|0:0,0:0:0:0:
348,255,48794,1,0,3:0:0:0:
348,255,48874,2,0,L|418:257,1,52.4999983978272,0|8,0:0|0:3,0:0:0:0:
170,176,49114,1,0,0:0:0:0:
170,176,49195,1,0,0:0:0:0:
170,176,49275,1,0,0:0:0:0:
332,328,49435,1,0,3:0:0:0:
180,328,49596,1,8,0:3:0:0:
342,176,49756,1,0,0:0:0:0:
256,364,49917,6,0,L|32:352,1,209.999993591309,4|8,3:0|0:3,0:0:0:0:
54,167,50398,1,0,0:0:0:0:
218,254,50558,1,0,3:0:0:0:
33,261,50719,1,0,3:0:0:0:
190,163,50879,1,8,0:3:0:0:
332,328,51040,6,0,P|398:337|481:227,1,209.999993591309,0|0,3:0|3:0,0:0:0:0:
369,134,51521,2,0,L|381:239,1,104.999996795654,8|0,0:3|0:0,0:0:0:0:
381,239,51761,1,0,0:0:0:0:
381,239,51842,1,0,0:0:0:0:
456,76,52002,1,0,3:0:0:0:
278,93,52163,2,0,L|295:270,1,157.499995193482,8|0,0:3|0:0,0:0:0:0:
323,294,52483,6,0,B|272:267|218:298|218:298|175:325|124:294,1,209.999993591309,0|8,3:0|0:3,0:0:0:0:
174,225,52965,1,0,0:0:0:0:
273,364,53125,1,0,3:0:0:0:
411,265,53286,2,0,L|394:152,1,104.999996795654,0|8,3:0|0:3,0:0:0:0:
501,28,53606,6,0,P|431:103|275:86,1,225.000008583069,4|0,3:0|0:0,0:0:0:0:
250,67,53927,1,0,3:0:0:0:
80,115,54088,6,0,L|95:218,1,104.999996795654,8|0,0:3|0:0,0:0:0:0:
164,326,54409,1,0,0:0:0:0:
146,323,54489,1,0,0:0:0:0:
129,321,54569,1,0,3:0:0:0:
111,319,54649,1,0,0:0:0:0:
79,351,54729,5,8,0:3:0:0:
117,345,54809,1,0,0:0:0:0:
156,339,54889,1,0,3:0:0:0:
195,333,54969,1,0,0:0:0:0:
234,327,55050,6,0,P|307:263|260:165,1,209.999993591309,4|8,3:0|0:3,0:0:0:0:
226,242,55532,1,0,0:0:0:0:
365,343,55692,1,0,3:0:0:0:
466,204,55852,1,0,3:0:0:0:
310,274,56013,1,8,0:3:0:0:
449,375,56173,6,0,B|464:308|420:275|420:275|364:230|391:161,1,209.999993591309,0|0,3:0|3:0,0:0:0:0:
450,31,56655,2,0,P|478:75|482:127,1,104.999996795654,8|0,0:3|0:0,0:0:0:0:
482,127,56895,1,0,0:0:0:0:
482,127,56975,1,0,0:0:0:0:
454,291,57136,1,0,3:0:0:0:
306,218,57296,2,0,P|326:133|392:107,1,157.499995193482,8|0,0:3|0:0,0:0:0:0:
383,188,57617,6,0,P|305:302|229:255,1,209.999993591309,0|8,3:0|0:3,0:0:0:0:
140,170,58098,1,0,0:0:0:0:
306,218,58259,1,0,3:0:0:0:
181,337,58419,2,0,P|173:263|202:217,1,104.999996795654,0|8,3:0|0:3,0:0:0:0:
324,96,58740,5,0,3:0:0:0:
324,96,58820,2,0,L|393:86,1,52.4999983978272,0|0,0:0|0:0,0:0:0:0:
192,96,59061,1,0,3:0:0:0:
192,96,59141,2,0,L|123:86,1,52.4999983978272,0|8,0:0|0:3,0:0:0:0:
306,218,59382,1,0,0:0:0:0:
306,218,59462,1,0,0:0:0:0:
306,218,59542,1,0,0:0:0:0:
140,170,59703,1,0,3:0:0:0:
264,50,59863,2,0,P|275:113|211:178,1,157.499995193482,8|0,0:3|0:0,0:0:0:0:
140,170,60184,6,0,B|211:165|211:165|297:193|297:193|374:186,1,225.000008583069,4|0,3:0|0:0,0:0:0:0:
434,174,60505,1,8,0:3:0:0:
227,269,60665,6,0,P|219:334|249:379,1,104.999996795654,0|0,0:0|3:0,0:0:0:0:
300,312,60986,1,0,3:0:0:0:
134,325,61146,1,8,0:3:0:0:
343,384,61307,6,0,P|383:305|243:250,1,225.000008583069,4|0,3:0|0:0,0:0:0:0:
227,269,61628,1,0,3:0:0:0:
400,300,61788,6,0,L|513:290,1,104.999996795654,8|0,0:3|0:0,0:0:0:0:
504,290,62029,1,0,0:0:0:0:
504,290,62109,1,0,0:0:0:0:
360,187,62269,1,0,3:0:0:0:
227,269,62430,2,0,L|114:259,1,104.999996795654,8|0,0:3|0:0,0:0:0:0:
15,119,62751,5,4,3:0:0:0:
152,29,62911,1,0,0:0:0:0:
152,29,62991,1,0,0:0:0:0:
152,29,63072,2,0,L|147:94,3,52.4999983978272,8|0|0|0,0:3|0:0|0:0|0:0,0:0:0:0:
116,159,63392,2,0,P|155:164|179:159,1,52.4999983978272,0|0,3:0|0:0,0:0:0:0:
256,55,63553,2,0,P|232:86|224:109,1,52.4999983978272,0|0,3:0|0:0,0:0:0:0:
276,228,63713,1,8,1:3:0:0:
276,228,63794,1,0,0:0:0:0:
276,228,63874,2,0,P|260:191|244:173,1,52.4999983978272,0|0,1:0|0:0,0:0:0:0:
178,319,64034,6,0,P|307:318|203:242,1,340.000006484985,4|0,0:3|0:0,0:0:0:0:
243,298,64756,5,0,0:0:0:0:
266,302,64836,1,0,0:0:0:0:
290,298,64916,1,0,0:0:0:0:
312,288,64996,1,0,0:0:0:0:
330,272,65076,1,0,0:0:0:0:
342,251,65157,1,0,0:0:0:0:
347,227,65237,1,0,0:0:0:0:
344,203,65318,6,0,L|371:363,1,157.499995193482,4|0,3:0|0:0,0:0:0:0:
457,358,65638,2,0,P|398:352|356:375,1,104.999996795654,8|0,0:3|0:0,0:0:0:0:
189,334,65959,1,0,3:0:0:0:
157,345,66039,1,0,0:0:0:0:
122,343,66119,1,0,3:0:0:0:
91,328,66199,1,0,0:0:0:0:
68,302,66279,1,8,0:3:0:0:
57,269,66360,1,0,0:0:0:0:
59,234,66441,2,0,L|69:176,1,52.4999983978272,0|0,3:0|0:0,0:0:0:0:
187,53,66601,5,0,0:0:0:0:
366,182,66761,1,0,3:0:0:0:
145,183,66922,1,8,0:3:0:0:
323,53,67082,1,0,0:0:0:0:
323,53,67163,1,0,0:0:0:0:
323,53,67243,1,0,0:0:0:0:
256,264,67403,1,0,3:0:0:0:
106,100,67564,1,8,0:3:0:0:
281,180,67724,1,0,0:0:0:0:
281,180,67804,1,0,0:0:0:0:
281,180,67884,5,0,3:0:0:0:
124,291,68045,2,0,L|63:281,1,52.4999983978272,0|0,0:0|0:0,0:0:0:0:
209,337,68205,1,8,0:3:0:0:
241,348,68285,1,0,0:0:0:0:
276,346,68365,1,0,0:0:0:0:
307,331,68445,1,0,0:0:0:0:
330,305,68525,1,0,3:0:0:0:
341,272,68606,1,0,0:0:0:0:
339,237,68687,2,0,L|400:227,1,52.4999983978272,0|0,3:0|0:0,0:0:0:0:
196,191,68847,2,0,L|135:181,1,52.4999983978272,8|0,0:3|0:0,0:0:0:0:
251,56,69007,6,0,B|294:24|294:24|280:179,1,209.999993591309,0|0,3:0|3:0,0:0:0:0:
280,179,69409,1,0,0:0:0:0:
280,179,69489,1,8,0:3:0:0:
175,50,69649,1,0,0:0:0:0:
332,110,69810,1,0,0:0:0:0:
229,249,69970,1,0,3:0:0:0:
229,249,70050,1,0,0:0:0:0:
229,249,70130,1,8,0:3:0:0:
332,110,70291,1,0,0:0:0:0:
144,264,70451,6,0,P|195:328|310:277,1,209.999993591309,4|8,3:0|0:3,0:0:0:0:
173,183,70933,1,0,0:0:0:0:
142,178,71013,1,0,0:0:0:0:
111,184,71093,1,0,3:0:0:0:
85,201,71173,1,0,0:0:0:0:
66,226,71253,1,0,3:0:0:0:
58,257,71334,1,0,0:0:0:0:
61,288,71414,1,8,0:3:0:0:
75,316,71494,1,0,0:0:0:0:
98,337,71574,1,0,3:0:0:0:
127,348,71654,1,0,0:0:0:0:
159,349,71735,6,0,P|212:340|277:365,1,104.999996795654,0|0,0:0|3:0,0:0:0:0:
260,354,71975,1,0,0:3:0:0:
260,354,72056,1,8,0:3:0:0:
186,176,72216,1,0,0:0:0:0:
186,176,72296,1,0,0:0:0:0:
186,176,72376,1,0,0:0:0:0:
159,349,72537,1,0,3:0:0:0:
326,176,72697,1,8,0:3:0:0:
353,349,72858,1,0,0:0:0:0:
151,255,73018,6,0,P|100:183|202:91,1,209.999993591309,0|8,3:0|0:3,0:0:0:0:
326,176,73499,1,0,0:0:0:0:
186,176,73660,1,0,3:0:0:0:
256,54,73820,1,0,3:0:0:0:
256,256,73981,1,12,0:3:0:0:
81,155,74141,1,4,3:0:0:0:
81,357,74302,5,8,0:3:0:0:
11,209,74462,1,0,3:0:0:0:
30,226,74542,1,0,0:0:0:0:
54,237,74622,1,8,0:3:0:0:
80,241,74702,1,0,0:0:0:0:
105,237,74782,1,0,0:0:0:0:
129,226,74863,1,0,0:0:0:0:
148,208,74943,2,0,L|163:286,1,52.4999983978272,0|0,0:0|0:0,0:0:0:0:
197,375,75104,2,0,L|206:323,1,52.4999983978272,0|0,3:0|0:0,0:0:0:0:
364,208,75264,2,0,L|349:286,1,52.4999983978272,8|0,0:3|0:0,0:0:0:0:
315,375,75425,2,0,L|305:323,1,52.4999983978272,0|0,3:0|0:0,0:0:0:0:
208,152,75585,1,4,3:0:0:0:
248,60,75745,5,0,0:0:0:0:
270,73,75825,1,0,0:0:0:0:
288,92,75905,1,8,0:3:0:0:
301,115,75985,1,0,0:0:0:0:
308,140,76066,2,0,P|304:183|297:202,1,52.4999983978272,0|0,0:0|0:0,0:0:0:0:
120,263,76227,5,0,3:0:0:0:
120,236,76307,1,0,0:0:0:0:
127,211,76387,1,0,3:0:0:0:
140,189,76467,1,0,0:0:0:0:
159,171,76548,2,0,P|198:152|218:149,1,52.4999983978272,8|0,0:3|0:0,0:0:0:0:
360,273,76708,5,0,3:0:0:0:
337,285,76788,1,0,0:0:0:0:
311,292,76868,1,0,0:0:0:0:
285,291,76948,1,0,0:0:0:0:
260,284,77029,2,0,P|224:259|211:243,1,52.4999983978272,0|0,3:0|0:0,0:0:0:0:
399,182,77189,5,8,0:3:0:0:
422,195,77269,1,0,0:0:0:0:
441,214,77349,1,0,0:0:0:0:
453,236,77429,1,0,0:0:0:0:
459,261,77510,2,0,P|455:304|448:323,1,52.4999983978272,0|0,0:0|0:0,0:0:0:0:
301,194,77671,5,0,3:0:0:0:
302,168,77751,1,0,0:0:0:0:
309,142,77831,1,8,0:3:0:0:
322,120,77911,1,0,0:0:0:0:
341,101,77992,2,0,P|380:82|401:79,1,52.4999983978272,0|0,0:0|0:0,0:0:0:0:
399,182,78152,5,0,3:0:0:0:
260,284,78312,1,0,0:0:0:0:
235,293,78392,1,0,0:0:0:0:
209,296,78472,1,8,0:3:0:0:
183,292,78552,1,0,0:0:0:0:
159,282,78632,1,0,0:0:0:0:
135,271,78713,1,0,0:0:0:0:
110,267,78793,1,0,3:0:0:0:
84,272,78873,1,0,0:0:0:0:
60,284,78954,2,0,L|64:347,1,52.4999983978272,0|0,3:0|0:0,0:0:0:0:
210,208,79114,2,0,L|206:155,1,52.4999983978272,8|0,0:3|0:0,0:0:0:0:
80,31,79275,6,0,B|143:43|143:43|202:79|202:79|307:97,1,209.999993591309,0|0,3:0|3:0,0:0:0:0:
472,120,79756,2,0,B|489:68|489:68|458:12,1,104.999996795654,8|0,0:3|0:0,0:0:0:0:
465,25,79997,1,0,0:0:0:0:
465,25,80077,1,0,0:0:0:0:
324,161,80237,1,0,3:0:0:0:
509,215,80398,1,8,0:3:0:0:
388,80,80558,2,0,L|396:141,1,52.4999983978272,0|0,0:0|0:0,0:0:0:0:
512,313,80719,6,0,P|452:284|376:303,1,104.999996795654,4|0,3:0|0:0,0:0:0:0:
405,327,80959,1,0,0:0:0:0:
372,353,81039,1,8,0:3:0:0:
329,352,81119,1,0,0:0:0:0:
297,323,81199,1,0,0:0:0:0:
291,281,81280,1,0,0:0:0:0:
314,244,81360,1,0,3:0:0:0:
203,353,81521,1,0,3:0:0:0:
203,353,81601,1,0,0:0:0:0:
203,353,81681,2,0,L|129:346,1,52.4999983978272,8|0,0:3|0:0,0:0:0:0:
59,235,81842,6,0,L|-15:242,2,52.4999983978272,4|0|0,3:0|0:0|0:0,0:0:0:0:
200,222,82163,1,0,3:0:0:0:
10,336,82323,1,8,0:3:0:0:
125,167,82483,1,0,0:0:0:0:
125,167,82564,1,0,0:0:0:0:
125,167,82644,1,0,0:0:0:0:
278,288,82804,1,0,3:0:0:0:
59,235,82965,1,8,0:3:0:0:
33,189,83045,1,0,0:0:0:0:
35,138,83125,1,0,0:0:0:0:
65,95,83205,1,0,0:0:0:0:
113,75,83286,6,0,B|164:106|208:79|208:79|261:48|312:75,1,209.999993591309,4|8,3:0|0:3,0:0:0:0:
271,202,83767,2,0,P|263:177|264:151,1,52.4999983978272,0|0,0:0|0:0,0:0:0:0:
398,35,83927,1,0,3:0:0:0:
405,54,84007,1,0,0:0:0:0:
408,73,84087,1,0,3:0:0:0:
406,93,84167,1,0,0:0:0:0:
400,112,84247,1,8,0:3:0:0:
391,129,84328,1,0,0:0:0:0:
377,143,84408,1,0,0:0:0:0:
361,155,84488,1,0,0:0:0:0:
343,162,84569,5,4,3:0:0:0:
166,196,85852,5,4,3:0:0:0:
52,257,86013,2,0,B|141:248|107:291|197:278,1,150,0|8,3:0|0:0,0:0:0:0:
316,367,86815,2,0,P|322:335|311:303,1,50,0|0,0:0|0:0,0:0:0:0:
285,244,87056,1,0,0:0:0:0:
273,253,87136,6,0,L|263:145,1,100,0|0,0:0|0:0,0:0:0:0:
256,71,87617,1,0,0:0:0:0:
255,59,87697,1,0,0:0:0:0:
254,47,87777,1,8,0:0:0:0:
342,139,87938,1,0,0:0:0:0:
342,139,88419,5,4,3:0:0:0:
174,115,88580,2,0,L|188:281,1,150,0|8,3:0|0:0,0:0:0:0:
261,320,89542,1,0,0:0:0:0:
261,320,89622,1,0,0:0:0:0:
261,320,89703,6,0,L|256:368,3,25
327,259,90024,2,0,L|324:234,3,25
375,326,90344,1,8,0:0:0:0:
252,210,90505,2,0,P|290:165|336:159,1,100
228,95,90985,5,4,3:0:0:0:
162,220,91146,2,0,B|93:254|-1:220,1,150,0|8,3:0|0:0,0:0:0:0:
15,225,92109,5,0,0:0:0:0:
15,225,92189,2,0,L|20:195,1,25,0|0,0:0|0:0,0:0:0:0:
131,315,92430,1,0,0:0:0:0:
131,315,92510,2,0,L|126:285,1,25,0|0,0:0|0:0,0:0:0:0:
239,224,92751,1,0,0:0:0:0:
239,224,92831,2,0,L|243:200,1,25,0|8,0:0|0:0,0:0:0:0:
220,308,93072,1,0,3:0:0:0:
264,66,93553,5,4,0:3:0:0:
240,228,94515,1,0,0:0:0:0:
264,66,94676,6,0,P|339:49|280:140,1,225.000008583069,4|0,0:3|0:0,0:0:0:0:
185,102,94997,1,0,0:0:0:0:
373,264,95157,5,4,0:3:0:0:
225,337,95318,1,0,0:0:0:0:
244,328,95398,1,0,0:0:0:0:
264,324,95478,1,0,0:0:0:0:
285,325,95558,1,0,0:0:0:0:
306,330,95638,1,0,0:0:0:0:
325,338,95719,1,0,0:0:0:0:
344,348,95799,1,0,0:0:0:0:
364,353,95879,1,0,0:0:0:0:
385,352,95959,1,0,0:0:0:0:
405,346,96039,1,0,0:0:0:0:
424,336,96120,6,0,P|460:245|371:175,1,209.999993591309,4|8,3:0|0:3,0:0:0:0:
373,264,96601,1,0,0:0:0:0:
509,149,96761,1,0,3:0:0:0:
342,89,96922,2,0,P|292:155|293:208,1,104.999996795654,0|8,0:0|0:3,0:0:0:0:
336,346,97243,1,0,0:0:0:0:
336,346,97323,1,0,0:0:0:0:
336,346,97403,5,0,3:0:0:0:
387,176,97564,1,0,0:0:0:0:
215,217,97724,2,0,P|285:259|338:253,1,104.999996795654,8|0,0:3|0:0,0:0:0:0:
305,260,97965,1,0,0:0:0:0:
305,260,98045,1,0,3:0:0:0:
206,113,98205,1,0,0:0:0:0:
128,273,98366,2,0,P|134:207|106:87,1,157.499995193482,8|0,0:3|0:0,0:0:0:0:
157,38,98687,6,0,P|245:34|222:200,1,300.000011444092,4|8,3:0|0:3,0:0:0:0:
50,206,99168,1,0,0:0:0:0:
206,113,99328,5,0,3:0:0:0:
299,269,99489,2,0,P|230:293|186:281,1,104.999996795654,0|8,0:0|0:3,0:0:0:0:
316,152,99810,5,0,0:0:0:0:
316,152,99890,2,0,L|385:142,1,52.4999983978272,0|0,0:0|3:0,0:0:0:0:
200,17,100130,1,0,0:0:0:0:
200,17,100211,2,0,L|131:7,1,52.4999983978272,0|8,0:0|0:3,0:0:0:0:
378,35,100451,1,0,0:0:0:0:
378,35,100532,1,0,0:0:0:0:
378,35,100612,1,0,3:0:0:0:
360,223,100772,1,0,3:0:0:0:
206,113,100933,2,0,P|253:163|211:267,1,157.499995193482,8|0,0:3|0:0,0:0:0:0:
160,278,101253,6,0,B|231:283|231:283|317:255|317:255|394:262,1,225.000008583069,4|0,3:0|0:0,0:0:0:0:
454,274,101574,1,8,0:3:0:0:
271,177,101735,6,0,P|263:112|293:67,1,104.999996795654,0|0,0:0|3:0,0:0:0:0:
344,134,102056,1,0,0:0:0:0:
174,191,102216,1,8,0:3:0:0:
209,15,102376,2,0,L|204:80,1,52.4999983978272,0|0,0:0|0:0,0:0:0:0:
234,251,102537,6,0,P|104:237|127:119,1,225.000008583069,4|0,3:0|0:0,0:0:0:0:
146,110,102858,1,8,0:3:0:0:
312,246,103018,5,0,0:0:0:0:
312,246,103098,1,0,0:0:0:0:
312,246,103179,1,0,3:0:0:0:
120,340,103339,1,0,0:0:0:0:
312,246,103499,2,0,P|367:262|410:296,1,104.999996795654,8|0,0:3|0:0,0:0:0:0:
200,384,103820,5,4,3:0:0:0:
110,247,103980,1,0,0:0:0:0:
110,247,104060,1,0,0:0:0:0:
110,247,104141,2,0,L|175:252,3,52.4999983978272,8|0|0|0,0:3|0:0|0:0|0:0,0:0:0:0:
240,283,104461,2,0,P|245:244|240:220,1,52.4999983978272,4|0,3:0|0:0,0:0:0:0:
136,143,104622,2,0,P|167:167|190:175,1,52.4999983978272,0|0,0:0|0:0,0:0:0:0:
309,123,104782,1,8,1:3:0:0:
309,123,104863,1,0,0:0:0:0:
309,123,104943,2,0,P|272:139|254:155,1,52.4999983978272,0|0,1:0|0:0,0:0:0:0:
306,336,105104,6,0,B|475:326|475:326|448:246|448:246|332:252,1,340.000006484985,4|0,0:3|0:0,0:0:0:0:
130,239,106227,2,0,L|136:273,1,18.9999997680664
147,361,106387,6,0,B|97:367|69:304|100:243|224:251|232:364|232:364|228:273|280:263|375:199|316:42|231:123|259:171|278:197,1,607.999992578125,4|0,0:0|0:0,0:0:0:0:
