osu file format v14

[General]
AudioFilename: audio.mp3
AudioLeadIn: 0
PreviewTime: 44061
Countdown: 0
SampleSet: Soft
StackLeniency: 0.8
Mode: 0
LetterboxInBreaks: 0
EpilepsyWarning: 1
WidescreenStoryboard: 1

[Editor]
Bookmarks: 24248,34515,43499,55050,65318,68366,70451,75585,75906,76227,76387,76548,76708,77029,77189,77671,77831,85852,96120,106387,108954
DistanceSpacing: 1
BeatDivisor: 4
GridSize: 32
TimelineZoom: 2.4

[Metadata]
Title:illumina
TitleUnicode:illumina
Artist:DJ TOTTO feat. *spiLa*
ArtistUnicode:DJ TOTTO feat. *spiLa*
Creator:-Unlimit-
Version:*Taeyang's insane*
Source:pop'n music ラピストリア
Tags:bemani HabiHolic Taeyang -Ady Partyu video game Japanese electronic pop jpop 義浩 hiumi yoshihiro tagawa 兎々
BeatmapID:2818779
BeatmapSetID:1295864

[Difficulty]
HPDrainRate:5.5
CircleSize:4.5
OverallDifficulty:7.5
ApproachRate:9
SliderMultiplier:1.65
SliderTickRate:1

[Events]
//Background and Video events
0,0,"37311279_p0.jpg",0,0
//Break Periods
//Storyboard Layer 0 (Background)
//Storyboard Layer 1 (Fail)
//Storyboard Layer 2 (Pass)
//Storyboard Layer 3 (Foreground)
Sprite,Foreground,Centre,"storyboard\ring2.png",0,0 M,0,65318,65358,521,200,496.4138,197.1577 F,2,65318,66108,1,0 S,2,65318,66108,0.7,0.84 P,0,65318,66108,A M,0,65358,65398,496.4138,197.1577,471.8275,194.3153 M,0,65398,65438,471.8275,194.3153,447.2413,191.473 M,0,65438,65478,447.2413,191.473,422.655,188.6306 M,0,65478,65518,422.655,188.6306,398.0688,185.7883 M,0,65518,65558,398.0688,185.7883,373.4825,182.946
Sprite,Foreground,Centre,"storyboard\ring2.png",0,0 M,0,65638,65678,300,219,288.0148,240.4279 F,2,65638,66348,1,0 S,2,65638,66348,0.7,0.84 P,0,65638,66348,A M,0,65678,65718,288.0148,240.4279,283.4671,264.468 M,0,65718,65758,283.4671,264.468,287.249,288.6407 M,0,65758,65798,287.249,288.6407,298.5831,310.4172
Sprite,Foreground,Centre,"storyboard\ring2.png",431,367 F,2,65959,66509,1,0 S,2,65959,66509,0.7,0.84 P,0,65959,66509,A
Sprite,Foreground,Centre,"storyboard\ring2.png",410,379 F,2,66039,66589,1,0 S,2,66039,66589,0.7,0.84 P,0,66039,66589,A
Sprite,Foreground,Centre,"storyboard\ring2.png",385,384 F,2,66119,66669,1,0 S,2,66119,66669,0.7,0.84 P,0,66119,66669,A
Sprite,Foreground,Centre,"storyboard\ring2.png",361,380 F,2,66199,66749,1,0 S,2,66199,66749,0.7,0.84 P,0,66199,66749,A
Sprite,Foreground,Centre,"storyboard\ring2.png",340,368 F,2,66279,66829,1,0 S,2,66279,66829,0.7,0.84 P,0,66279,66829,A
Sprite,Foreground,Centre,"storyboard\ring2.png",318,355 F,2,66360,66910,1,0 S,2,66360,66910,0.7,0.84 P,0,66360,66910,A
Sprite,Foreground,Centre,"storyboard\ring2.png",294,351 F,2,66440,66990,1,0 S,2,66440,66990,0.7,0.84 P,0,66440,66990,A
Sprite,Foreground,Centre,"storyboard\ring2.png",269,357 F,2,66520,67070,1,0 S,2,66520,67070,0.7,0.84 P,0,66520,67070,A
Sprite,Foreground,Centre,"storyboard\ring2.png",249,370 F,2,66600,67150,1,0 S,2,66600,67150,0.7,0.84 P,0,66600,67150,A
Sprite,Foreground,Centre,"storyboard\ring2.png",179,426 F,2,66761,67311,1,0 S,2,66761,67311,0.7,0.84 P,0,66761,67311,A
Sprite,Foreground,Centre,"storyboard\ring2.png",0,0 M,0,66922,66962,203,293,206.2376,268.4626 F,2,66922,67632,1,0 S,2,66922,67632,0.7,0.84 P,0,66922,67632,A M,0,66962,67002,206.2376,268.4626,209.4751,243.9253 M,0,67002,67042,209.4751,243.9253,212.7127,219.388 M,0,67042,67082,212.7127,219.388,215.9503,194.8507
Sprite,Foreground,Centre,"storyboard\ring2.png",158,126 F,2,67243,67793,1,0 S,2,67243,67793,0.7,0.84 P,0,67243,67793,A
Sprite,Foreground,Centre,"storyboard\ring2.png",138,219 F,2,67403,67953,1,0 S,2,67403,67953,0.7,0.84 P,0,67403,67953,A
Sprite,Foreground,Centre,"storyboard\ring2.png",225,189 F,2,67564,68114,1,0 S,2,67564,68114,0.7,0.84 P,0,67564,68114,A
Sprite,Foreground,Centre,"storyboard\ring2.png",79,147 F,2,67724,68274,1,0 S,2,67724,68274,0.7,0.84 P,0,67724,68274,A
Sprite,Foreground,Centre,"storyboard\ring2.png",80,154 F,2,67805,68355,1,0 S,2,67805,68355,0.7,0.84 P,0,67805,68355,A
Sprite,Foreground,Centre,"storyboard\ring2.png",0,0 M,0,67884,67924,81,161,83.12001,185.659 F,2,67884,68754,1,0 S,2,67884,68754,0.7,0.84 P,0,67884,68754,A M,0,67924,67964,83.12001,185.659,85.24001,210.3181 M,0,67964,68004,85.24001,210.3181,87.36002,234.9771 M,0,68004,68044,87.36002,234.9771,89.48003,259.6361 M,0,68044,68084,89.48003,259.6361,91.60004,284.2952 M,0,68084,68124,91.60004,284.2952,93.72005,308.9542 M,0,68124,68164,93.72005,308.9542,95.84006,333.6133 M,0,68164,68204,95.84006,333.6133,97.96006,358.2723
Sprite,Foreground,Centre,"storyboard\ring2.png",161,421 F,2,68366,68916,1,0 S,2,68366,68916,0.7,0.84 P,0,68366,68916,A
Sprite,Foreground,Centre,"storyboard\ring2.png",168,420 F,2,68446,68996,1,0 S,2,68446,68996,0.7,0.84 P,0,68446,68996,A
Sprite,Foreground,Centre,"storyboard\ring2.png",175,419 F,2,68526,69076,1,0 S,2,68526,69076,0.7,0.84 P,0,68526,69076,A
Sprite,Foreground,Centre,"storyboard\ring2.png",236,353 F,2,68687,69237,1,0 S,2,68687,69237,0.7,0.84 P,0,68687,69237,A
Sprite,Foreground,Centre,"storyboard\ring2.png",170,292 F,2,68847,69397,1,0 S,2,68847,69397,0.7,0.84 P,0,68847,69397,A
Sprite,Foreground,Centre,"storyboard\ring2.png",0,0 M,0,69007,69047,259,436,261.3641,411.3632 F,2,69007,69877,1,0 S,2,69007,69877,0.7,0.84 P,0,69007,69877,A M,0,69047,69087,261.3641,411.3632,263.7283,386.7263 M,0,69087,69127,263.7283,386.7263,266.0924,362.0895 M,0,69127,69167,266.0924,362.0895,268.4565,337.4527 M,0,69167,69207,268.4565,337.4527,270.8207,312.8159 M,0,69207,69247,270.8207,312.8159,273.1848,288.179 M,0,69247,69287,273.1848,288.179,275.549,263.5422 M,0,69287,69327,275.549,263.5422,277.9131,238.9054
Sprite,Foreground,Centre,"storyboard\ring2.png",283,233 F,2,69409,69959,1,0 S,2,69409,69959,0.7,0.84 P,0,69409,69959,A
Sprite,Foreground,Centre,"storyboard\ring2.png",287,227 F,2,69489,70039,1,0 S,2,69489,70039,0.7,0.84 P,0,69489,70039,A
Sprite,Foreground,Centre,"storyboard\ring2.png",369,193 F,2,69649,70199,1,0 S,2,69649,70199,0.7,0.84 P,0,69649,70199,A
Sprite,Foreground,Centre,"storyboard\ring2.png",0,0 M,0,69810,69850,211,132,235.6221,129.4875 F,2,69810,70520,1,0 S,2,69810,70520,0.7,0.84 P,0,69810,70520,A M,0,69850,69890,235.6221,129.4875,260.2443,126.9751 M,0,69890,69930,260.2443,126.9751,284.8665,124.4626 M,0,69930,69970,284.8665,124.4626,309,122
Sprite,Foreground,Centre,"storyboard\ring2.png",317,122 F,2,70050,70600,1,0 S,2,70050,70600,0.7,0.84 P,0,70050,70600,A
Sprite,Foreground,Centre,"storyboard\ring2.png",325,122 F,2,70130,70680,1,0 S,2,70130,70680,0.7,0.84 P,0,70130,70680,A
Sprite,Foreground,Centre,"storyboard\ring2.png",413,107 F,2,70291,70841,1,0 S,2,70291,70841,0.7,0.84 P,0,70291,70841,A
Sprite,Foreground,Centre,"storyboard\ring2.png",0,0 M,0,70451,70491,523,179,519.7712,203.5385 F,2,70451,71321,1,0 S,2,70451,71321,0.7,0.84 P,0,70451,71321,A M,0,70491,70531,519.7712,203.5385,516.5425,228.077 M,0,70531,70571,516.5425,228.077,513.3137,252.6155 M,0,70571,70611,513.3137,252.6155,524.7109,274.0302 M,0,70611,70651,524.7109,274.0302,536.8086,295.2878 M,0,70651,70691,536.8086,295.2878,533.1695,319.7688 M,0,70691,70731,533.1695,319.7688,529.5304,344.2498 M,0,70731,70771,529.5304,344.2498,526,368
Sprite,Foreground,Centre,"storyboard\ring2.png",448,413 F,2,70933,71483,1,0 S,2,70933,71483,0.7,0.84 P,0,70933,71483,A
Sprite,Foreground,Centre,"storyboard\ring2.png",448,413 F,2,71013,71563,1,0 S,2,71013,71563,0.7,0.84 P,0,71013,71563,A
Sprite,Foreground,Centre,"storyboard\ring2.png",448,413 F,2,71093,71643,1,0 S,2,71093,71643,0.7,0.84 P,0,71093,71643,A
Sprite,Foreground,Centre,"storyboard\ring2.png",423,411 F,2,71173,71723,1,0 S,2,71173,71723,0.7,0.84 P,0,71173,71723,A
Sprite,Foreground,Centre,"storyboard\ring2.png",399,408 F,2,71253,71803,1,0 S,2,71253,71803,0.7,0.84 P,0,71253,71803,A
Sprite,Foreground,Centre,"storyboard\ring2.png",374,405 F,2,71333,71883,1,0 S,2,71333,71883,0.7,0.84 P,0,71333,71883,A
Sprite,Foreground,Centre,"storyboard\ring2.png",350,402 F,2,71413,71963,1,0 S,2,71413,71963,0.7,0.84 P,0,71413,71963,A
Sprite,Foreground,Centre,"storyboard\ring2.png",324,398 F,2,71494,72044,1,0 S,2,71494,72044,0.7,0.84 P,0,71494,72044,A
Sprite,Foreground,Centre,"storyboard\ring2.png",299,395 F,2,71574,72124,1,0 S,2,71574,72124,0.7,0.84 P,0,71574,72124,A
Sprite,Foreground,Centre,"storyboard\ring2.png",275,392 F,2,71654,72204,1,0 S,2,71654,72204,0.7,0.84 P,0,71654,72204,A
Sprite,Foreground,Centre,"storyboard\ring2.png",250,389 F,2,71735,72285,1,0 S,2,71735,72285,0.7,0.84 P,0,71735,72285,A
Sprite,Foreground,Centre,"storyboard\ring2.png",191,321 F,2,71895,72445,1,0 S,2,71895,72445,0.7,0.84 P,0,71895,72445,A
Sprite,Foreground,Centre,"storyboard\ring2.png",191,321 F,2,71975,72525,1,0 S,2,71975,72525,0.7,0.84 P,0,71975,72525,A
Sprite,Foreground,Centre,"storyboard\ring2.png",191,321 F,2,72056,72606,1,0 S,2,72056,72606,0.7,0.84 P,0,72056,72606,A
Sprite,Foreground,Centre,"storyboard\ring2.png",162,407 F,2,72216,72766,1,0 S,2,72216,72766,0.7,0.84 P,0,72216,72766,A
Sprite,Foreground,Centre,"storyboard\ring2.png",162,407 F,2,72296,72846,1,0 S,2,72296,72846,0.7,0.84 P,0,72296,72846,A
Sprite,Foreground,Centre,"storyboard\ring2.png",162,407 F,2,72377,72927,1,0 S,2,72377,72927,0.7,0.84 P,0,72377,72927,A
Sprite,Foreground,Centre,"storyboard\ring2.png",104,290 F,2,72537,73087,1,0 S,2,72537,73087,0.7,0.84 P,0,72537,73087,A
Sprite,Foreground,Centre,"storyboard\ring2.png",198,303 F,2,72697,73247,1,0 S,2,72697,73247,0.7,0.84 P,0,72697,73247,A
Sprite,Foreground,Centre,"storyboard\ring2.png",292,316 F,2,72858,73408,1,0 S,2,72858,73408,0.7,0.84 P,0,72858,73408,A
Sprite,Foreground,Centre,"storyboard\ring2.png",0,0 M,0,73018,73058,354,221,329.4335,224.0081 F,2,73018,73728,1,0 S,2,73018,73728,0.7,0.84 P,0,73018,73728,A M,0,73058,73098,329.4335,224.0081,304.867,227.0163 M,0,73098,73138,304.867,227.0163,280.3005,230.0244 M,0,73138,73178,280.3005,230.0244,256,233
Sprite,Foreground,Centre,"storyboard\ring2.png",386,329 F,2,73339,73889,1,0 S,2,73339,73889,0.7,0.84 P,0,73339,73889,A
Sprite,Foreground,Centre,"storyboard\ring2.png",386,329 F,2,73499,74049,1,0 S,2,73499,74049,0.7,0.84 P,0,73499,74049,A
Sprite,Foreground,Centre,"storyboard\ring2.png",250,404 F,2,73660,74210,1,0 S,2,73660,74210,0.7,0.84 P,0,73660,74210,A
Sprite,Foreground,Centre,"storyboard\ring2.png",292,316 F,2,73820,74370,1,0 S,2,73820,74370,0.7,0.84 P,0,73820,74370,A
Sprite,Foreground,Centre,"storyboard\ring2.png",339,417 F,2,73981,74531,1,0 S,2,73981,74531,0.7,0.84 P,0,73981,74531,A
Sprite,Foreground,Centre,"storyboard\ring2.png",345,416 F,2,74061,74611,1,0 S,2,74061,74611,0.7,0.84 P,0,74061,74611,A
Sprite,Foreground,Centre,"storyboard\ring2.png",351,416 F,2,74141,74691,1,0 S,2,74141,74691,0.7,0.84 P,0,74141,74691,A
Sprite,Foreground,Centre,"storyboard\ring2.png",357,416 F,2,74221,74771,1,0 S,2,74221,74771,0.7,0.84 P,0,74221,74771,A
Sprite,Foreground,Centre,"storyboard\ring2.png",0,0 M,0,74302,74342,363,415,365.7119,390.399 F,2,74302,75012,1,0 S,2,74302,75012,0.7,0.84 P,0,74302,75012,A M,0,74342,74382,365.7119,390.399,368.4238,365.798 M,0,74382,74422,368.4238,365.798,371.1357,341.1971 M,0,74422,74462,371.1357,341.1971,373.8477,316.5961
Sprite,Foreground,Centre,"storyboard\ring2.png",383,298 F,2,74542,75092,1,0 S,2,74542,75092,0.7,0.84 P,0,74542,75092,A
Sprite,Foreground,Centre,"storyboard\ring2.png",398,283 F,2,74622,75172,1,0 S,2,74622,75172,0.7,0.84 P,0,74622,75172,A
Sprite,Foreground,Centre,"storyboard\ring2.png",417,273 F,2,74702,75252,1,0 S,2,74702,75252,0.7,0.84 P,0,74702,75252,A
Sprite,Foreground,Centre,"storyboard\ring2.png",438,268 F,2,74782,75332,1,0 S,2,74782,75332,0.7,0.84 P,0,74782,75332,A
Sprite,Foreground,Centre,"storyboard\ring2.png",459,270 F,2,74863,75413,1,0 S,2,74863,75413,0.7,0.84 P,0,74863,75413,A
Sprite,Foreground,Centre,"storyboard\ring2.png",0,0 M,0,74943,74983,478,279,489.1707,300.804 F,2,74943,75573,1,0 S,2,74943,75573,0.7,0.84 P,0,74943,75573,A M,0,74983,75023,489.1707,300.804,489,325
Sprite,Foreground,Centre,"storyboard\ring2.png",0,0 M,0,75104,75144,493,198,516.9316,192.9986 F,2,75104,75734,1,0 S,2,75104,75734,0.7,0.84 P,0,75104,75734,A M,0,75144,75184,516.9316,192.9986,540,201
Sprite,Foreground,Centre,"storyboard\ring2.png",0,0 M,0,75264,75304,422,157,425.4173,132.9411 F,2,75264,75894,1,0 S,2,75264,75894,0.7,0.84 P,0,75264,75894,A M,0,75304,75344,425.4173,132.9411,439.0836,112.8599
Sprite,Foreground,Centre,"storyboard\ring2.png",0,0 M,0,75425,75465,361,213,339.4617,201.5482 F,2,75425,76055,1,0 S,2,75425,76055,0.7,0.84 P,0,75425,76055,A M,0,75465,75505,339.4617,201.5482,324.2543,182.4802
Sprite,Foreground,Centre,"storyboard\ring2.png",0,0 M,0,75585,75625,394,287,381.0706,307.8998 F,2,75585,76295,1,0 S,2,75585,76295,0.7,0.84 P,0,75585,76295,A M,0,75625,75665,381.0706,307.8998,362.6598,324.0674 M,0,75665,75705,362.6598,324.0674,340.1398,333.7404 M,0,75705,75745,340.1398,333.7404,315.6897,336.2261
Sprite,Foreground,Centre,"storyboard\ring2.png",303,338 F,2,75826,76376,1,0 S,2,75826,76376,0.7,0.84 P,0,75826,76376,A
Sprite,Foreground,Centre,"storyboard\ring2.png",291,340 F,2,75906,76456,1,0 S,2,75906,76456,0.7,0.84 P,0,75906,76456,A
Sprite,Foreground,Centre,"storyboard\ring2.png",278,341 F,2,75986,76536,1,0 S,2,75986,76536,0.7,0.84 P,0,75986,76536,A
Sprite,Foreground,Centre,"storyboard\ring2.png",266,342 F,2,76066,76616,1,0 S,2,76066,76616,0.7,0.84 P,0,76066,76616,A
Sprite,Foreground,Centre,"storyboard\ring2.png",254,344 F,2,76146,76696,1,0 S,2,76146,76696,0.7,0.84 P,0,76146,76696,A
Sprite,Foreground,Centre,"storyboard\ring2.png",0,0 M,0,76227,76267,242,345,239.1495,369.5853 F,2,76227,76857,1,0 S,2,76227,76857,0.7,0.84 P,0,76227,76857,A M,0,76267,76307,239.1495,369.5853,236.2991,394.1706
Sprite,Foreground,Centre,"storyboard\ring2.png",0,0 M,0,76387,76427,166,315,162.6055,339.5161 F,2,76387,77017,1,0 S,2,76387,77017,0.7,0.84 P,0,76387,77017,A M,0,76427,76467,162.6055,339.5161,159.2109,364.0322
Sprite,Foreground,Centre,"storyboard\ring2.png",0,0 M,0,76548,76588,86,419,82.56847,394.489 F,2,76548,77178,1,0 S,2,76548,77178,0.7,0.84 P,0,76548,77178,A M,0,76588,76628,82.56847,394.489,79.13693,369.9781
Sprite,Foreground,Centre,"storyboard\ring2.png",0,0 M,0,76708,76748,87,263,106.2649,247.6725 F,2,76708,77498,1,0 S,2,76708,77498,0.7,0.84 P,0,76708,77498,A M,0,76748,76788,106.2649,247.6725,119,227 M,0,76788,76828,119,227,106.2649,247.6725 M,0,76828,76868,106.2649,247.6725,87,263 M,0,76868,76908,87,263,106.2649,247.6725 M,0,76908,76948,106.2649,247.6725,119,227
Sprite,Foreground,Centre,"storyboard\ring2.png",0,0 M,0,77029,77069,120,101,124.1369,125.3209 F,2,77029,77659,1,0 S,2,77029,77659,0.7,0.84 P,0,77029,77659,A M,0,77069,77109,124.1369,125.3209,134,147
Sprite,Foreground,Centre,"storyboard\ring2.png",204,201 F,2,77189,77739,1,0 S,2,77189,77739,0.7,0.84 P,0,77189,77739,A
Sprite,Foreground,Centre,"storyboard\ring2.png",214,200 F,2,77269,77819,1,0 S,2,77269,77819,0.7,0.84 P,0,77269,77819,A
Sprite,Foreground,Centre,"storyboard\ring2.png",226,199 F,2,77349,77899,1,0 S,2,77349,77899,0.7,0.84 P,0,77349,77899,A
Sprite,Foreground,Centre,"storyboard\ring2.png",237,198 F,2,77429,77979,1,0 S,2,77429,77979,0.7,0.84 P,0,77429,77979,A
Sprite,Foreground,Centre,"storyboard\ring2.png",249,198 F,2,77509,78059,1,0 S,2,77509,78059,0.7,0.84 P,0,77509,78059,A
Sprite,Foreground,Centre,"storyboard\ring2.png",260,197 F,2,77590,78140,1,0 S,2,77590,78140,0.7,0.84 P,0,77590,78140,A
Sprite,Foreground,Centre,"storyboard\ring2.png",0,0 M,0,77671,77711,272,196,274.7332,171.4014 F,2,77671,78301,1,0 S,2,77671,78301,0.7,0.84 P,0,77671,78301,A M,0,77711,77751,274.7332,171.4014,277.4664,146.8027
Sprite,Foreground,Centre,"storyboard\ring2.png",0,0 M,0,77831,77871,350,224,347.4282,248.616 F,2,77831,78461,1,0 S,2,77831,78461,0.7,0.84 P,0,77831,78461,A M,0,77871,77911,347.4282,248.616,344.8564,273.232
Sprite,Foreground,Centre,"storyboard\ring2.png",424,183 F,2,77991,78541,1,0 S,2,77991,78541,0.7,0.84 P,0,77991,78541,A
Sprite,Foreground,Centre,"storyboard\ring2.png",425,176 F,2,78072,78622,1,0 S,2,78072,78622,0.7,0.84 P,0,78072,78622,A
Sprite,Foreground,Centre,"storyboard\ring2.png",0,0 M,0,78152,78192,427,169,450.9807,162.8773 F,2,78152,78862,1,0 S,2,78152,78862,0.7,0.84 P,0,78152,78862,A M,0,78192,78232,450.9807,162.8773,474.8578,157.4987 M,0,78232,78272,474.8578,157.4987,496.2544,169.9386 M,0,78272,78312,496.2544,169.9386,517,182
Sprite,Foreground,Centre,"storyboard\ring2.png",518,192 F,2,78392,78942,1,0 S,2,78392,78942,0.7,0.84 P,0,78392,78942,A
Sprite,Foreground,Centre,"storyboard\ring2.png",519,200 F,2,78472,79022,1,0 S,2,78472,79022,0.7,0.84 P,0,78472,79022,A
Sprite,Foreground,Centre,"storyboard\ring2.png",519,208 F,2,78552,79102,1,0 S,2,78552,79102,0.7,0.84 P,0,78552,79102,A
Sprite,Foreground,Centre,"storyboard\ring2.png",520,216 F,2,78632,79182,1,0 S,2,78632,79182,0.7,0.84 P,0,78632,79182,A
Sprite,Foreground,Centre,"storyboard\ring2.png",520,225 F,2,78713,79263,1,0 S,2,78713,79263,0.7,0.84 P,0,78713,79263,A
Sprite,Foreground,Centre,"storyboard\ring2.png",0,0 M,0,78794,78834,521,233,523.0841,257.6621 F,2,78794,79424,1,0 S,2,78794,79424,0.7,0.84 P,0,78794,79424,A M,0,78834,78874,523.0841,257.6621,525.1682,282.3242
Sprite,Foreground,Centre,"storyboard\ring2.png",0,0 M,0,78954,78994,556,383,533.765,372.1295 F,2,78954,79584,1,0 S,2,78954,79584,0.7,0.84 P,0,78954,79584,A M,0,78994,79034,533.765,372.1295,511.53,361.2591
Sprite,Foreground,Centre,"storyboard\ring2.png",0,0 M,0,79114,79154,408,338,428.0379,323.4726 F,2,79114,79744,1,0 S,2,79114,79744,0.7,0.84 P,0,79114,79744,A M,0,79154,79194,428.0379,323.4726,448,309
Sprite,Foreground,Centre,"storyboard\ring2.png",0,0 M,0,79275,79315,369,417,367.7432,392.2819 F,2,79275,80065,1,0 S,2,79275,80065,0.7,0.84 P,0,79275,80065,A M,0,79315,79355,367.7432,392.2819,366.4863,367.5639 M,0,79355,79395,366.4863,367.5639,365.2295,342.8458 M,0,79395,79435,365.2295,342.8458,363.9726,318.1277 M,0,79435,79475,363.9726,318.1277,362.7158,293.4097 M,0,79475,79515,362.7158,293.4097,361.4589,268.6916
Sprite,Foreground,Centre,"storyboard\ring2.png",0,0 M,0,79596,79636,371,262,350.4465,248.4139 F,2,79596,80306,1,0 S,2,79596,80306,0.7,0.84 P,0,79596,80306,A M,0,79636,79676,350.4465,248.4139,326.6623,242.0143 M,0,79676,79716,326.6623,242.0143,302.0817,243.4512 M,0,79716,79756,302.0817,243.4512,280,252
Sprite,Foreground,Centre,"storyboard\ring2.png",216,316 F,2,79917,80467,1,0 S,2,79917,80467,0.7,0.84 P,0,79917,80467,A
Sprite,Foreground,Centre,"storyboard\ring2.png",207,315 F,2,79997,80547,1,0 S,2,79997,80547,0.7,0.84 P,0,79997,80547,A
Sprite,Foreground,Centre,"storyboard\ring2.png",198,314 F,2,80077,80627,1,0 S,2,80077,80627,0.7,0.84 P,0,80077,80627,A
Sprite,Foreground,Centre,"storyboard\ring2.png",147,240 F,2,80237,80787,1,0 S,2,80237,80787,0.7,0.84 P,0,80237,80787,A
Sprite,Foreground,Centre,"storyboard\ring2.png",289,172 F,2,80398,80948,1,0 S,2,80398,80948,0.7,0.84 P,0,80398,80948,A
Sprite,Foreground,Centre,"storyboard\ring2.png",216,76 F,2,80558,81108,1,0 S,2,80558,81108,0.7,0.84 P,0,80558,81108,A
Sprite,Foreground,Centre,"storyboard\ring2.png",209,82 F,2,80638,81188,1,0 S,2,80638,81188,0.7,0.84 P,0,80638,81188,A
Sprite,Foreground,Centre,"storyboard\ring2.png",0,0 M,0,80719,80759,203,88,204.5766,112.6997 F,2,80719,81429,1,0 S,2,80719,81429,0.7,0.84 P,0,80719,81429,A M,0,80759,80799,204.5766,112.6997,206.1532,137.3995 M,0,80799,80839,206.1532,137.3995,207.7297,162.0992 M,0,80839,80879,207.7297,162.0992,209.3063,186.7989
Sprite,Foreground,Centre,"storyboard\ring2.png",216,193 F,2,80959,81509,1,0 S,2,80959,81509,0.7,0.84 P,0,80959,81509,A
Sprite,Foreground,Centre,"storyboard\ring2.png",0,0 M,0,81040,81080,222,201,224.0137,225.6679 F,2,81040,81670,1,0 S,2,81040,81670,0.7,0.84 P,0,81040,81670,A M,0,81080,81120,224.0137,225.6679,226,250
Sprite,Foreground,Centre,"storyboard\ring2.png",0,0 M,0,81200,81240,279,306,277.0263,330.6712 F,2,81200,81830,1,0 S,2,81200,81830,0.7,0.84 P,0,81200,81830,A M,0,81240,81280,277.0263,330.6712,275.0526,355.3423
Sprite,Foreground,Centre,"storyboard\ring2.png",0,0 M,0,81360,81400,322,242,343.8499,230.656 F,2,81360,82070,1,0 S,2,81360,82070,0.7,0.84 P,0,81360,82070,A M,0,81400,81440,343.8499,230.656,367.8432,225.3985 M,0,81440,81480,367.8432,225.3985,392.3572,226.9438 M,0,81480,81520,392.3572,226.9438,415.6725,234.8464
Sprite,Foreground,Centre,"storyboard\ring2.png",422,242 F,2,81601,82151,1,0 S,2,81601,82151,0.7,0.84 P,0,81601,82151,A
Sprite,Foreground,Centre,"storyboard\ring2.png",427,250 F,2,81681,82231,1,0 S,2,81681,82231,0.7,0.84 P,0,81681,82231,A
Sprite,Foreground,Centre,"storyboard\ring2.png",448,338 F,2,81842,82392,1,0 S,2,81842,82392,0.7,0.84 P,0,81842,82392,A
Sprite,Foreground,Centre,"storyboard\ring2.png",448,347 F,2,81922,82472,1,0 S,2,81922,82472,0.7,0.84 P,0,81922,82472,A
Sprite,Foreground,Centre,"storyboard\ring2.png",447,355 F,2,82002,82552,1,0 S,2,82002,82552,0.7,0.84 P,0,82002,82552,A
Sprite,Foreground,Centre,"storyboard\ring2.png",349,411 F,2,82163,82713,1,0 S,2,82163,82713,0.7,0.84 P,0,82163,82713,A
Sprite,Foreground,Centre,"storyboard\ring2.png",370,306 F,2,82323,82873,1,0 S,2,82323,82873,0.7,0.84 P,0,82323,82873,A
Sprite,Foreground,Centre,"storyboard\ring2.png",526,338 F,2,82483,83033,1,0 S,2,82483,83033,0.7,0.84 P,0,82483,83033,A
Sprite,Foreground,Centre,"storyboard\ring2.png",525,330 F,2,82563,83113,1,0 S,2,82563,83113,0.7,0.84 P,0,82563,83113,A
Sprite,Foreground,Centre,"storyboard\ring2.png",0,0 M,0,82644,82684,525,321,522.5851,296.3681 F,2,82644,83274,1,0 S,2,82644,83274,0.7,0.84 P,0,82644,83274,A M,0,82684,82724,522.5851,296.3681,520.1702,271.7362
Sprite,Foreground,Centre,"storyboard\ring2.png",0,0 M,0,82804,82844,551,196,548.5373,171.3728 F,2,82804,83434,1,0 S,2,82804,83434,0.7,0.84 P,0,82804,83434,A M,0,82844,82884,548.5373,171.3728,546.0746,146.7457
Sprite,Foreground,Centre,"storyboard\ring2.png",486,89 F,2,82965,83515,1,0 S,2,82965,83515,0.7,0.84 P,0,82965,83515,A
Sprite,Foreground,Centre,"storyboard\ring2.png",479,89 F,2,83045,83595,1,0 S,2,83045,83595,0.7,0.84 P,0,83045,83595,A
Sprite,Foreground,Centre,"storyboard\ring2.png",473,90 F,2,83125,83675,1,0 S,2,83125,83675,0.7,0.84 P,0,83125,83675,A
Sprite,Foreground,Centre,"storyboard\ring2.png",467,91 F,2,83205,83755,1,0 S,2,83205,83755,0.7,0.84 P,0,83205,83755,A
Sprite,Foreground,Centre,"storyboard\ring2.png",0,0 M,0,83286,83326,461,92,436.6189,96.25703 F,2,83286,84156,1,0 S,2,83286,84156,0.7,0.84 P,0,83286,84156,A M,0,83326,83366,436.6189,96.25703,412.2377,100.5141 M,0,83366,83406,412.2377,100.5141,388.5064,99.01271 M,0,83406,83446,388.5064,99.01271,365.6874,89.4287 M,0,83446,83486,365.6874,89.4287,342.4699,82.63002 M,0,83486,83526,342.4699,82.63002,317.8789,85.43152 M,0,83526,83566,317.8789,85.43152,293.288,88.23302 M,0,83566,83606,293.288,88.23302,269,91
Sprite,Foreground,Centre,"storyboard\ring2.png",200,132 F,2,83767,84317,1,0 S,2,83767,84317,0.7,0.84 P,0,83767,84317,A
Sprite,Foreground,Centre,"storyboard\ring2.png",201,150 F,2,83847,84397,1,0 S,2,83847,84397,0.7,0.84 P,0,83847,84397,A
Sprite,Foreground,Centre,"storyboard\ring2.png",203,168 F,2,83927,84477,1,0 S,2,83927,84477,0.7,0.84 P,0,83927,84477,A
Sprite,Foreground,Centre,"storyboard\ring2.png",205,187 F,2,84007,84557,1,0 S,2,84007,84557,0.7,0.84 P,0,84007,84557,A
Sprite,Foreground,Centre,"storyboard\ring2.png",207,205 F,2,84087,84637,1,0 S,2,84087,84637,0.7,0.84 P,0,84087,84637,A
Sprite,Foreground,Centre,"storyboard\ring2.png",209,224 F,2,84168,84718,1,0 S,2,84168,84718,0.7,0.84 P,0,84168,84718,A
Sprite,Foreground,Centre,"storyboard\ring2.png",0,0 M,0,84248,84288,211,242,214.0081,266.5665 F,2,84248,84878,1,0 S,2,84248,84878,0.7,0.84 P,0,84248,84878,A M,0,84288,84328,214.0081,266.5665,217,291
Sprite,Foreground,Centre,"storyboard\ring2.png",0,0 M,0,84409,84449,297,302,293.9919,326.5665 F,2,84409,85039,1,0 S,2,84409,85039,0.7,0.84 P,0,84409,85039,A M,0,84449,84489,293.9919,326.5665,291,351
Sprite,Foreground,Centre,"storyboard\ring2.png",234,410 F,2,84569,85119,1,0 S,2,84569,85119,0.7,0.84 P,0,84569,85119,A
Sprite,Foreground,Centre,"storyboard\ring2.png",0,0 M,0,85211,85251,234,410,224.7854,408.8898 F,2,85211,86081,1,0 S,2,85211,86081,0.7,0.84 P,0,85211,86081,A M,0,85251,85291,224.7854,408.8898,215.5708,407.7796 M,0,85291,85331,215.5708,407.7796,206.3562,406.6694 M,0,85331,85371,206.3562,406.6694,197.1416,405.5592 M,0,85371,85411,197.1416,405.5592,187.9269,404.449 M,0,85411,85451,187.9269,404.449,178.7123,403.3388 M,0,85451,85491,178.7123,403.3388,169.4977,402.2286 M,0,85491,85531,169.4977,402.2286,160.2831,401.1184
Sprite,Foreground,Centre,"storyboard\ring.png",0,0 M,0,24248,24288,563,167,547.6558,165.0412 F,2,24248,25368,0.15,0 S,2,24248,25368,0.3,0.6 P,0,24248,25368,A M,0,24288,24328,547.6558,165.0412,532.3115,163.0823 M,0,24328,24368,532.3115,163.0823,516.9673,161.1235 M,0,24368,24408,516.9673,161.1235,504.1471,169.3409 M,0,24408,24448,504.1471,169.3409,491.4966,178.2431 M,0,24448,24488,491.4966,178.2431,476.7032,178.2842 M,0,24488,24528,476.7032,178.2842,461.3829,176.1465 M,0,24528,24568,461.3829,176.1465,446.0626,174.0087
Sprite,Foreground,Centre,"storyboard\ring.png",366,159 F,2,24729,25529,0.15,0 S,2,24729,25529,0.3,0.6 P,0,24729,25529,A
Sprite,Foreground,Centre,"storyboard\ring.png",0,0 M,0,24890,24930,322,227,320.51,211.6032 F,2,24890,26010,0.15,0 S,2,24890,26010,0.3,0.6 P,0,24890,26010,A M,0,24930,24970,320.51,211.6032,319.02,196.2064 M,0,24970,25010,319.02,196.2064,317.53,180.8095 M,0,25010,25050,317.53,180.8095,316.0399,165.4127 M,0,25050,25090,316.0399,165.4127,314.5499,150.0159 M,0,25090,25130,314.5499,150.0159,313.0599,134.6191 M,0,25130,25170,313.0599,134.6191,311.5699,119.2223 M,0,25170,25210,311.5699,119.2223,310.0799,103.8254
Sprite,Foreground,Centre,"storyboard\ring.png",240,144 F,2,25371,26171,0.15,0 S,2,25371,26171,0.3,0.6 P,0,25371,26171,A
Sprite,Foreground,Centre,"storyboard\ring.png",234,147 F,2,25451,26251,0.15,0 S,2,25451,26251,0.3,0.6 P,0,25451,26251,A
Sprite,Foreground,Centre,"storyboard\ring.png",0,0 M,0,25532,25572,228,150,212.6828,147.8399 F,2,25532,26492,0.15,0 S,2,25532,26492,0.3,0.6 P,0,25532,26492,A M,0,25572,25612,212.6828,147.8399,197.3656,145.6798 M,0,25612,25652,197.3656,145.6798,182.0484,143.5197 M,0,25652,25692,182.0484,143.5197,166.7313,141.3595
Sprite,Foreground,Centre,"storyboard\ring.png",0,0 M,0,25852,25892,154,220,169.3374,222.0115 F,2,25852,26812,0.15,0 S,2,25852,26812,0.3,0.6 P,0,25852,26812,A M,0,25892,25932,169.3374,222.0115,184.6748,224.0229 M,0,25932,25972,184.6748,224.0229,200.0122,226.0344 M,0,25972,26012,200.0122,226.0344,215,228
Sprite,Foreground,Centre,"storyboard\ring.png",221,237 F,2,26093,26893,0.15,0 S,2,26093,26893,0.3,0.6 P,0,26093,26893,A
Sprite,Foreground,Centre,"storyboard\ring.png",0,0 M,0,26173,26213,227,245,211.7136,242.6317 F,2,26173,27293,0.15,0 S,2,26173,27293,0.3,0.6 P,0,26173,27293,A M,0,26213,26253,211.7136,242.6317,196.4272,240.2634 M,0,26253,26293,196.4272,240.2634,181.1409,237.8951 M,0,26293,26333,181.1409,237.8951,165.8545,235.5267 M,0,26333,26373,165.8545,235.5267,150.5681,233.1584 M,0,26373,26413,150.5681,233.1584,135.2817,230.7901 M,0,26413,26453,135.2817,230.7901,119.9954,228.4218 M,0,26453,26493,119.9954,228.4218,104.709,226.0535
Sprite,Foreground,Centre,"storyboard\ring.png",78,354 F,2,26655,27455,0.15,0 S,2,26655,27455,0.3,0.6 P,0,26655,27455,A
Sprite,Foreground,Centre,"storyboard\ring.png",0,0 M,0,26815,26855,157,341,172.3269,338.91 F,2,26815,27775,0.15,0 S,2,26815,27775,0.3,0.6 P,0,26815,27775,A M,0,26855,26895,172.3269,338.91,187.6538,336.8199 M,0,26895,26935,187.6538,336.8199,202.9807,334.7299 M,0,26935,26975,202.9807,334.7299,218.3076,332.6399
Sprite,Foreground,Centre,"storyboard\ring.png",222,326 F,2,27056,27856,0.15,0 S,2,27056,27856,0.3,0.6 P,0,27056,27856,A
Sprite,Foreground,Centre,"storyboard\ring.png",0,0 M,0,27136,27176,226,320,241.335,317.9704 F,2,27136,28096,0.15,0 S,2,27136,28096,0.3,0.6 P,0,27136,28096,A M,0,27176,27216,241.335,317.9704,256.67,315.9407 M,0,27216,27256,256.67,315.9407,272.0051,313.9111 M,0,27256,27296,272.0051,313.9111,287.3401,311.8815
Sprite,Foreground,Centre,"storyboard\ring.png",372,353 F,2,27457,28257,0.15,0 S,2,27457,28257,0.3,0.6 P,0,27457,28257,A
Sprite,Foreground,Centre,"storyboard\ring.png",360,273 F,2,27617,28417,0.15,0 S,2,27617,28417,0.3,0.6 P,0,27617,28417,A
Sprite,Foreground,Centre,"storyboard\ring.png",348,193 F,2,27778,28578,0.15,0 S,2,27778,28578,0.3,0.6 P,0,27778,28578,A
Sprite,Foreground,Centre,"storyboard\ring.png",434,133 F,2,27938,28738,0.15,0 S,2,27938,28738,0.3,0.6 P,0,27938,28738,A
Sprite,Foreground,Centre,"storyboard\ring.png",432,140 F,2,28018,28818,0.15,0 S,2,28018,28818,0.3,0.6 P,0,28018,28818,A
Sprite,Foreground,Centre,"storyboard\ring.png",0,0 M,0,28098,28138,431,147,429.1386,162.3564 F,2,28098,29058,0.15,0 S,2,28098,29058,0.3,0.6 P,0,28098,29058,A M,0,28138,28178,429.1386,162.3564,427.2773,177.7127 M,0,28178,28218,427.2773,177.7127,425.4159,193.0691 M,0,28218,28258,425.4159,193.0691,423.5545,208.4254
Sprite,Foreground,Centre,"storyboard\ring.png",0,0 M,0,28419,28459,510,154,507.9885,169.3374 F,2,28419,29379,0.15,0 S,2,28419,29379,0.3,0.6 P,0,28419,29379,A M,0,28459,28499,507.9885,169.3374,505.9771,184.6748 M,0,28499,28539,505.9771,184.6748,503.9656,200.0122 M,0,28539,28579,503.9656,200.0122,502,215
Sprite,Foreground,Centre,"storyboard\ring.png",506,222 F,2,28660,29460,0.15,0 S,2,28660,29460,0.3,0.6 P,0,28660,29460,A
Sprite,Foreground,Centre,"storyboard\ring.png",0,0 M,0,28740,28780,509,229,507.2365,244.3679 F,2,28740,29700,0.15,0 S,2,28740,29700,0.3,0.6 P,0,28740,29700,A M,0,28780,28820,507.2365,244.3679,505.4729,259.7358 M,0,28820,28860,505.4729,259.7358,503.7094,275.1037 M,0,28860,28900,503.7094,275.1037,502,290
Sprite,Foreground,Centre,"storyboard\ring.png",0,0 M,0,29061,29101,524,371,508.6584,369.0204 F,2,29061,30021,0.15,0 S,2,29061,30021,0.3,0.6 P,0,29061,30021,A M,0,29101,29141,508.6584,369.0204,493.3169,367.0409 M,0,29141,29181,493.3169,367.0409,477.9753,365.0613 M,0,29181,29221,477.9753,365.0613,462.6337,363.0818
Sprite,Foreground,Centre,"storyboard\ring.png",0,0 M,0,29382,29422,392,403,376.6943,400.7601 F,2,29382,30502,0.15,0 S,2,29382,30502,0.3,0.6 P,0,29382,30502,A M,0,29422,29462,376.6943,400.7601,361.3885,398.5203 M,0,29462,29502,361.3885,398.5203,346.0828,396.2804 M,0,29502,29542,346.0828,396.2804,330.7771,394.0406 M,0,29542,29582,330.7771,394.0406,315.4714,391.8007 M,0,29582,29622,315.4714,391.8007,300.1656,389.5608 M,0,29622,29662,300.1656,389.5608,284.8599,387.321 M,0,29662,29702,284.8599,387.321,269.5542,385.0811
Sprite,Foreground,Centre,"storyboard\ring.png",0,0 M,0,29863,29903,149,364,150.49,379.3968 F,2,29863,30823,0.15,0 S,2,29863,30823,0.3,0.6 P,0,29863,30823,A M,0,29903,29943,150.49,379.3968,151.98,394.7936 M,0,29943,29983,151.98,394.7936,153.47,410.1905 M,0,29983,30023,153.47,410.1905,154.9601,425.5873
Sprite,Foreground,Centre,"storyboard\ring.png",220,324 F,2,30184,30984,0.15,0 S,2,30184,30984,0.3,0.6 P,0,30184,30984,A
Sprite,Foreground,Centre,"storyboard\ring.png",0,0 M,0,30344,30384,171,260,155.6032,261.49 F,2,30344,31304,0.15,0 S,2,30344,31304,0.3,0.6 P,0,30344,31304,A M,0,30384,30424,155.6032,261.49,140.2064,262.98 M,0,30424,30464,140.2064,262.98,124.8095,264.47 M,0,30464,30504,124.8095,264.47,109.4127,265.9601
Sprite,Foreground,Centre,"storyboard\ring.png",111,257 F,2,30585,31385,0.15,0 S,2,30585,31385,0.3,0.6 P,0,30585,31385,A
Sprite,Foreground,Centre,"storyboard\ring.png",0,0 M,0,30665,30705,113,249,128.4171,247.7363 F,2,30665,31625,0.15,0 S,2,30665,31625,0.3,0.6 P,0,30665,31625,A M,0,30705,30745,128.4171,247.7363,143.8341,246.4726 M,0,30745,30785,143.8341,246.4726,159.2511,245.2089 M,0,30785,30825,159.2511,245.2089,174,244
Sprite,Foreground,Centre,"storyboard\ring.png",242,201 F,2,30986,31786,0.15,0 S,2,30986,31786,0.3,0.6 P,0,30986,31786,A
Sprite,Foreground,Centre,"storyboard\ring.png",227,122 F,2,31146,31946,0.15,0 S,2,31146,31946,0.3,0.6 P,0,31146,31946,A
Sprite,Foreground,Centre,"storyboard\ring.png",225,114 F,2,31226,32026,0.15,0 S,2,31226,32026,0.3,0.6 P,0,31226,32026,A
Sprite,Foreground,Centre,"storyboard\ring.png",223,106 F,2,31307,32107,0.15,0 S,2,31307,32107,0.3,0.6 P,0,31307,32107,A
Sprite,Foreground,Centre,"storyboard\ring.png",0,0 M,0,31467,31507,297,76,312.4356,77.01217 F,2,31467,32427,0.15,0 S,2,31467,32427,0.3,0.6 P,0,31467,32427,A M,0,31507,31547,312.4356,77.01217,327.8712,78.02434 M,0,31547,31587,327.8712,78.02434,343.3068,79.03651 M,0,31587,31627,343.3068,79.03651,358,80
Sprite,Foreground,Centre,"storyboard\ring.png",454,139 F,2,31788,32588,0.15,0 S,2,31788,32588,0.3,0.6 P,0,31788,32588,A
Sprite,Foreground,Centre,"storyboard\ring.png",0,0 M,0,31949,31989,506,77,504.7664,92.41949 F,2,31949,33069,0.15,0 S,2,31949,33069,0.3,0.6 P,0,31949,33069,A M,0,31989,32029,504.7664,92.41949,503.5329,107.839 M,0,32029,32069,503.5329,107.839,502.2993,123.2585 M,0,32069,32109,502.2993,123.2585,508.2559,136.9051 M,0,32109,32149,508.2559,136.9051,513.4386,150.6782 M,0,32149,32189,513.4386,150.6782,511.5956,166.0368 M,0,32189,32229,511.5956,166.0368,509.7526,181.3954 M,0,32229,32269,509.7526,181.3954,508,196
Sprite,Foreground,Centre,"storyboard\ring.png",454,256 F,2,32430,33230,0.15,0 S,2,32430,33230,0.3,0.6 P,0,32430,33230,A
Sprite,Foreground,Centre,"storyboard\ring.png",531,320 F,2,32590,33390,0.15,0 S,2,32590,33390,0.3,0.6 P,0,32590,33390,A
Sprite,Foreground,Centre,"storyboard\ring.png",531,320 F,2,32751,33551,0.15,0 S,2,32751,33551,0.3,0.6 P,0,32751,33551,A
Sprite,Foreground,Centre,"storyboard\ring.png",0,0 M,0,32911,32951,491,389,475.7808,386.2329 F,2,32911,33871,0.15,0 S,2,32911,33871,0.3,0.6 P,0,32911,33871,A M,0,32951,32991,475.7808,386.2329,460.5615,383.4657 M,0,32991,33031,460.5615,383.4657,445.3423,380.6986 M,0,33031,33071,445.3423,380.6986,430.123,377.9315
Sprite,Foreground,Centre,"storyboard\ring.png",422,382 F,2,33152,33952,0.15,0 S,2,33152,33952,0.3,0.6 P,0,33152,33952,A
Sprite,Foreground,Centre,"storyboard\ring.png",0,0 M,0,33232,33272,413,386,397.7042,383.6935 F,2,33232,34352,0.15,0 S,2,33232,34352,0.3,0.6 P,0,33232,34352,A M,0,33272,33312,397.7042,383.6935,382.4084,381.387 M,0,33312,33352,382.4084,381.387,367.1125,379.0805 M,0,33352,33392,367.1125,379.0805,351.8167,376.774 M,0,33392,33432,351.8167,376.774,336.5209,374.4674 M,0,33432,33472,336.5209,374.4674,321.225,372.1609 M,0,33472,33512,321.225,372.1609,305.9292,369.8544 M,0,33512,33552,305.9292,369.8544,290.6334,367.5479
Sprite,Foreground,Centre,"storyboard\ring.png",216,398 F,2,33713,34513,0.15,0 S,2,33713,34513,0.3,0.6 P,0,33713,34513,A
Sprite,Foreground,Centre,"storyboard\ring.png",209,402 F,2,33794,34594,0.15,0 S,2,33794,34594,0.3,0.6 P,0,33794,34594,A
Sprite,Foreground,Centre,"storyboard\ring.png",202,406 F,2,33874,34674,0.15,0 S,2,33874,34674,0.3,0.6 P,0,33874,34674,A
Sprite,Foreground,Centre,"storyboard\ring.png",203,390 F,2,33954,34754,0.15,0 S,2,33954,34754,0.3,0.6 P,0,33954,34754,A
Sprite,Foreground,Centre,"storyboard\ring.png",205,375 F,2,34034,34834,0.15,0 S,2,34034,34834,0.3,0.6 P,0,34034,34834,A
Sprite,Foreground,Centre,"storyboard\ring.png",207,359 F,2,34114,34914,0.15,0 S,2,34114,34914,0.3,0.6 P,0,34114,34914,A
Sprite,Foreground,Centre,"storyboard\ring.png",184,318 F,2,34195,34995,0.15,0 S,2,34195,34995,0.3,0.6 P,0,34195,34995,A
Sprite,Foreground,Centre,"storyboard\ring.png",185,310 F,2,34275,35075,0.15,0 S,2,34275,35075,0.3,0.6 P,0,34275,35075,A
Sprite,Foreground,Centre,"storyboard\ring.png",186,302 F,2,34355,35155,0.15,0 S,2,34355,35155,0.3,0.6 P,0,34355,35155,A
Sprite,Foreground,Centre,"storyboard\ring.png",187,294 F,2,34435,35235,0.15,0 S,2,34435,35235,0.3,0.6 P,0,34435,35235,A
Sprite,Foreground,Centre,"storyboard\ring.png",0,0 M,0,34515,34555,159,253,175.8452,245.3441 F,2,34515,35635,0.15,0 S,2,34515,35635,0.3,0.6 P,0,34515,35635,A M,0,34555,34595,175.8452,245.3441,194.1846,243.032 M,0,34595,34635,194.1846,243.032,212.4011,246.2761 M,0,34635,34675,212.4011,246.2761,229.3705,253.7265 M,0,34675,34715,229.3705,253.7265,246.5493,260.6733 M,0,34715,34755,246.5493,260.6733,264.8427,263.5071 M,0,34755,34795,264.8427,263.5071,283.2294,261.414 M,0,34795,34835,283.2294,261.414,300,255
Sprite,Foreground,Centre,"storyboard\ring.png",406,184 F,2,34997,35797,0.15,0 S,2,34997,35797,0.3,0.6 P,0,34997,35797,A
Sprite,Foreground,Centre,"storyboard\ring.png",0,0 M,0,35157,35197,482,213,481.014,231.5363 F,2,35157,36117,0.15,0 S,2,35157,36117,0.3,0.6 P,0,35157,36117,A M,0,35197,35237,481.014,231.5363,480.028,250.0726 M,0,35237,35277,480.028,250.0726,479.0421,268.6089 M,0,35277,35317,479.0421,268.6089,478.0561,287.1452
Sprite,Foreground,Centre,"storyboard\ring.png",523,355 F,2,35478,36278,0.15,0 S,2,35478,36278,0.3,0.6 P,0,35478,36278,A
Sprite,Foreground,Centre,"storyboard\ring.png",523,355 F,2,35638,36438,0.15,0 S,2,35638,36438,0.3,0.6 P,0,35638,36438,A
Sprite,Foreground,Centre,"storyboard\ring.png",0,0 M,0,35799,35839,428,415,409.7273,417.4944 F,2,35799,36759,0.15,0 S,2,35799,36759,0.3,0.6 P,0,35799,36759,A M,0,35839,35879,409.7273,417.4944,391.5862,414.457 M,0,35879,35919,391.5862,414.457,375.1982,406.182 M,0,35919,35959,375.1982,406.182,361.6176,393.726
Sprite,Foreground,Centre,"storyboard\ring.png",0,0 M,0,36120,36160,283,422,272.2992,406.973 F,2,36120,37080,0.15,0 S,2,36120,37080,0.3,0.6 P,0,36120,37080,A M,0,36160,36200,272.2992,406.973,266.4738,389.5178 M,0,36200,36240,266.4738,389.5178,266.009,371.1559 M,0,36240,36280,266.009,371.1559,270.5001,353.2796
Sprite,Foreground,Centre,"storyboard\ring.png",0,0 M,0,36441,36481,209,296,216.9811,279.3794 F,2,36441,37401,0.15,0 S,2,36441,37401,0.3,0.6 P,0,36441,37401,A M,0,36481,36521,216.9811,279.3794,229.6111,266.0161 M,0,36521,36561,229.6111,266.0161,245.6802,257.1549 M,0,36561,36601,245.6802,257.1549,263.6533,253.1205
Sprite,Foreground,Centre,"storyboard\ring.png",365,306 F,2,36761,37561,0.15,0 S,2,36761,37561,0.3,0.6 P,0,36761,37561,A
Sprite,Foreground,Centre,"storyboard\ring.png",280,334 F,2,36922,37722,0.15,0 S,2,36922,37722,0.3,0.6 P,0,36922,37722,A
Sprite,Foreground,Centre,"storyboard\ring.png",0,0 M,0,37082,37122,330,206,348.4094,208.3794 F,2,37082,38202,0.15,0 S,2,37082,38202,0.3,0.6 P,0,37082,38202,A M,0,37122,37162,348.4094,208.3794,366.8187,210.7589 M,0,37162,37202,366.8187,210.7589,385.2281,213.1383 M,0,37202,37242,385.2281,213.1383,403.6375,215.5178 M,0,37242,37282,403.6375,215.5178,422.0468,217.8972 M,0,37282,37322,422.0468,217.8972,440.4562,220.2766 M,0,37322,37362,440.4562,220.2766,458.8655,222.6561 M,0,37362,37402,458.8655,222.6561,477,225
Sprite,Foreground,Centre,"storyboard\ring.png",535,166 F,2,37564,38364,0.15,0 S,2,37564,38364,0.3,0.6 P,0,37564,38364,A
Sprite,Foreground,Centre,"storyboard\ring.png",490,98 F,2,37724,38524,0.15,0 S,2,37724,38524,0.3,0.6 P,0,37724,38524,A
Sprite,Foreground,Centre,"storyboard\ring.png",490,98 F,2,37884,38684,0.15,0 S,2,37884,38684,0.3,0.6 P,0,37884,38684,A
Sprite,Foreground,Centre,"storyboard\ring.png",0,0 M,0,38045,38085,371,111,352.551,113.0499 F,2,38045,39005,0.15,0 S,2,38045,39005,0.3,0.6 P,0,38045,39005,A M,0,38085,38125,352.551,113.0499,334.1021,115.0998 M,0,38125,38165,334.1021,115.0998,315.6531,117.1497 M,0,38165,38205,315.6531,117.1497,297.2041,119.1995
Sprite,Foreground,Centre,"storyboard\ring.png",291,127 F,2,38286,39086,0.15,0 S,2,38286,39086,0.3,0.6 P,0,38286,39086,A
Sprite,Foreground,Centre,"storyboard\ring.png",0,0 M,0,38366,38406,284,135,266.981,142.2562 F,2,38366,39326,0.15,0 S,2,38366,39326,0.3,0.6 P,0,38366,39326,A M,0,38406,38446,266.981,142.2562,248.8499,145.8117 M,0,38446,38486,248.8499,145.8117,230.3913,145.5202 M,0,38486,38526,230.3913,145.5202,213,142
Sprite,Foreground,Centre,"storyboard\ring.png",0,0 M,0,38687,38727,91,79,105.9771,89.84539 F,2,38687,39647,0.15,0 S,2,38687,39647,0.3,0.6 P,0,38687,39647,A M,0,38727,38767,105.9771,89.84539,118.1281,103.7458 M,0,38767,38807,118.1281,103.7458,126.8505,119.9975 M,0,38807,38847,126.8505,119.9975,132,137
Sprite,Foreground,Centre,"storyboard\ring.png",0,0 M,0,39008,39048,169,212,167.4998,230.5018 F,2,39008,39968,0.15,0 S,2,39008,39968,0.3,0.6 P,0,39008,39968,A M,0,39048,39088,167.4998,230.5018,165.9997,249.0036 M,0,39088,39128,165.9997,249.0036,164.4996,267.5054 M,0,39128,39168,164.4996,267.5054,163,286
Sprite,Foreground,Centre,"storyboard\ring.png",0,0 M,0,39328,39368,128,409,146.4843,407.2975 F,2,39328,40288,0.15,0 S,2,39328,40288,0.3,0.6 P,0,39328,40288,A M,0,39368,39408,146.4843,407.2975,164.9685,405.595 M,0,39408,39448,164.9685,405.595,183.4528,403.8925 M,0,39448,39488,183.4528,403.8925,201.937,402.19
Sprite,Foreground,Centre,"storyboard\ring.png",0,0 M,0,39649,39689,84,334,102.4927,332.3919 F,2,39649,40769,0.15,0 S,2,39649,40769,0.3,0.6 P,0,39649,40769,A M,0,39689,39729,102.4927,332.3919,120.9854,330.7839 M,0,39729,39769,120.9854,330.7839,139.4781,329.1758 M,0,39769,39809,139.4781,329.1758,157.9709,327.5677 M,0,39809,39849,157.9709,327.5677,176.4636,325.9597 M,0,39849,39889,176.4636,325.9597,194.9563,324.3516 M,0,39889,39929,194.9563,324.3516,213.449,322.7436 M,0,39929,39969,213.449,322.7436,231.9417,321.1355
Sprite,Foreground,Centre,"storyboard\ring.png",305,357 F,2,40130,40930,0.15,0 S,2,40130,40930,0.3,0.6 P,0,40130,40930,A
Sprite,Foreground,Centre,"storyboard\ring.png",310,352 F,2,40211,41011,0.15,0 S,2,40211,41011,0.3,0.6 P,0,40211,41011,A
Sprite,Foreground,Centre,"storyboard\ring.png",0,0 M,0,40291,40331,315,347,317.0881,328.5553 F,2,40291,41411,0.15,0 S,2,40291,41411,0.3,0.6 P,0,40291,41411,A M,0,40331,40371,317.0881,328.5553,319.1761,310.1106 M,0,40371,40411,319.1761,310.1106,319.5255,292.1715 M,0,40411,40451,319.5255,292.1715,307.8728,277.7222 M,0,40451,40491,307.8728,277.7222,296.2201,263.2729 M,0,40491,40531,296.2201,263.2729,297.9402,244.8918 M,0,40531,40571,297.9402,244.8918,299.9177,226.4349 M,0,40571,40611,299.9177,226.4349,301.8952,207.9781
Sprite,Foreground,Centre,"storyboard\ring.png",240,96 F,2,40772,41572,0.15,0 S,2,40772,41572,0.3,0.6 P,0,40772,41572,A
Sprite,Foreground,Centre,"storyboard\ring.png",0,0 M,0,40933,40973,315,128,333.5013,126.4941 F,2,40933,41893,0.15,0 S,2,40933,41893,0.3,0.6 P,0,40933,41893,A M,0,40973,41013,333.5013,126.4941,352.0026,124.9882 M,0,41013,41053,352.0026,124.9882,370.5039,123.4822 M,0,41053,41093,370.5039,123.4822,389.0052,121.9763
Sprite,Foreground,Centre,"storyboard\ring.png",0,0 M,0,41253,41293,449,176,467.5013,174.4941 F,2,41253,42213,0.15,0 S,2,41253,42213,0.3,0.6 P,0,41253,42213,A M,0,41293,41333,467.5013,174.4941,486.0026,172.9882 M,0,41333,41373,486.0026,172.9882,504.5039,171.4822 M,0,41373,41413,504.5039,171.4822,523.0052,169.9763
Sprite,Foreground,Centre,"storyboard\ring.png",0,0 M,0,41574,41614,566,239,570.8446,256.7847 F,2,41574,42534,0.15,0 S,2,41574,42534,0.3,0.6 P,0,41574,42534,A M,0,41614,41654,570.8446,256.7847,570.1896,275.1534 M,0,41654,41694,570.1896,275.1534,564.1151,292.4697 M,0,41694,41734,564.1151,292.4697,553.405,307.3949
Sprite,Foreground,Centre,"storyboard\ring.png",0,0 M,0,41895,41935,557,389,543.1909,401.2241 F,2,41895,42855,0.15,0 S,2,41895,42855,0.3,0.6 P,0,41895,42855,A M,0,41935,41975,543.1909,401.2241,526.5015,408.9568 M,0,41975,42015,526.5015,408.9568,508.3232,411.5748 M,0,42015,42055,508.3232,411.5748,490.0919,409.1805
Sprite,Foreground,Centre,"storyboard\ring.png",483,404 F,2,42136,42936,0.15,0 S,2,42136,42936,0.3,0.6 P,0,42136,42936,A
Sprite,Foreground,Centre,"storyboard\ring.png",476,398 F,2,42216,43016,0.15,0 S,2,42216,43016,0.3,0.6 P,0,42216,43016,A
Sprite,Foreground,Centre,"storyboard\ring.png",416,342 F,2,42376,43176,0.15,0 S,2,42376,43176,0.3,0.6 P,0,42376,43176,A
Sprite,Foreground,Centre,"storyboard\ring.png",416,342 F,2,42457,43257,0.15,0 S,2,42457,43257,0.3,0.6 P,0,42457,43257,A
Sprite,Foreground,Centre,"storyboard\ring.png",416,342 F,2,42537,43337,0.15,0 S,2,42537,43337,0.3,0.6 P,0,42537,43337,A
Sprite,Foreground,Centre,"storyboard\ring.png",397,343 F,2,42617,43417,0.15,0 S,2,42617,43417,0.3,0.6 P,0,42617,43417,A
Sprite,Foreground,Centre,"storyboard\ring.png",378,345 F,2,42697,43497,0.15,0 S,2,42697,43497,0.3,0.6 P,0,42697,43497,A
Sprite,Foreground,Centre,"storyboard\ring.png",360,346 F,2,42777,43577,0.15,0 S,2,42777,43577,0.3,0.6 P,0,42777,43577,A
Sprite,Foreground,Centre,"storyboard\ring.png",341,348 F,2,42857,43657,0.15,0 S,2,42857,43657,0.3,0.6 P,0,42857,43657,A
Sprite,Foreground,Centre,"storyboard\ring.png",323,349 F,2,42938,43738,0.15,0 S,2,42938,43738,0.3,0.6 P,0,42938,43738,A
Sprite,Foreground,Centre,"storyboard\ring.png",304,351 F,2,43018,43818,0.15,0 S,2,43018,43818,0.3,0.6 P,0,43018,43818,A
Sprite,Foreground,Centre,"storyboard\ring.png",286,352 F,2,43098,43898,0.15,0 S,2,43098,43898,0.3,0.6 P,0,43098,43898,A
Sprite,Foreground,Centre,"storyboard\ring.png",0,0 M,0,43179,43219,267,354,248.5617,356.144 F,2,43179,44059,0.15,0 S,2,43179,44059,0.3,0.6 P,0,43179,44059,A M,0,43219,43259,248.5617,356.144,230.1235,358.288
Sprite,Foreground,Centre,"storyboard\ring.png",0,0 M,0,43339,43379,186,426,167.5562,423.9041 F,2,43339,44219,0.15,0 S,2,43339,44219,0.3,0.6 P,0,43339,44219,A M,0,43379,43419,167.5562,423.9041,149.1124,421.8082
Sprite,Foreground,Centre,"storyboard\ring.png",88,366 F,2,43499,44299,0.15,0 S,2,43499,44299,0.3,0.6 P,0,43499,44299,A
Sprite,Foreground,Centre,"storyboard\Partyu-nukamiso\77-glow.png",204,80 F,0,65318,,0 P,0,65318,,A F,1,65318,65959,1,0 S,1,65318,65959,0.16,0.24
Sprite,Foreground,Centre,"storyboard\Partyu-nukamiso\77.png",204,80 F,0,65318,,0,1 S,0,65318,,0.16 P,0,65318,,A F,0,70131,70451,1,0
Sprite,Foreground,Centre,"storyboard\Partyu-nukamiso\97-glow.png",218.4,80 F,0,65318,,0 P,0,65358,,A F,1,65358,65999,1,0 S,1,65358,65999,0.16,0.24
Sprite,Foreground,Centre,"storyboard\Partyu-nukamiso\97.png",218.4,80 F,0,65358,,0,1 S,0,65358,,0.16 P,0,65358,,A F,0,70131,70451,1,0
Sprite,Foreground,Centre,"storyboard\Partyu-nukamiso\112-glow.png",232.8,80 F,0,65318,,0 P,0,65398,,A F,1,65398,66039,1,0 S,1,65398,66039,0.16,0.24
Sprite,Foreground,Centre,"storyboard\Partyu-nukamiso\112.png",232.8,80 F,0,65398,,0,1 S,0,65398,,0.16 P,0,65398,,A F,0,70131,70451,1,0
Sprite,Foreground,Centre,"storyboard\Partyu-nukamiso\112-glow.png",247.2,80 F,0,65318,,0 P,0,65438,,A F,1,65438,66079,1,0 S,1,65438,66079,0.16,0.24
Sprite,Foreground,Centre,"storyboard\Partyu-nukamiso\112.png",247.2,80 F,0,65438,,0,1 S,0,65438,,0.16 P,0,65438,,A F,0,70131,70451,1,0
Sprite,Foreground,Centre,"storyboard\Partyu-nukamiso\101-glow.png",261.6,80 F,0,65318,,0 P,0,65478,,A F,1,65478,66119,1,0 S,1,65478,66119,0.16,0.24
Sprite,Foreground,Centre,"storyboard\Partyu-nukamiso\101.png",261.6,80 F,0,65478,,0,1 S,0,65478,,0.16 P,0,65478,,A F,0,70131,70451,1,0
Sprite,Foreground,Centre,"storyboard\Partyu-nukamiso\100-glow.png",276,80 F,0,65318,,0 P,0,65518,,A F,1,65518,66159,1,0 S,1,65518,66159,0.16,0.24
Sprite,Foreground,Centre,"storyboard\Partyu-nukamiso\100.png",276,80 F,0,65518,,0,1 S,0,65518,,0.16 P,0,65518,,A F,0,70131,70451,1,0
Sprite,Foreground,Centre,"storyboard\Partyu-nukamiso\98-glow.png",304.8,80 F,0,65318,,0 P,0,65598,,A F,1,65598,66239,1,0 S,1,65598,66239,0.16,0.24
Sprite,Foreground,Centre,"storyboard\Partyu-nukamiso\98.png",304.8,80 F,0,65598,,0,1 S,0,65598,,0.16 P,0,65598,,A F,0,70131,70451,1,0
Sprite,Foreground,Centre,"storyboard\Partyu-nukamiso\121-glow.png",319.2,80 F,0,65318,,0 P,0,65638,,A F,1,65638,66279,1,0 S,1,65638,66279,0.16,0.24
Sprite,Foreground,Centre,"storyboard\Partyu-nukamiso\121.png",319.2,80 F,0,65638,,0,1 S,0,65638,,0.16 P,0,65638,,A F,0,70131,70451,1,0
Sprite,Foreground,Centre,"storyboard\Partyu-nukamiso\84-glow.png",348,80 F,0,65318,,0 P,0,65718,,A F,1,65718,66359,1,0 S,1,65718,66359,0.16,0.24
Sprite,Foreground,Centre,"storyboard\Partyu-nukamiso\84.png",348,80 F,0,65718,,0,1 S,0,65718,,0.16 P,0,65718,,A F,0,70131,70451,1,0
Sprite,Foreground,Centre,"storyboard\Partyu-nukamiso\97-glow.png",362.4,80 F,0,65318,,0 P,0,65758,,A F,1,65758,66399,1,0 S,1,65758,66399,0.16,0.24
Sprite,Foreground,Centre,"storyboard\Partyu-nukamiso\97.png",362.4,80 F,0,65758,,0,1 S,0,65758,,0.16 P,0,65758,,A F,0,70131,70451,1,0
Sprite,Foreground,Centre,"storyboard\Partyu-nukamiso\101-glow.png",376.8,80 F,0,65318,,0 P,0,65798,,A F,1,65798,66439,1,0 S,1,65798,66439,0.16,0.24
Sprite,Foreground,Centre,"storyboard\Partyu-nukamiso\101.png",376.8,80 F,0,65798,,0,1 S,0,65798,,0.16 P,0,65798,,A F,0,70131,70451,1,0
Sprite,Foreground,Centre,"storyboard\Partyu-nukamiso\121-glow.png",391.2,80 F,0,65318,,0 P,0,65838,,A F,1,65838,66479,1,0 S,1,65838,66479,0.16,0.24
Sprite,Foreground,Centre,"storyboard\Partyu-nukamiso\121.png",391.2,80 F,0,65838,,0,1 S,0,65838,,0.16 P,0,65838,,A F,0,70131,70451,1,0
Sprite,Foreground,Centre,"storyboard\Partyu-nukamiso\97-glow.png",405.6,80 F,0,65318,,0 P,0,65878,,A F,1,65878,66519,1,0 S,1,65878,66519,0.16,0.24
Sprite,Foreground,Centre,"storyboard\Partyu-nukamiso\97.png",405.6,80 F,0,65878,,0,1 S,0,65878,,0.16 P,0,65878,,A F,0,70131,70451,1,0
Sprite,Foreground,Centre,"storyboard\Partyu-nukamiso\110-glow.png",420,80 F,0,65318,,0 P,0,65918,,A F,1,65918,66559,1,0 S,1,65918,66559,0.16,0.24
Sprite,Foreground,Centre,"storyboard\Partyu-nukamiso\110.png",420,80 F,0,65918,,0,1 S,0,65918,,0.16 P,0,65918,,A F,0,70131,70451,1,0
Sprite,Foreground,Centre,"storyboard\Partyu-nukamiso\103-glow.png",434.4,80 F,0,65318,,0 P,0,65958,,A F,1,65958,66599,1,0 S,1,65958,66599,0.16,0.24
Sprite,Foreground,Centre,"storyboard\Partyu-nukamiso\103.png",434.4,80 F,0,65958,,0,1 S,0,65958,,0.16 P,0,65958,,A F,0,70131,70451,1,0
Sprite,Foreground,Centre,"storyboard\Partyu-nukamiso\83-glow.png",104,123 F,0,65318,,0 P,0,65998,,A F,1,65998,66639,1,0 S,1,65998,66639,0.16,0.24
Sprite,Foreground,Centre,"storyboard\Partyu-nukamiso\83.png",104,123 F,0,65998,,0,1 S,0,65998,,0.16 P,0,65998,,A F,0,70131,70451,1,0
Sprite,Foreground,Centre,"storyboard\Partyu-nukamiso\116-glow.png",118.4,123 F,0,65318,,0 P,0,66038,,A F,1,66038,66679,1,0 S,1,66038,66679,0.16,0.24
Sprite,Foreground,Centre,"storyboard\Partyu-nukamiso\116.png",118.4,123 F,0,66038,,0,1 S,0,66038,,0.16 P,0,66038,,A F,0,70131,70451,1,0
Sprite,Foreground,Centre,"storyboard\Partyu-nukamiso\111-glow.png",132.8,123 F,0,65318,,0 P,0,66078,,A F,1,66078,66719,1,0 S,1,66078,66719,0.16,0.24
Sprite,Foreground,Centre,"storyboard\Partyu-nukamiso\111.png",132.8,123 F,0,66078,,0,1 S,0,66078,,0.16 P,0,66078,,A F,0,70131,70451,1,0
Sprite,Foreground,Centre,"storyboard\Partyu-nukamiso\114-glow.png",147.2,123 F,0,65318,,0 P,0,66118,,A F,1,66118,66759,1,0 S,1,66118,66759,0.16,0.24
Sprite,Foreground,Centre,"storyboard\Partyu-nukamiso\114.png",147.2,123 F,0,66118,,0,1 S,0,66118,,0.16 P,0,66118,,A F,0,70131,70451,1,0
Sprite,Foreground,Centre,"storyboard\Partyu-nukamiso\121-glow.png",161.6,123 F,0,65318,,0 P,0,66158,,A F,1,66158,66799,1,0 S,1,66158,66799,0.16,0.24
Sprite,Foreground,Centre,"storyboard\Partyu-nukamiso\121.png",161.6,123 F,0,66158,,0,1 S,0,66158,,0.16 P,0,66158,,A F,0,70131,70451,1,0
Sprite,Foreground,Centre,"storyboard\Partyu-nukamiso\98-glow.png",176,123 F,0,65318,,0 P,0,66198,,A F,1,66198,66839,1,0 S,1,66198,66839,0.16,0.24
Sprite,Foreground,Centre,"storyboard\Partyu-nukamiso\98.png",176,123 F,0,66198,,0,1 S,0,66198,,0.16 P,0,66198,,A F,0,70131,70451,1,0
Sprite,Foreground,Centre,"storyboard\Partyu-nukamiso\111-glow.png",190.4,123 F,0,65318,,0 P,0,66238,,A F,1,66238,66879,1,0 S,1,66238,66879,0.16,0.24
Sprite,Foreground,Centre,"storyboard\Partyu-nukamiso\111.png",190.4,123 F,0,66238,,0,1 S,0,66238,,0.16 P,0,66238,,A F,0,70131,70451,1,0
Sprite,Foreground,Centre,"storyboard\Partyu-nukamiso\97-glow.png",204.8,123 F,0,65318,,0 P,0,66278,,A F,1,66278,66919,1,0 S,1,66278,66919,0.16,0.24
Sprite,Foreground,Centre,"storyboard\Partyu-nukamiso\97.png",204.8,123 F,0,66278,,0,1 S,0,66278,,0.16 P,0,66278,,A F,0,70131,70451,1,0
Sprite,Foreground,Centre,"storyboard\Partyu-nukamiso\114-glow.png",219.2,123 F,0,65318,,0 P,0,66318,,A F,1,66318,66959,1,0 S,1,66318,66959,0.16,0.24
Sprite,Foreground,Centre,"storyboard\Partyu-nukamiso\114.png",219.2,123 F,0,66318,,0,1 S,0,66318,,0.16 P,0,66318,,A F,0,70131,70451,1,0
Sprite,Foreground,Centre,"storyboard\Partyu-nukamiso\100-glow.png",233.6,123 F,0,65318,,0 P,0,66358,,A F,1,66358,66999,1,0 S,1,66358,66999,0.16,0.24
Sprite,Foreground,Centre,"storyboard\Partyu-nukamiso\100.png",233.6,123 F,0,66358,,0,1 S,0,66358,,0.16 P,0,66358,,A F,0,70131,70451,1,0
Sprite,Foreground,Centre,"storyboard\Partyu-nukamiso\101-glow.png",248,123 F,0,65318,,0 P,0,66398,,A F,1,66398,67039,1,0 S,1,66398,67039,0.16,0.24
Sprite,Foreground,Centre,"storyboard\Partyu-nukamiso\101.png",248,123 F,0,66398,,0,1 S,0,66398,,0.16 P,0,66398,,A F,0,70131,70451,1,0
Sprite,Foreground,Centre,"storyboard\Partyu-nukamiso\100-glow.png",262.4,123 F,0,65318,,0 P,0,66438,,A F,1,66438,67079,1,0 S,1,66438,67079,0.16,0.24
Sprite,Foreground,Centre,"storyboard\Partyu-nukamiso\100.png",262.4,123 F,0,66438,,0,1 S,0,66438,,0.16 P,0,66438,,A F,0,70131,70451,1,0
Sprite,Foreground,Centre,"storyboard\Partyu-nukamiso\98-glow.png",291.2,123 F,0,65318,,0 P,0,66518,,A F,1,66518,67159,1,0 S,1,66518,67159,0.16,0.24
Sprite,Foreground,Centre,"storyboard\Partyu-nukamiso\98.png",291.2,123 F,0,66518,,0,1 S,0,66518,,0.16 P,0,66518,,A F,0,70131,70451,1,0
Sprite,Foreground,Centre,"storyboard\Partyu-nukamiso\121-glow.png",305.6,123 F,0,65318,,0 P,0,66558,,A F,1,66558,67199,1,0 S,1,66558,67199,0.16,0.24
Sprite,Foreground,Centre,"storyboard\Partyu-nukamiso\121.png",305.6,123 F,0,66558,,0,1 S,0,66558,,0.16 P,0,66558,,A F,0,70131,70451,1,0
Sprite,Foreground,Centre,"storyboard\Partyu-nukamiso\45-glow.png",334.4,123 F,0,65318,,0 P,0,66638,,A F,1,66638,67279,1,0 S,1,66638,67279,0.16,0.24
Sprite,Foreground,Centre,"storyboard\Partyu-nukamiso\45.png",334.4,123 F,0,66638,,0,1 S,0,66638,,0.16 P,0,66638,,A F,0,70131,70451,1,0
Sprite,Foreground,Centre,"storyboard\Partyu-nukamiso\65-glow.png",348.8,123 F,0,65318,,0 P,0,66678,,A F,1,66678,67319,1,0 S,1,66678,67319,0.16,0.24
Sprite,Foreground,Centre,"storyboard\Partyu-nukamiso\65.png",348.8,123 F,0,66678,,0,1 S,0,66678,,0.16 P,0,66678,,A F,0,70131,70451,1,0
Sprite,Foreground,Centre,"storyboard\Partyu-nukamiso\100-glow.png",363.2,123 F,0,65318,,0 P,0,66718,,A F,1,66718,67359,1,0 S,1,66718,67359,0.16,0.24
Sprite,Foreground,Centre,"storyboard\Partyu-nukamiso\100.png",363.2,123 F,0,66718,,0,1 S,0,66718,,0.16 P,0,66718,,A F,0,70131,70451,1,0
Sprite,Foreground,Centre,"storyboard\Partyu-nukamiso\121-glow.png",377.6,123 F,0,65318,,0 P,0,66758,,A F,1,66758,67399,1,0 S,1,66758,67399,0.16,0.24
Sprite,Foreground,Centre,"storyboard\Partyu-nukamiso\121.png",377.6,123 F,0,66758,,0,1 S,0,66758,,0.16 P,0,66758,,A F,0,70131,70451,1,0
Sprite,Foreground,Centre,"storyboard\Partyu-nukamiso\97-glow.png",406.4,123 F,0,65318,,0 P,0,66838,,A F,1,66838,67479,1,0 S,1,66838,67479,0.16,0.24
Sprite,Foreground,Centre,"storyboard\Partyu-nukamiso\97.png",406.4,123 F,0,66838,,0,1 S,0,66838,,0.16 P,0,66838,,A F,0,70131,70451,1,0
Sprite,Foreground,Centre,"storyboard\Partyu-nukamiso\110-glow.png",420.8,123 F,0,65318,,0 P,0,66878,,A F,1,66878,67519,1,0 S,1,66878,67519,0.16,0.24
Sprite,Foreground,Centre,"storyboard\Partyu-nukamiso\110.png",420.8,123 F,0,66878,,0,1 S,0,66878,,0.16 P,0,66878,,A F,0,70131,70451,1,0
Sprite,Foreground,Centre,"storyboard\Partyu-nukamiso\100-glow.png",435.2,123 F,0,65318,,0 P,0,66918,,A F,1,66918,67559,1,0 S,1,66918,67559,0.16,0.24
Sprite,Foreground,Centre,"storyboard\Partyu-nukamiso\100.png",435.2,123 F,0,66918,,0,1 S,0,66918,,0.16 P,0,66918,,A F,0,70131,70451,1,0
Sprite,Foreground,Centre,"storyboard\Partyu-nukamiso\80-glow.png",464,123 F,0,65318,,0 P,0,66998,,A F,1,66998,67639,1,0 S,1,66998,67639,0.16,0.24
Sprite,Foreground,Centre,"storyboard\Partyu-nukamiso\80.png",464,123 F,0,66998,,0,1 S,0,66998,,0.16 P,0,66998,,A F,0,70131,70451,1,0
Sprite,Foreground,Centre,"storyboard\Partyu-nukamiso\97-glow.png",478.4,123 F,0,65318,,0 P,0,67038,,A F,1,67038,67679,1,0 S,1,67038,67679,0.16,0.24
Sprite,Foreground,Centre,"storyboard\Partyu-nukamiso\97.png",478.4,123 F,0,67038,,0,1 S,0,67038,,0.16 P,0,67038,,A F,0,70131,70451,1,0
Sprite,Foreground,Centre,"storyboard\Partyu-nukamiso\114-glow.png",492.8,123 F,0,65318,,0 P,0,67078,,A F,1,67078,67719,1,0 S,1,67078,67719,0.16,0.24
Sprite,Foreground,Centre,"storyboard\Partyu-nukamiso\114.png",492.8,123 F,0,67078,,0,1 S,0,67078,,0.16 P,0,67078,,A F,0,70131,70451,1,0
Sprite,Foreground,Centre,"storyboard\Partyu-nukamiso\116-glow.png",507.2,123 F,0,65318,,0 P,0,67118,,A F,1,67118,67759,1,0 S,1,67118,67759,0.16,0.24
Sprite,Foreground,Centre,"storyboard\Partyu-nukamiso\116.png",507.2,123 F,0,67118,,0,1 S,0,67118,,0.16 P,0,67118,,A F,0,70131,70451,1,0
Sprite,Foreground,Centre,"storyboard\Partyu-nukamiso\121-glow.png",521.6,123 F,0,65318,,0 P,0,67158,,A F,1,67158,67799,1,0 S,1,67158,67799,0.16,0.24
Sprite,Foreground,Centre,"storyboard\Partyu-nukamiso\121.png",521.6,123 F,0,67158,,0,1 S,0,67158,,0.16 P,0,67158,,A F,0,70131,70451,1,0
Sprite,Foreground,Centre,"storyboard\Partyu-nukamiso\117-glow.png",536,123 F,0,65318,,0 P,0,67198,,A F,1,67198,67839,1,0 S,1,67198,67839,0.16,0.24
Sprite,Foreground,Centre,"storyboard\Partyu-nukamiso\117.png",536,123 F,0,67198,,0,1 S,0,67198,,0.16 P,0,67198,,A F,0,70131,70451,1,0
//Storyboard Layer 4 (Overlay)
//Storyboard Sound Samples

[TimingPoints]
1147,320.855614973262,4,2,1,50,1,0
3713,-100,4,2,1,50,0,0
3874,-200,4,2,1,50,0,0
6280,-100,4,2,1,50,0,0
6441,-200,4,2,1,50,0,0
8847,-100,4,2,1,50,0,0
9007,-200,4,2,1,50,0,0
11414,-100,4,2,1,50,0,0
11574,-200,4,2,1,50,0,0
13339,-133.333333333333,4,2,1,50,0,0
13981,-100,4,2,1,50,0,0
14141,-200,4,2,1,50,0,0
16548,-100,4,2,1,50,0,0
16708,-200,4,2,1,50,0,0
19114,-100,4,2,1,50,0,0
19275,-200,4,2,1,50,0,0
21681,-100,4,2,1,50,0,0
21842,-200,4,2,1,50,0,0
24248,-133.333333333333,4,2,1,50,0,0
34195,-133.333333333333,4,2,1,30,0,0
34515,-111.111111111111,4,2,1,40,0,0
42858,-111.111111111111,4,2,1,30,0,0
44141,-222.222222222222,4,2,1,30,0,0
44783,-83.3333333333333,4,2,1,70,0,1
54409,-83.3333333333333,4,2,1,70,0,0
55050,-83.3333333333333,4,2,1,70,0,1
63392,-83.3333333333333,4,2,1,50,0,1
64034,-83.3333333333333,4,2,1,70,0,0
65318,-83.3333333333333,4,2,1,70,0,0
73018,-83.3333333333333,4,2,2,70,0,0
73339,-83.3333333333333,4,2,1,70,0,0
75585,-83.3333333333333,4,2,1,70,0,1
75665,-83.3333333333333,4,2,1,70,0,0
84248,-83.3333333333333,4,2,1,50,0,0
85211,-222.222222222222,4,2,1,50,0,0
85852,-100,4,2,1,40,0,0
86013,-200,4,2,1,40,0,0
88419,-100,4,2,1,40,0,0
88580,-200,4,2,1,40,0,0
90986,-100,4,2,1,40,0,0
91146,-200,4,2,1,40,0,0
94515,-111.111111111111,4,2,1,40,0,0
96120,-100,4,2,1,70,0,0
96360,-100,4,2,1,5,0,0
96441,-100,4,2,1,70,0,0
104462,-100,4,2,1,50,0,0
105745,-125,4,2,1,50,0,0
106387,-333.333333333333,4,2,1,40,0,0
108633,-333.333333333333,4,2,1,30,0,0

[Colours]
Combo1 : 255,230,151
Combo2 : 0,255,255
Combo3 : 149,202,255
Combo4 : 255,191,232

[HitObjects]
131,47,3713,6,0,L|125:87,1,41.25,8|0,0:3|0:0,0:0:0:0:
56,123,3874,2,0,L|194:142,1,123.75,8|8,0:3|0:0,0:0:0:0:
178,139,4676,1,0,0:0:0:0:
219,212,4836,1,0,0:0:0:0:
260,285,4997,6,0,L|360:273,1,82.5
418,232,5478,2,0,L|457:242,1,41.25
480,325,5799,2,0,B|442:345|442:345|404:331,1,82.5,8|0,0:3|0:0,0:0:0:0:
418,232,6280,6,0,L|413:173,1,41.25,8|0,0:3|0:0,0:0:0:0:
483,154,6441,2,0,L|360:135,1,123.75,8|8,0:3|0:0,0:0:0:0:
360,135,7243,1,0,0:0:0:0:
284,62,7403,1,0,0:0:0:0:
284,70,7483,1,0,0:0:0:0:
285,80,7564,6,0,L|287:114,3,20.625
209,85,7884,2,0,L|211:119,3,20.625
166,170,8205,1,0,0:0:0:0:
121,234,8366,2,0,L|39:224,1,82.5
125,319,8847,6,0,L|165:314,1,41.25,8|0,0:3|0:0,0:0:0:0:
200,247,9007,2,0,L|216:369,1,123.75,8|8,0:3|0:0,0:0:0:0:
297,371,9649,2,0,L|288:313,1,41.25
346,274,9970,6,0,B|433:287,1,82.5
483,231,10451,1,0,0:0:0:0:
442,79,10772,1,0,0:0:0:0:
365,97,10933,2,0,L|376:178,1,82.5,8|0,0:3|0:0,0:0:0:0:
346,274,11414,6,0,L|296:268,1,41.25,8|0,0:3|0:0,0:0:0:0:
271,339,11574,2,0,L|252:216,1,123.75,8|8,0:3|0:0,0:0:0:0:
203,155,12216,2,0,L|211:98,1,41.25
253,35,12537,1,0,0:0:0:0:
253,35,12617,1,0,0:0:0:0:
253,35,12697,2,0,L|221:39,3,20.625
159,53,13018,2,0,L|127:57,3,20.625
69,97,13339,6,0,P|56:126|79:174,1,61.875002360344,8|0,0:0|0:0,0:0:0:0:
56,165,13580,2,0,P|70:190|98:203,1,61.875002360344,8|0,0:0|0:0,0:0:0:0:
113,205,13820,1,8,0:0:0:0:
197,187,13981,6,0,L|190:242,1,41.25,8|0,0:3|0:0,0:0:0:0:
135,282,14141,2,0,L|258:270,1,123.75,8|8,0:3|0:0,0:0:0:0:
258,269,14943,1,0,0:0:0:0:
287,195,15104,1,0,0:0:0:0:
316,121,15264,6,0,L|413:132,1,82.5
465,169,15745,2,0,P|470:194|458:223,1,41.25
430,278,16066,2,0,L|330:288,1,82.5,8|0,0:3|0:0,0:0:0:0:
240,295,16548,6,0,L|245:341,1,41.25,8|0,0:3|0:0,0:0:0:0:
301,383,16708,2,0,L|178:367,1,123.75,8|8,0:3|0:0,0:0:0:0:
125,308,17350,2,0,L|71:318,1,41.25
31,261,17671,1,0,0:0:0:0:
25,255,17751,1,0,0:0:0:0:
21,248,17831,6,0,L|23:219,3,20.625
88,187,18152,2,0,L|89:166,3,20.625
61,88,18473,1,8,0:0:0:0:
71,89,18553,1,8,0:0:0:0:
81,89,18633,1,8,0:3:0:0:
91,90,18713,1,8,0:3:0:0:
99,92,18794,2,0,L|119:93,1,20.625,8|0,0:0|0:0,0:0:0:0:
186,163,18954,2,0,L|180:139,1,20.625,8|0,0:0|0:0,0:0:0:0:
196,68,19114,6,0,L|248:73,1,41.25,8|0,0:3|0:0,0:0:0:0:
270,4,19275,2,0,L|292:130,1,123.75,8|8,0:3|0:0,0:0:0:0:
344,183,19917,2,0,L|336:223,1,41.25
267,289,20237,6,0,L|249:190,1,82.5
178,178,20719,1,0,0:0:0:0:
75,296,21040,1,8,0:3:0:0:
124,356,21200,2,0,L|223:346,1,82.5,8|0,0:3|0:0,0:0:0:0:
267,289,21681,6,0,L|314:298,1,41.25,8|0,0:3|0:0,0:0:0:0:
349,368,21842,2,0,L|331:287,1,82.5,8|8,0:3|0:0,0:0:0:0:
356,218,22243,1,0,0:0:0:0:
367,219,22323,1,0,0:0:0:0:
446,228,22483,1,8,0:3:0:0:
447,219,22564,1,8,0:3:0:0:
447,212,22644,2,0,L|449:178,1,20.625,8|8,0:0|0:0,0:0:0:0:
404,126,22804,2,0,L|375:107,1,20.625,8|8,0:0|0:0,0:0:0:0:
481,121,22965,2,0,L|511:105,1,20.625,4|0,0:0|0:0,0:0:0:0:
499,111,24248,6,0,B|452:105|452:105|425:124|425:124|382:118,1,123.750004720688,12|0,0:3|0:0,0:0:0:0:
302,103,24729,1,0,0:0:0:0:
258,171,24890,2,0,L|246:47,1,123.750004720688
176,88,25371,1,0,0:0:0:0:
170,91,25451,1,0,0:0:0:0:
164,94,25532,6,0,L|86:83,1,61.875002360344
90,164,25852,2,0,L|151:172,1,61.875002360344
157,181,26093,1,0,0:0:0:0:
163,189,26173,2,0,L|21:167,1,123.750004720688
14,298,26655,1,8,0:3:0:0:
93,285,26815,6,0,L|159:276,1,61.875002360344,8|0,0:3|0:0,0:0:0:0:
158,270,27056,1,0,0:0:0:0:
162,264,27136,2,0,L|230:255,1,61.875002360344
308,297,27457,1,0,0:0:0:0:
296,217,27617,1,0,0:0:0:0:
284,137,27778,1,0,0:0:0:0:
370,77,27938,1,0,0:0:0:0:
368,84,28018,1,0,0:0:0:0:
367,91,28098,6,0,L|359:157,1,61.875002360344
446,98,28419,2,0,L|438:159,1,61.875002360344
442,166,28660,1,0,0:0:0:0:
445,173,28740,2,0,L|438:234,1,61.875002360344
460,315,29061,2,0,L|398:307,1,61.875002360344
328,347,29382,6,0,B|205:329,1,123.750004720688,12|0,0:3|0:0,0:0:0:0:
85,308,29863,2,0,L|91:370,1,61.875002360344
156,268,30184,1,0,0:0:0:0:
107,204,30344,2,0,L|45:210,1,61.875002360344
47,201,30585,1,0,0:0:0:0:
49,193,30665,6,0,L|110:188,1,61.875002360344
178,145,30986,1,0,0:0:0:0:
163,66,31146,1,0,0:0:0:0:
161,58,31226,1,0,0:0:0:0:
159,50,31307,1,0,0:0:0:0:
233,20,31467,2,0,L|294:24,1,61.875002360344
390,83,31788,1,8,0:3:0:0:
442,21,31949,6,0,B|438:71|438:71|450:90|450:90|444:140,1,123.750004720688,8|0,0:3|0:0,0:0:0:0:
390,200,32430,1,0,0:0:0:0:
467,264,32590,1,0,0:0:0:0:
467,264,32751,1,0,0:0:0:0:
427,333,32911,2,0,L|350:319,1,61.875002360344
358,326,33152,1,0,0:0:0:0:
349,330,33232,6,0,L|223:311,1,123.750004720688
152,342,33713,1,0,0:0:0:0:
145,346,33794,1,0,0:0:0:0:
138,350,33874,5,2,0:0:0:0:
139,334,33954,1,2,0:0:0:0:
141,319,34034,1,2,0:0:0:0:
143,303,34114,1,2,0:0:0:0:
120,262,34195,5,2,0:0:0:0:
121,254,34275,1,2,0:0:0:0:
122,246,34355,1,2,0:0:0:0:
123,238,34435,1,2,0:0:0:0:
95,197,34515,6,0,B|127:177|164:197|164:197|201:217|236:199,1,148.49999546814,12|8,0:3|0:3,0:0:0:0:
342,128,34997,1,0,0:0:0:0:
418,157,35157,2,0,L|413:251,1,74.2499977340699,8|0,0:3|0:0,0:0:0:0:
459,299,35478,1,8,0:3:0:0:
459,299,35638,1,0,0:0:0:0:
364,359,35799,6,0,P|328:359|297:337,1,74.2499977340699,8|0,0:3|0:0,0:0:0:0:
219,366,36120,2,0,P|202:333|207:296,1,74.2499977340699,8|0,0:3|0:0,0:0:0:0:
145,240,36441,2,0,P|165:210|201:197,1,74.2499977340699,8|0,0:3|0:0,0:0:0:0:
301,250,36761,1,8,0:3:0:0:
216,278,36922,1,0,0:0:0:0:
266,150,37082,6,0,L|413:169,1,148.49999546814,8|8,0:3|0:3,0:0:0:0:
471,110,37564,1,0,0:0:0:0:
426,42,37724,1,8,0:3:0:0:
426,42,37884,1,0,0:0:0:0:
307,55,38045,2,0,L|217:65,1,74.2499977340699,8|0,0:3|0:0,0:0:0:0:
227,71,38286,1,0,0:0:0:0:
220,79,38366,6,0,P|186:90|149:86,1,74.2499977340699,8|0,0:3|0:0,0:0:0:0:
27,23,38687,2,0,P|54:47|68:81,1,74.2499977340699,8|0,0:3|0:0,0:0:0:0:
105,156,39008,2,0,L|99:230,1,74.2499977340699,8|0,0:3|0:0,0:0:0:0:
64,353,39328,2,0,L|140:346,1,74.2499977340699,8|0,0:3|0:0,0:0:0:0:
20,278,39649,6,0,L|181:264,1,148.49999546814,12|8,0:3|0:3,0:0:0:0:
241,301,40130,1,0,0:0:0:0:
246,296,40211,1,0,0:0:0:0:
251,291,40291,2,0,B|257:238|257:238|232:207|232:207|238:151,1,148.49999546814,8|8,0:3|0:3,0:0:0:0:
176,40,40772,1,0,0:0:0:0:
251,72,40933,6,0,L|337:65,1,74.2499977340699,8|0,0:3|0:0,0:0:0:0:
385,120,41253,2,0,L|471:113,1,74.2499977340699,8|0,0:3|0:0,0:0:0:0:
502,183,41574,2,0,P|505:226|471:264,1,74.2499977340699,8|0,0:3|0:0,0:0:0:0:
493,333,41895,2,0,P|456:355|406:343,1,74.2499977340699,8|0,0:3|0:0,0:0:0:0:
419,348,42136,1,0,0:0:0:0:
412,342,42216,5,8,0:3:0:0:
352,286,42376,1,2,0:0:0:0:
352,286,42457,1,2,0:0:0:0:
352,286,42537,1,10,0:3:0:0:
333,287,42617,1,2,0:0:0:0:
314,289,42697,1,2,0:0:0:0:
296,290,42777,1,2,0:0:0:0:
277,292,42857,1,10,0:3:0:0:
259,293,42938,1,2,0:0:0:0:
240,295,43018,1,2,0:0:0:0:
222,296,43098,1,2,0:0:0:0:
203,298,43179,6,0,L|160:303,1,37.1249988670349,10|2,0:3|0:0,0:0:0:0:
122,370,43339,2,0,L|78:365,1,37.1249988670349,2|2,0:0|0:0,0:0:0:0:
24,310,43499,1,14,0:3:0:0:
24,310,44141,6,0,P|58:289|65:241,1,74.2499977340699
17,188,44783,6,0,P|50:222|98:229,1,98.9999969787599,12|0,0:3|0:0,0:0:0:0:
186,94,45104,1,8,0:1:0:0:
294,160,45264,2,0,L|392:147,1,98.9999969787599,0|8,0:0|0:3,0:0:0:0:
498,30,45585,2,0,L|399:17,1,98.9999969787599,8|8,0:3|0:1,0:0:0:0:
450,204,45906,6,0,P|475:161|466:113,1,98.9999969787599,8|0,0:3|0:0,0:0:0:0:
313,43,46227,1,8,0:3:0:0:
313,43,46387,2,0,B|243:35|243:35|202:63|202:63|124:52,1,197.99999395752,8|8,0:1|0:3,0:0:0:0:
20,24,46868,1,8,0:3:0:0:
47,156,47029,2,0,L|147:146,1,98.9999969787599,8|0,0:1|0:0,0:0:0:0:
292,237,47350,6,0,P|301:286|278:331,1,98.9999969787599,8|0,0:3|0:0,0:0:0:0:
128,376,47671,1,8,0:1:0:0:
128,376,47831,1,0,0:0:0:0:
219,273,47991,1,8,0:3:0:0:
349,373,48152,2,0,L|451:364,1,98.9999969787599,8|8,0:3|0:1,0:0:0:0:
465,197,48473,6,0,L|362:205,1,98.9999969787599,8|0,0:3|0:0,0:0:0:0:
404,121,48794,1,8,0:3:0:0:
404,121,48954,2,0,L|306:128,1,98.9999969787599,8|0,0:1|0:0,0:0:0:0:
298,123,49195,1,0,0:0:0:0:
290,117,49275,1,8,0:3:0:0:
167,195,49435,1,8,0:3:0:0:
145,108,49595,1,8,0:1:0:0:
221,60,49756,1,8,0:3:0:0:
256,200,49917,6,0,B|186:193|186:193|140:220|140:220|64:210,1,197.99999395752,12|8,0:3|0:1,0:0:0:0:
9,279,50398,1,0,0:0:0:0:
10,290,50478,1,0,0:0:0:0:
11,301,50558,1,8,0:3:0:0:
128,384,50719,1,8,0:3:0:0:
111,297,50879,1,8,0:1:0:0:
23,384,51040,6,0,L|51:188,1,197.99999395752,8|8,0:3|0:3,0:0:0:0:
35,19,51521,2,0,P|37:67|73:101,1,98.9999969787599,8|0,0:1|0:0,0:0:0:0:
82,106,51761,1,0,0:0:0:0:
91,110,51842,2,0,L|189:97,1,98.9999969787599,8|8,0:3|0:3,0:0:0:0:
307,189,52163,2,0,L|209:177,1,98.9999969787599,8|0,0:1|0:0,0:0:0:0:
359,68,52483,6,0,B|340:215,1,148.49999546814,8|0,0:3|0:0,0:0:0:0:
348,224,52804,1,8,0:1:0:0:
438,105,52965,2,0,L|442:203,1,98.9999969787599,0|8,0:0|0:3,0:0:0:0:
485,339,53286,2,0,P|460:296|415:278,1,98.9999969787599,8|8,0:3|0:1,0:0:0:0:
296,346,53606,6,0,B|250:374|203:347|203:347|153:317|108:344,1,197.99999395752,8|8,0:3|0:3,0:0:0:0:
85,211,54088,2,0,P|45:239|29:285,1,98.9999969787599,8|0,0:1|0:0,0:0:0:0:
164,240,54409,1,10,0:3:0:0:
165,227,54489,1,2,0:0:0:0:
167,215,54569,1,2,0:0:0:0:
168,203,54649,1,2,0:0:0:0:
169,190,54729,1,10,0:1:0:0:
171,178,54809,1,2,0:0:0:0:
172,166,54889,1,2,0:0:0:0:
173,154,54970,1,2,0:0:0:0:
174,142,55050,6,0,L|184:40,1,98.9999969787599,14|0,0:3|0:0,0:0:0:0:
326,0,55371,1,8,0:1:0:0:
390,101,55532,2,0,L|379:199,1,98.9999969787599,0|8,0:0|0:3,0:0:0:0:
263,316,55852,2,0,L|273:217,1,98.9999969787599,8|8,0:3|0:1,0:0:0:0:
437,255,56173,6,0,P|396:280|348:273,1,98.9999969787599,8|0,0:3|0:0,0:0:0:0:
265,136,56494,1,8,0:3:0:0:
265,136,56655,2,0,L|40:155,1,197.99999395752,8|8,0:1|0:3,0:0:0:0:
23,248,57136,1,8,0:3:0:0:
151,275,57296,2,0,P|168:230|155:182,1,98.9999969787599,8|0,0:1|0:0,0:0:0:0:
89,334,57617,6,0,P|130:359|179:354,1,98.9999969787599,8|0,0:3|0:0,0:0:0:0:
262,233,57938,1,8,0:1:0:0:
339,269,58098,2,0,L|328:380,1,98.9999969787599,0|8,0:0|0:3,0:0:0:0:
449,262,58419,2,0,L|439:163,1,98.9999969787599,8|8,0:3|0:1,0:0:0:0:
510,319,58740,6,0,P|468:344|419:339,1,98.9999969787599,8|0,0:3|0:0,0:0:0:0:
262,233,59061,1,8,0:3:0:0:
262,233,59221,2,0,L|136:242,1,98.9999969787599,8|0,0:1|0:0,0:0:0:0:
156,247,59462,1,0,0:0:0:0:
149,254,59542,1,8,0:3:0:0:
66,200,59703,1,8,0:3:0:0:
74,355,59863,2,0,L|57:207,1,148.49999546814,8|0,0:1|0:0,0:0:0:0:
111,143,60184,6,0,B|156:115|205:143|205:143|256:171|303:147,1,197.99999395752,12|8,0:3|0:1,0:0:0:0:
307,12,60665,2,0,P|265:35|258:82,1,98.9999969787599,0|8,0:0|0:3,0:0:0:0:
369,193,60986,1,8,0:3:0:0:
418,119,61146,1,8,0:1:0:0:
473,250,61307,6,0,B|276:236,1,197.99999395752,12|8,0:3|0:3,0:0:0:0:
173,135,61788,2,0,L|183:233,1,98.9999969787599,8|0,0:1|0:0,0:0:0:0:
260,313,62109,1,8,0:3:0:0:
153,343,62269,2,0,L|176:108,1,197.99999395752,8|8,0:3|0:3,0:0:0:0:
120,72,62751,5,12,0:3:0:0:
190,17,62911,1,2,0:0:0:0:
190,17,62991,1,2,0:0:0:0:
190,17,63072,1,10,0:1:0:0:
214,20,63152,1,2,0:0:0:0:
239,23,63232,1,2,0:0:0:0:
263,26,63312,1,2,0:0:0:0:
288,29,63392,1,10,0:3:0:0:
312,32,63473,1,2,0:0:0:0:
337,35,63553,1,10,0:3:0:0:
361,38,63633,1,2,0:0:0:0:
386,41,63713,2,0,L|391:118,1,49.4999984893799,10|2,0:1|0:0,0:0:0:0:
464,10,63874,2,0,L|467:59,1,49.4999984893799,10|2,0:3|0:0,0:0:0:0:
457,144,64034,5,6,0:0:0:0:
457,144,65318,6,0,B|284:124,1,148.49999546814,12|0,0:3|0:0,0:0:0:0:
236,163,65638,2,0,P|219:208|235:255,1,98.9999969787599,8|0,0:1|0:0,0:0:0:0:
367,311,65959,1,10,0:3:0:0:
346,323,66039,1,2,0:0:0:0:
321,328,66119,1,10,0:3:0:0:
297,324,66199,1,2,0:0:0:0:
276,312,66279,1,10,0:1:0:0:
254,299,66360,1,2,0:0:0:0:
230,295,66440,1,10,0:3:0:0:
205,301,66520,1,2,0:0:0:0:
185,314,66600,5,2,0:0:0:0:
115,370,66761,1,8,0:3:0:0:
139,237,66922,2,0,L|158:93,1,98.9999969787599,8|0,0:1|0:0,0:0:0:0:
94,70,67243,1,8,0:3:0:0:
74,163,67403,1,8,0:3:0:0:
161,133,67564,1,8,0:1:0:0:
15,91,67724,1,0,0:0:0:0:
16,98,67805,1,0,0:0:0:0:
17,105,67884,6,0,L|36:326,1,197.99999395752,8|10,0:3|0:1,0:0:0:0:
97,365,68366,1,2,0:0:0:0:
104,364,68446,1,2,0:0:0:0:
111,363,68526,1,10,0:3:0:0:
172,297,68687,1,10,0:3:0:0:
106,236,68847,1,8,0:1:0:0:
195,380,69007,6,0,L|214:182,1,197.99999395752,8|8,0:3|0:3,0:0:0:0:
219,177,69409,1,0,0:0:0:0:
223,171,69489,1,8,0:1:0:0:
305,137,69649,1,0,0:0:0:0:
147,76,69810,2,0,L|245:66,1,98.9999969787599,8|10,0:3|0:3,0:0:0:0:
253,66,70050,1,2,0:0:0:0:
261,66,70130,1,10,0:1:0:0:
349,51,70291,1,8,0:3:0:0:
459,123,70451,6,0,B|449:199|449:199|473:238|473:238|462:312,1,197.99999395752,12|8,0:3|0:1,0:0:0:0:
384,357,70933,1,2,0:0:0:0:
384,357,71013,1,2,0:0:0:0:
384,357,71093,1,10,0:3:0:0:
359,355,71173,1,2,0:0:0:0:
335,352,71253,1,10,0:3:0:0:
310,349,71333,1,2,0:0:0:0:
286,346,71413,1,10,0:1:0:0:
260,342,71494,1,2,0:0:0:0:
235,339,71574,1,10,0:3:0:0:
211,336,71654,1,2,0:0:0:0:
186,333,71735,5,2,0:0:0:0:
127,265,71895,1,8,0:3:0:0:
127,265,71975,1,0,0:0:0:0:
127,265,72056,1,8,0:1:0:0:
98,351,72216,1,0,0:0:0:0:
98,351,72296,1,0,0:0:0:0:
98,351,72377,1,0,0:0:0:0:
40,234,72537,5,8,0:3:0:0:
134,247,72697,1,8,0:1:0:0:
228,260,72858,1,8,0:3:0:0:
290,165,73018,6,0,L|192:177,1,98.9999969787599,10|0,0:3|0:0,0:0:0:0:
322,273,73339,1,8,0:1:0:0:
322,273,73499,1,0,0:0:0:0:
186,348,73660,1,8,0:3:0:0:
228,260,73820,1,8,0:3:0:0:
275,361,73981,1,10,0:1:0:0:
281,360,74061,1,2,0:0:0:0:
287,360,74141,1,10,0:3:0:0:
293,360,74221,1,2,0:0:0:0:
299,359,74302,6,0,L|313:232,1,98.9999969787599,14|10,0:3|0:3,0:0:0:0:
319,242,74542,1,2,0:0:0:0:
334,227,74622,1,10,0:1:0:0:
353,217,74702,1,2,0:0:0:0:
374,212,74782,1,2,0:0:0:0:
395,214,74863,1,2,0:0:0:0:
414,223,74943,6,0,P|425:244|425:269,1,49.4999984893799,10|10,0:3|0:3,0:0:0:0:
429,142,75104,2,0,P|453:137|476:145,1,49.4999984893799,10|2,0:1|0:0,0:0:0:0:
358,101,75264,2,0,P|361:76|376:56,1,49.4999984893799,10|2,0:3|0:0,0:0:0:0:
297,157,75425,2,0,P|275:146|260:126,1,49.4999984893799,10|2,0:3|0:0,0:0:0:0:
330,231,75585,6,0,P|298:269|248:280,1,98.9999969787599,12|2,0:3|0:0,0:0:0:0:
239,282,75826,1,2,0:0:0:0:
227,284,75906,1,10,0:1:0:0:
214,285,75986,1,2,0:0:0:0:
202,286,76066,1,2,0:0:0:0:
190,288,76146,1,2,0:0:0:0:
178,289,76227,6,0,L|170:358,1,49.4999984893799,10|2,0:3|0:0,0:0:0:0:
102,259,76387,2,0,L|93:324,1,49.4999984893799,10|2,0:3|0:0,0:0:0:0:
22,363,76548,2,0,L|15:313,1,49.4999984893799,10|2,0:1|0:0,0:0:0:0:
23,207,76708,6,0,P|42:192|55:171,3,49.4999984893799,10|2|2|2,0:3|0:0|0:0|0:0,0:0:0:0:
56,45,77029,2,0,P|60:69|70:91,1,49.4999984893799,10|2,0:3|0:0,0:0:0:0:
140,145,77189,1,10,0:1:0:0:
150,144,77269,1,2,0:0:0:0:
162,143,77349,1,2,0:0:0:0:
173,142,77429,1,2,0:0:0:0:
185,142,77509,1,2,0:0:0:0:
196,141,77590,1,2,0:0:0:0:
208,140,77671,6,0,L|214:86,1,49.4999984893799,10|2,0:3|0:0,0:0:0:0:
286,168,77831,2,0,L|279:235,1,49.4999984893799,10|2,0:1|0:0,0:0:0:0:
360,127,77991,1,2,0:0:0:0:
361,120,78072,1,2,0:0:0:0:
363,113,78152,6,0,B|410:101|410:101|453:126,1,98.9999969787599,14|2,0:3|0:0,0:0:0:0:
454,136,78392,1,2,0:0:0:0:
455,144,78472,1,10,0:1:0:0:
455,152,78552,1,2,0:0:0:0:
456,160,78632,1,2,0:0:0:0:
456,169,78713,1,2,0:0:0:0:
457,177,78794,6,0,L|463:248,1,49.4999984893799,10|0,0:3|0:0,0:0:0:0:
492,327,78954,2,0,L|447:305,1,49.4999984893799,8|0,0:3|0:0,0:0:0:0:
344,282,79114,2,0,L|384:253,1,49.4999984893799,8|0,0:1|0:0,0:0:0:0:
305,361,79275,6,0,B|296:184,1,148.49999546814,8|0,0:3|0:0,0:0:0:0:
307,206,79596,2,0,P|263:186|216:196,1,98.9999969787599,8|8,0:3|0:1,0:0:0:0:
152,260,79917,1,0,0:0:0:0:
143,259,79997,1,0,0:0:0:0:
134,258,80077,1,8,0:3:0:0:
83,184,80237,1,8,0:3:0:0:
225,116,80398,1,8,0:1:0:0:
152,20,80558,1,0,0:0:0:0:
145,26,80638,1,0,0:0:0:0:
139,32,80719,6,0,L|148:173,1,98.9999969787599,12|2,0:3|0:0,0:0:0:0:
152,137,80959,1,2,0:0:0:0:
158,145,81040,2,0,L|162:194,1,49.4999984893799,10|2,0:1|0:0,0:0:0:0:
215,250,81200,2,0,L|211:300,1,49.4999984893799,2|2,0:0|0:0,0:0:0:0:
258,186,81360,2,0,P|304:169|352:179,1,98.9999969787599,10|8,0:3|0:3,0:0:0:0:
358,186,81601,1,0,0:0:0:0:
363,194,81681,1,8,0:1:0:0:
384,282,81842,1,8,0:3:0:0:
384,291,81922,1,0,0:0:0:0:
383,299,82002,5,0,0:0:0:0:
285,355,82163,1,8,0:3:0:0:
306,250,82323,1,8,0:1:0:0:
462,282,82483,1,0,0:0:0:0:
461,274,82563,1,0,0:3:0:0:
461,265,82644,2,0,L|456:214,1,49.4999984893799
487,140,82804,2,0,L|482:90,1,49.4999984893799,8|0,0:3|0:0,0:0:0:0:
422,33,82965,1,10,0:1:0:0:
415,33,83045,1,2,0:0:0:0:
409,34,83125,1,2,0:0:0:0:
403,35,83205,1,2,0:0:0:0:
397,36,83286,6,0,B|334:47|334:47|284:26|284:26|205:35,1,197.99999395752,14|8,0:3|0:1,0:0:0:0:
136,76,83767,1,2,0:0:0:0:
137,94,83847,1,2,0:0:0:0:
139,112,83927,1,10,0:3:0:0:
141,131,84007,1,2,0:0:0:0:
143,149,84087,1,10,0:3:0:0:
145,168,84168,1,2,0:0:0:0:
147,186,84248,2,0,L|153:235,1,49.4999984893799,10|2,0:1|0:0,0:0:0:0:
233,246,84409,2,0,L|227:295,1,49.4999984893799,10|2,0:3|0:0,0:0:0:0:
170,354,84569,5,14,0:3:0:0:
170,354,85211,6,0,L|87:344,1,74.2499977340699
27,206,85852,6,0,L|91:197,1,41.25,8|0,0:3|0:0,0:0:0:0:
106,266,86013,2,0,L|123:142,1,123.75,8|2,0:3|0:0,0:0:0:0:
88,72,86655,1,0,0:0:0:0:
88,72,86815,1,0,0:0:0:0:
149,23,86975,6,0,L|191:30,1,41.25,2|0,0:0|0:0,0:0:0:0:
246,84,87296,2,0,L|337:72,1,82.5
440,11,87778,1,0,0:0:0:0:
480,77,87938,1,8,0:3:0:0:
430,137,88098,2,0,L|389:129,1,41.25
309,191,88419,6,0,L|323:245,1,41.25,8|0,0:3|0:0,0:0:0:0:
251,269,88580,2,0,L|373:288,1,123.75,8|8,0:3|0:0,0:0:0:0:
337,357,89221,2,0,L|290:349,1,41.25
218,338,89542,1,0,0:0:0:0:
212,343,89622,1,0,0:0:0:0:
206,348,89703,6,0,L|181:344,3,20.625
111,359,90024,2,0,L|86:355,3,20.625
34,305,90344,1,8,0:0:0:0:
89,249,90505,2,0,L|103:151,1,82.5,8|0,0:3|0:0,0:0:0:0:
216,153,90986,6,0,L|221:113,1,41.25,8|0,0:3|0:0,0:0:0:0:
278,63,91147,2,0,L|154:75,1,123.75,8|8,0:3|0:0,0:0:0:0:
154,75,91949,1,0,0:0:0:0:
88,2,92109,6,0,L|76:84,1,82.5,2|0,0:0|0:0,0:0:0:0:
28,146,92590,2,0,L|37:202,1,41.25
129,247,92911,1,8,0:3:0:0:
35,318,93072,2,0,L|116:329,1,82.5,8|0,0:3|0:0,0:0:0:0:
194,343,93553,5,12,0:3:0:0:
194,343,94515,6,0,L|203:305,1,37.1249988670349
161,238,94675,1,12,0:3:0:0:
161,238,94997,5,8,0:3:0:0:
283,307,95157,2,0,P|319:312|352:296,1,74.2499977340699,8|0,0:1|0:0,0:0:0:0:
393,232,95398,1,0,0:0:0:0:
395,223,95478,2,0,L|401:165,3,37.1249988670349,10|2|10|2,0:3|0:0|0:3|0:0,0:0:0:0:
356,122,95799,2,0,L|362:64,3,37.1249988670349,10|2|2|2,0:1|0:0|0:0|0:0,0:0:0:0:
420,40,96120,6,0,L|280:48,1,123.75,14|0,0:3|0:0,0:0:0:0:
290,56,96441,2,0,L|188:62,1,82.5,8|0,0:1|0:0,0:0:0:0:
84,18,96761,1,8,0:3:0:0:
23,73,96922,2,0,L|32:156,1,82.5,0|8,0:0|0:1,0:0:0:0:
89,260,97243,6,0,P|109:223|108:182,1,82.5,0|8,0:0|0:3,0:0:0:0:
88,342,97564,2,0,P|129:333|159:307,1,82.5,0|8,0:0|0:1,0:0:0:0:
189,230,97884,1,0,0:0:0:0:
198,231,97964,1,0,0:0:0:0:
207,231,98045,1,8,0:3:0:0:
266,288,98205,1,0,0:0:0:0:
356,195,98366,2,0,L|348:277,1,82.5,8|0,0:1|0:0,0:0:0:0:
423,354,98687,6,0,L|433:246,1,82.5,12|0,0:3|0:0,0:0:0:0:
481,207,99007,1,8,0:1:0:0:
413,105,99168,2,0,L|329:113,1,82.5,0|8,0:0|0:3,0:0:0:0:
238,206,99489,2,0,P|197:206|163:184,1,82.5,0|8,0:0|0:1,0:0:0:0:
209,48,99810,6,0,L|218:137,1,82.5,0|8,0:0|0:3,0:0:0:0:
128,32,100130,2,0,L|143:196,1,165
68,343,100612,1,8,0:3:0:0:
34,264,100772,1,8,0:3:0:0:
115,275,100933,2,0,L|217:290,1,82.5,8|0,0:1|0:0,0:0:0:0:
319,350,101253,6,0,L|309:267,1,82.5,12|0,0:3|0:0,0:0:0:0:
239,214,101574,1,8,0:1:0:0:
295,106,101735,2,0,P|335:101|372:118,1,82.5,0|8,0:0|0:3,0:0:0:0:
430,37,102056,2,0,P|452:70|455:111,1,82.5,8|8,0:3|0:1,0:0:0:0:
402,233,102376,6,0,L|237:213,1,165,0|0,0:3|0:0,0:0:0:0:
125,295,102858,2,0,L|43:283,1,82.5,8|0,0:1|0:0,0:0:0:0:
1,212,103179,1,8,0:3:0:0:
1,212,103339,1,8,0:3:0:0:
62,157,103499,2,0,L|74:74,1,82.5,8|0,0:1|0:0,0:0:0:0:
147,37,103820,5,12,0:3:0:0:
212,87,103981,1,2,0:0:0:0:
226,86,104061,1,2,0:0:0:0:
239,85,104141,1,10,0:1:0:0:
253,83,104221,1,2,0:0:0:0:
267,82,104301,1,2,0:0:0:0:
281,81,104382,1,2,0:0:0:0:
294,80,104462,1,10,0:3:0:0:
308,79,104542,1,2,0:0:0:0:
322,78,104622,1,2,0:0:0:0:
335,77,104702,1,2,0:0:0:0:
349,76,104783,2,0,L|403:72,1,41.25,10|2,0:3|0:0,0:0:0:0:
474,1,104943,2,0,L|469:45,1,41.25,2|2,0:0|0:0,0:0:0:0:
457,123,105104,5,14,0:3:0:0:
457,123,105585,1,0,0:0:0:0:
483,210,105745,2,0,L|339:187,1,132,2|0,0:0|0:0,0:0:0:0:
275,211,106227,1,0,0:0:0:0:
276,219,106307,1,0,0:0:0:0:
277,227,106387,1,4,0:0:0:0:
256,192,106467,12,2,108633,0:0:0:0:
