osu file format v14

[General]
AudioFilename: audio.mp3
AudioLeadIn: 0
PreviewTime: 44061
Countdown: 0
SampleSet: Soft
StackLeniency: 0.8
Mode: 0
LetterboxInBreaks: 0
EpilepsyWarning: 1
WidescreenStoryboard: 1

[Editor]
Bookmarks: 16066,24248,34515,42376,43499,55050,65318,68366,70451,75585,75906,76227,76387,76548,76708,77029,77189,77671,77831,85852,96120,106387,108954
DistanceSpacing: 2.8
BeatDivisor: 4
GridSize: 4
TimelineZoom: 2.4

[Metadata]
Title:illumina
TitleUnicode:illumina
Artist:DJ TOTTO feat. *spiLa*
ArtistUnicode:DJ TOTTO feat. *spiLa*
Creator:-Unlimit-
Version:*Habi's hard*
Source:pop'n music ラピストリア
Tags:bemani HabiHolic Taeyang -Ady Partyu video game Japanese electronic pop jpop 義浩 hiumi yoshihiro tagawa 兎々
BeatmapID:2815307
BeatmapSetID:1295864

[Difficulty]
HPDrainRate:5
CircleSize:4
OverallDifficulty:7
ApproachRate:8
SliderMultiplier:1.5
SliderTickRate:1

[Events]
//Background and Video events
0,0,"37311279_p0.jpg",0,0
//Break Periods
//Storyboard Layer 0 (Background)
//Storyboard Layer 1 (Fail)
//Storyboard Layer 2 (Pass)
//Storyboard Layer 3 (Foreground)
Sprite,Foreground,Centre,"storyboard\ring2.png",0,0 M,0,65318,65358,106,107,95.63196,122.5742 F,2,65318,66188,1,0 S,2,65318,66188,0.7,0.84 P,0,65318,66188,A M,0,65358,65398,95.63196,122.5742,88.09819,139.6821 M,0,65398,65438,88.09819,139.6821,83.61652,157.8184 M,0,65438,65478,83.61652,157.8184,82.31618,176.4484 M,0,65478,65518,82.31618,176.4484,84.01469,195.0588 M,0,65518,65558,84.01469,195.0588,89.24492,213.0101 M,0,65558,65598,89.24492,213.0101,97.47394,229.7852 M,0,65598,65638,97.47394,229.7852,108.2458,245.0784
Sprite,Foreground,Centre,"storyboard\ring2.png",182,299 F,2,65799,66349,1,0 S,2,65799,66349,0.7,0.84 P,0,65799,66349,A
Sprite,Foreground,Centre,"storyboard\ring2.png",0,0 M,0,65959,65999,254,245,271.6973,251.1941 F,2,65959,66749,1,0 S,2,65959,66749,0.7,0.84 P,0,65959,66749,A M,0,65999,66039,271.6973,251.1941,289.3947,257.3881 M,0,66039,66079,289.3947,257.3881,271.6973,251.1941 M,0,66079,66119,271.6973,251.1941,254,245 M,0,66119,66159,254,245,271.6973,251.1941 M,0,66159,66199,271.6973,251.1941,289.3947,257.3881
Sprite,Foreground,Centre,"storyboard\ring2.png",0,0 M,0,66280,66320,316,290,334.3676,286.2323 F,2,66280,66990,1,0 S,2,66280,66990,0.7,0.84 P,0,66280,66990,A M,0,66320,66360,334.3676,286.2323,352.7351,282.4646 M,0,66360,66400,352.7351,282.4646,371.1027,278.6969 M,0,66400,66440,371.1027,278.6969,389.4702,274.9292
Sprite,Foreground,Centre,"storyboard\ring2.png",0,0 M,0,66601,66641,477,222,482.1347,204.0316 F,2,66601,67471,1,0 S,2,66601,67471,0.7,0.84 P,0,66601,67471,A M,0,66641,66681,482.1347,204.0316,483.2502,185.4023 M,0,66681,66721,483.2502,185.4023,480.3024,166.9926 M,0,66721,66761,480.3024,166.9926,473.7363,149.5065 M,0,66761,66801,473.7363,149.5065,480.3024,166.9926 M,0,66801,66841,480.3024,166.9926,483.2502,185.4023 M,0,66841,66881,483.2502,185.4023,482.1347,204.0316 M,0,66881,66921,482.1347,204.0316,477,222
Sprite,Foreground,Centre,"storyboard\ring2.png",533,292 F,2,67082,67632,1,0 S,2,67082,67632,0.7,0.84 P,0,67082,67632,A
Sprite,Foreground,Centre,"storyboard\ring2.png",0,0 M,0,67243,67283,533,292,526.1705,309.3905 F,2,67243,68113,1,0 S,2,67243,68113,0.7,0.84 P,0,67243,68113,A M,0,67283,67323,526.1705,309.3905,523.2681,327.8197 M,0,67323,67363,523.2681,327.8197,524.4202,346.4232 M,0,67363,67403,524.4202,346.4232,529,364 M,0,67403,67443,529,364,524.4202,346.4232 M,0,67443,67483,524.4202,346.4232,523.2681,327.8197 M,0,67483,67523,523.2681,327.8197,526.1705,309.3905 M,0,67523,67563,526.1705,309.3905,533,292
Sprite,Foreground,Centre,"storyboard\ring2.png",443,305 F,2,67724,68274,1,0 S,2,67724,68274,0.7,0.84 P,0,67724,68274,A
Sprite,Foreground,Centre,"storyboard\ring2.png",443,305 F,2,67804,68354,1,0 S,2,67804,68354,0.7,0.84 P,0,67804,68354,A
Sprite,Foreground,Centre,"storyboard\ring2.png",0,0 M,0,67884,67924,443,305,424.5658,301.5731 F,2,67884,68754,1,0 S,2,67884,68754,0.7,0.84 P,0,67884,68754,A M,0,67924,67964,424.5658,301.5731,406.1317,298.1463 M,0,67964,68004,406.1317,298.1463,387.6974,294.7194 M,0,68004,68044,387.6974,294.7194,369.2633,291.2925 M,0,68044,68084,369.2633,291.2925,350.8291,287.8657 M,0,68084,68124,350.8291,287.8657,332.3949,284.4388 M,0,68124,68164,332.3949,284.4388,313.9607,281.0119 M,0,68164,68204,313.9607,281.0119,295.5266,277.5851
Sprite,Foreground,Centre,"storyboard\ring2.png",0,0 M,0,68526,68566,132,192,131.3326,173.269 F,2,68526,69396,1,0 S,2,68526,69396,0.7,0.84 P,0,68526,69396,A M,0,68566,68606,131.3326,173.269,129.2985,154.6398 M,0,68606,68646,129.2985,154.6398,125.9088,136.211 M,0,68646,68686,125.9088,136.211,121.2991,118.0448 M,0,68686,68726,121.2991,118.0448,125.9088,136.211 M,0,68726,68766,125.9088,136.211,129.2985,154.6398 M,0,68766,68806,129.2985,154.6398,131.3326,173.269 M,0,68806,68846,131.3326,173.269,132,192
Sprite,Foreground,Centre,"storyboard\ring2.png",0,0 M,0,69007,69047,82,267,92.61646,251.622 F,2,69007,69877,1,0 S,2,69007,69877,0.7,0.84 P,0,69007,69877,A M,0,69047,69087,92.61646,251.622,106.2458,238.8755 M,0,69087,69127,106.2458,238.8755,122.2627,229.3339 M,0,69127,69167,122.2627,229.3339,139.9362,223.4268 M,0,69167,69207,139.9362,223.4268,158.4486,221.2019 M,0,69207,69247,158.4486,221.2019,176.983,223.3849 M,0,69247,69287,176.983,223.3849,194.6099,229.4603 M,0,69287,69327,194.6099,229.4603,210.7675,238.838
Sprite,Foreground,Centre,"storyboard\ring2.png",250,264 F,2,69409,69959,1,0 S,2,69409,69959,0.7,0.84 P,0,69409,69959,A
Sprite,Foreground,Centre,"storyboard\ring2.png",0,0 M,0,69489,69529,250,264,253.8146,245.6421 F,2,69489,70199,1,0 S,2,69489,70199,0.7,0.84 P,0,69489,70199,A M,0,69529,69569,253.8146,245.6421,257.6292,227.2843 M,0,69569,69609,257.6292,227.2843,261.4438,208.9264 M,0,69609,69649,261.4438,208.9264,265.2585,190.5685
Sprite,Foreground,Centre,"storyboard\ring2.png",280,103 F,2,69810,70360,1,0 S,2,69810,70360,0.7,0.84 P,0,69810,70360,A
Sprite,Foreground,Centre,"storyboard\ring2.png",352,156 F,2,69970,70520,1,0 S,2,69970,70520,0.7,0.84 P,0,69970,70520,A
Sprite,Foreground,Centre,"storyboard\ring2.png",0,0 M,0,70130,70170,425,103,443.4604,100.3015 F,2,70130,70840,1,0 S,2,70130,70840,0.7,0.84 P,0,70130,70840,A M,0,70170,70210,443.4604,100.3015,461.9626,102.3797 M,0,70210,70250,461.9626,102.3797,479.3065,109.0858 M,0,70250,70290,479.3065,109.0858,494,119
Sprite,Foreground,Centre,"storyboard\ring2.png",0,0 M,0,70451,70491,560,181,556.9175,199.4949 F,2,70451,71321,1,0 S,2,70451,71321,0.7,0.84 P,0,70451,71321,A M,0,70491,70531,556.9175,199.4949,553.8351,217.9898 M,0,70531,70571,553.8351,217.9898,550.7526,236.4847 M,0,70571,70611,550.7526,236.4847,547.67,254.9796 M,0,70611,70651,547.67,254.9796,544.5876,273.4744 M,0,70651,70691,544.5876,273.4744,541.5051,291.9693 M,0,70691,70731,541.5051,291.9693,538.4226,310.4642 M,0,70731,70771,538.4226,310.4642,535.3401,328.9591
Sprite,Foreground,Centre,"storyboard\ring2.png",474,396 F,2,70933,71483,1,0 S,2,70933,71483,0.7,0.84 P,0,70933,71483,A
Sprite,Foreground,Centre,"storyboard\ring2.png",474,396 F,2,71013,71563,1,0 S,2,71013,71563,0.7,0.84 P,0,71013,71563,A
Sprite,Foreground,Centre,"storyboard\ring2.png",0,0 M,0,71093,71133,474,396,455.6735,392.0375 F,2,71093,71883,1,0 S,2,71093,71883,0.7,0.84 P,0,71093,71883,A M,0,71133,71173,455.6735,392.0375,437.347,388.075 M,0,71173,71213,437.347,388.075,455.6735,392.0375 M,0,71213,71253,455.6735,392.0375,474,396 M,0,71253,71293,474,396,455.6735,392.0375 M,0,71293,71333,455.6735,392.0375,437.347,388.075
Sprite,Foreground,Centre,"storyboard\ring2.png",0,0 M,0,71414,71454,397,409,378.6735,405.0375 F,2,71414,72204,1,0 S,2,71414,72204,0.7,0.84 P,0,71414,72204,A M,0,71454,71494,378.6735,405.0375,360.347,401.075 M,0,71494,71534,360.347,401.075,378.6735,405.0375 M,0,71534,71574,378.6735,405.0375,397,409 M,0,71574,71614,397,409,378.6735,405.0375 M,0,71614,71654,378.6735,405.0375,360.347,401.075
Sprite,Foreground,Centre,"storyboard\ring2.png",0,0 M,0,71735,71775,317,416,298.4583,413.2127 F,2,71735,72605,1,0 S,2,71735,72605,0.7,0.84 P,0,71735,72605,A M,0,71775,71815,298.4583,413.2127,279.9167,410.4254 M,0,71815,71855,279.9167,410.4254,261.375,407.6381 M,0,71855,71895,261.375,407.6381,242.8333,404.8508 M,0,71895,71935,242.8333,404.8508,224.2917,402.0634 M,0,71935,71975,224.2917,402.0634,205.75,399.2762 M,0,71975,72015,205.75,399.2762,187.2083,396.4888 M,0,72015,72055,187.2083,396.4888,168.6667,393.7015
Sprite,Foreground,Centre,"storyboard\ring2.png",112,323 F,2,72216,72766,1,0 S,2,72216,72766,0.7,0.84 P,0,72216,72766,A
Sprite,Foreground,Centre,"storyboard\ring2.png",112,323 F,2,72296,72846,1,0 S,2,72296,72846,0.7,0.84 P,0,72296,72846,A
Sprite,Foreground,Centre,"storyboard\ring2.png",0,0 M,0,72376,72416,112,323,107.7676,304.7339 F,2,72376,73086,1,0 S,2,72376,73086,0.7,0.84 P,0,72376,73086,A M,0,72416,72456,107.7676,304.7339,103.5352,286.4678 M,0,72456,72496,103.5352,286.4678,99.30285,268.2018 M,0,72496,72536,99.30285,268.2018,95.07047,249.9357
Sprite,Foreground,Centre,"storyboard\ring2.png",0,0 M,0,72697,72737,167,162,171.1981,180.274 F,2,72697,73407,1,0 S,2,72697,73407,0.7,0.84 P,0,72697,73407,A M,0,72737,72777,171.1981,180.274,175.3961,198.548 M,0,72777,72817,175.3961,198.548,179.5942,216.822 M,0,72817,72857,179.5942,216.822,183.7923,235.0959
Sprite,Foreground,Centre,"storyboard\ring2.png",0,0 M,0,73018,73058,252,295,270.7378,294.5777 F,2,73018,73888,1,0 S,2,73018,73888,0.7,0.84 P,0,73018,73888,A M,0,73058,73098,270.7378,294.5777,289.2659,291.8376 M,0,73098,73138,289.2659,291.8376,306.8286,285.4141 M,0,73138,73178,306.8286,285.4141,322.2538,274.8214 M,0,73178,73218,322.2538,274.8214,336.8032,263.0039 M,0,73218,73258,336.8032,263.0039,353.288,254.1868 M,0,73258,73298,353.288,254.1868,371.4367,249.6132 M,0,73298,73338,371.4367,249.6132,390.1094,248.0554
Sprite,Foreground,Centre,"storyboard\ring2.png",470,289 F,2,73499,74049,1,0 S,2,73499,74049,0.7,0.84 P,0,73499,74049,A
Sprite,Foreground,Centre,"storyboard\ring2.png",0,0 M,0,73660,73700,553,253,560.7858,236.0363 F,2,73660,74530,1,0 S,2,73660,74530,0.7,0.84 P,0,73660,74530,A M,0,73700,73740,560.7858,236.0363,563.761,217.6403 M,0,73740,73780,563.761,217.6403,561.7245,199.1425 M,0,73780,73820,561.7245,199.1425,555.0778,181.7214 M,0,73820,73860,555.0778,181.7214,561.7245,199.1425 M,0,73860,73900,561.7245,199.1425,563.761,217.6403 M,0,73900,73940,563.761,217.6403,560.7858,236.0363 M,0,73940,73980,560.7858,236.0363,553,253
Sprite,Foreground,Centre,"storyboard\ring2.png",470,289 F,2,74141,74691,1,0 S,2,74141,74691,0.7,0.84 P,0,74141,74691,A
Sprite,Foreground,Centre,"storyboard\ring2.png",529,356 F,2,74302,74852,1,0 S,2,74302,74852,0.7,0.84 P,0,74302,74852,A
Sprite,Foreground,Centre,"storyboard\ring2.png",441,377 F,2,74462,75012,1,0 S,2,74462,75012,0.7,0.84 P,0,74462,75012,A
Sprite,Foreground,Centre,"storyboard\ring2.png",441,377 F,2,74542,75092,1,0 S,2,74542,75092,0.7,0.84 P,0,74542,75092,A
Sprite,Foreground,Centre,"storyboard\ring2.png",0,0 M,0,74622,74662,441,377,422.8572,372.2671 F,2,74622,75412,1,0 S,2,74622,75412,0.7,0.84 P,0,74622,75412,A M,0,74662,74702,422.8572,372.2671,404.7144,367.5342 M,0,74702,74742,404.7144,367.5342,422.8572,372.2671 M,0,74742,74782,422.8572,372.2671,441,377 M,0,74782,74822,441,377,422.8572,372.2671 M,0,74822,74862,422.8572,372.2671,404.7144,367.5342
Sprite,Foreground,Centre,"storyboard\ring2.png",0,0 M,0,74943,74983,365,389,346.8572,384.2671 F,2,74943,75733,1,0 S,2,74943,75733,0.7,0.84 P,0,74943,75733,A M,0,74983,75023,346.8572,384.2671,328.7144,379.5342 M,0,75023,75063,328.7144,379.5342,346.8572,384.2671 M,0,75063,75103,346.8572,384.2671,365,389 M,0,75103,75143,365,389,346.8572,384.2671 M,0,75143,75183,346.8572,384.2671,328.7144,379.5342
Sprite,Foreground,Centre,"storyboard\ring2.png",0,0 M,0,75264,75304,287,397,268.6965,392.9326 F,2,75264,75974,1,0 S,2,75264,75974,0.7,0.84 P,0,75264,75974,A M,0,75304,75344,268.6965,392.9326,250.393,388.8651 M,0,75344,75384,250.393,388.8651,232.0895,384.7977 M,0,75384,75424,232.0895,384.7977,213.786,380.7302
Sprite,Foreground,Centre,"storyboard\ring2.png",0,0 M,0,75585,75625,117,309,135.4982,305.9374 F,2,75585,76455,1,0 S,2,75585,76455,0.7,0.84 P,0,75585,76455,A M,0,75625,75665,135.4982,305.9374,153.9964,302.8748 M,0,75665,75705,153.9964,302.8748,172.4946,299.8122 M,0,75705,75745,172.4946,299.8122,190.9927,296.7495 M,0,75745,75785,190.9927,296.7495,209.4909,293.687 M,0,75785,75825,209.4909,293.687,227.9891,290.6243 M,0,75825,75865,227.9891,290.6243,246.4873,287.5617 M,0,75865,75905,246.4873,287.5617,264.9855,284.4991
Sprite,Foreground,Centre,"storyboard\ring2.png",331,222 F,2,76066,76616,1,0 S,2,76066,76616,0.7,0.84 P,0,76066,76616,A
Sprite,Foreground,Centre,"storyboard\ring2.png",0,0 M,0,76227,76267,331,222,349.7063,223.1773 F,2,76227,76937,1,0 S,2,76227,76937,0.7,0.84 P,0,76227,76937,A M,0,76267,76307,349.7063,223.1773,368.2847,225.6375 M,0,76307,76347,368.2847,225.6375,386.6484,229.3687 M,0,76347,76387,386.6484,229.3687,404,234
Sprite,Foreground,Centre,"storyboard\ring2.png",492,211 F,2,76548,77098,1,0 S,2,76548,77098,0.7,0.84 P,0,76548,77098,A
Sprite,Foreground,Centre,"storyboard\ring2.png",0,0 M,0,76708,76748,492,211,488.3228,229.3859 F,2,76708,77578,1,0 S,2,76708,77578,0.7,0.84 P,0,76708,77578,A M,0,76748,76788,488.3228,229.3859,484.6457,247.7718 M,0,76788,76828,484.6457,247.7718,480.9685,266.1577 M,0,76828,76868,480.9685,266.1577,477.2913,284.5435 M,0,76868,76908,477.2913,284.5435,473.6141,302.9294 M,0,76908,76948,473.6141,302.9294,469.937,321.3153 M,0,76948,76988,469.937,321.3153,466.2598,339.7012 M,0,76988,77028,466.2598,339.7012,462.5826,358.0871
Sprite,Foreground,Centre,"storyboard\ring2.png",0,0 M,0,77189,77229,384,403,372.487,388.247 F,2,77189,78059,1,0 S,2,77189,78059,0.7,0.84 P,0,77189,78059,A M,0,77229,77269,372.487,388.247,358.7431,375.5683 M,0,77269,77309,358.7431,375.5683,343.132,365.2941 M,0,77309,77349,343.132,365.2941,326.0649,357.6925 M,0,77349,77389,326.0649,357.6925,308.029,352.7874 M,0,77389,77429,308.029,352.7874,289.3961,351.1987 M,0,77429,77469,289.3961,351.1987,270.7631,352.6548 M,0,77469,77509,270.7631,352.6548,252.5271,356.8427
Sprite,Foreground,Centre,"storyboard\ring2.png",174,405 F,2,77671,78221,1,0 S,2,77671,78221,0.7,0.84 P,0,77671,78221,A
Sprite,Foreground,Centre,"storyboard\ring2.png",0,0 M,0,77831,77871,100,353,96.87859,334.5117 F,2,77831,78541,1,0 S,2,77831,78541,0.7,0.84 P,0,77831,78541,A M,0,77871,77911,96.87859,334.5117,93.75718,316.0233 M,0,77911,77951,93.75718,316.0233,90.63577,297.5349 M,0,77951,77991,90.63577,297.5349,87.51436,279.0466
Sprite,Foreground,Centre,"storyboard\ring2.png",0,0 M,0,78152,78192,148,212,166.5956,209.6594 F,2,78152,79343,1,0 S,2,78152,79343,0.7,0.84 P,0,78152,79343,A M,0,78192,78232,166.5956,209.6594,185.3181,209.8691 M,0,78232,78272,185.3181,209.8691,203.3661,214.6491 M,0,78272,78312,203.3661,214.6491,219.3342,224.4171 M,0,78312,78352,219.3342,224.4171,235.6829,233.4853 M,0,78352,78392,235.6829,233.4853,254.0002,237.1569 M,0,78392,78432,254.0002,237.1569,272.7231,236.6817 M,0,78432,78472,272.7231,236.6817,291,234 M,0,78472,78512,291,234,272.7231,236.6817 M,0,78512,78553,272.7231,236.6817,254.0002,237.1569 M,0,78553,78593,254.0002,237.1569,235.6829,233.4853 M,0,78593,78633,235.6829,233.4853,219.3342,224.4171 M,0,78633,78673,219.3342,224.4171,203.3661,214.6491 M,0,78673,78713,203.3661,214.6491,185.3181,209.8691 M,0,78713,78753,185.3181,209.8691,166.5956,209.6594 M,0,78753,78793,166.5956,209.6594,148,212
Sprite,Foreground,Centre,"storyboard\ring2.png",81,150 F,2,78954,79504,1,0 S,2,78954,79504,0.7,0.84 P,0,78954,79504,A
Sprite,Foreground,Centre,"storyboard\ring2.png",81,150 F,2,79114,79664,1,0 S,2,79114,79664,0.7,0.84 P,0,79114,79664,A
Sprite,Foreground,Centre,"storyboard\ring2.png",0,0 M,0,79275,79315,153,96,171.5956,93.65945 F,2,79275,80145,1,0 S,2,79275,80145,0.7,0.84 P,0,79275,80145,A M,0,79315,79355,171.5956,93.65945,190.3181,93.86913 M,0,79355,79395,190.3181,93.86913,208.3661,98.64915 M,0,79395,79435,208.3661,98.64915,224.3342,108.4171 M,0,79435,79475,224.3342,108.4171,240.6829,117.4853 M,0,79475,79515,240.6829,117.4853,259.0002,121.1569 M,0,79515,79555,259.0002,121.1569,277.7231,120.6817 M,0,79555,79595,277.7231,120.6817,296,118
Sprite,Foreground,Centre,"storyboard\ring2.png",376,77 F,2,79756,80306,1,0 S,2,79756,80306,0.7,0.84 P,0,79756,80306,A
Sprite,Foreground,Centre,"storyboard\ring2.png",456,117 F,2,79917,80467,1,0 S,2,79917,80467,0.7,0.84 P,0,79917,80467,A
Sprite,Foreground,Centre,"storyboard\ring2.png",456,117 F,2,79997,80547,1,0 S,2,79997,80547,0.7,0.84 P,0,79997,80547,A
Sprite,Foreground,Centre,"storyboard\ring2.png",0,0 M,0,80077,80117,456,117,451.5053,135.2033 F,2,80077,80787,1,0 S,2,80077,80787,0.7,0.84 P,0,80077,80787,A M,0,80117,80157,451.5053,135.2033,447.0107,153.4066 M,0,80157,80197,447.0107,153.4066,442.5161,171.6099 M,0,80197,80237,442.5161,171.6099,438.0214,189.8133
Sprite,Foreground,Centre,"storyboard\ring2.png",0,0 M,0,80398,80438,503,252,498.5053,270.2033 F,2,80398,81108,1,0 S,2,80398,81108,0.7,0.84 P,0,80398,81108,A M,0,80438,80478,498.5053,270.2033,494.0107,288.4066 M,0,80478,80518,494.0107,288.4066,489.5161,306.6099 M,0,80518,80558,489.5161,306.6099,485.0214,324.8133
Sprite,Foreground,Centre,"storyboard\ring2.png",472,367 F,2,80638,81188,1,0 S,2,80638,81188,0.7,0.84 P,0,80638,81188,A
Sprite,Foreground,Centre,"storyboard\ring2.png",0,0 M,0,80719,80759,472,367,461.5919,351.4666 F,2,80719,81589,1,0 S,2,80719,81589,0.7,0.84 P,0,80719,81589,A M,0,80759,80799,461.5919,351.4666,448.3979,338.2475 M,0,80799,80839,448.3979,338.2475,432.9131,327.8302 M,0,80839,80879,432.9131,327.8302,415.7159,320.5993 M,0,80879,80919,415.7159,320.5993,397.4776,316.6396 M,0,80919,80959,397.4776,316.6396,378.8005,316.6367 M,0,80959,80999,378.8005,316.6367,360.4877,320.2346 M,0,80999,81039,360.4877,320.2346,343.0511,326.9758
Sprite,Foreground,Centre,"storyboard\ring2.png",266,375 F,2,81200,81750,1,0 S,2,81200,81750,0.7,0.84 P,0,81200,81750,A
Sprite,Foreground,Centre,"storyboard\ring2.png",266,375 F,2,81280,81830,1,0 S,2,81280,81830,0.7,0.84 P,0,81280,81830,A
Sprite,Foreground,Centre,"storyboard\ring2.png",0,0 M,0,81360,81400,266,375,247.9373,369.9699 F,2,81360,82070,1,0 S,2,81360,82070,0.7,0.84 P,0,81360,82070,A M,0,81400,81440,247.9373,369.9699,229.8746,364.9398 M,0,81440,81480,229.8746,364.9398,211.812,359.9097 M,0,81480,81520,211.812,359.9097,193.7493,354.8795
Sprite,Foreground,Centre,"storyboard\ring2.png",99,349 F,2,81681,82231,1,0 S,2,81681,82231,0.7,0.84 P,0,81681,82231,A
Sprite,Foreground,Centre,"storyboard\ring2.png",132,259 F,2,81842,82392,1,0 S,2,81842,82392,0.7,0.84 P,0,81842,82392,A
Sprite,Foreground,Centre,"storyboard\ring2.png",132,259 F,2,81922,82472,1,0 S,2,81922,82472,0.7,0.84 P,0,81922,82472,A
Sprite,Foreground,Centre,"storyboard\ring2.png",0,0 M,0,82002,82042,132,259,150.5206,256.0757 F,2,82002,82872,1,0 S,2,82002,82872,0.7,0.84 P,0,82002,82872,A M,0,82042,82082,150.5206,256.0757,169.0411,253.1514 M,0,82082,82122,169.0411,253.1514,187.5617,250.2271 M,0,82122,82162,187.5617,250.2271,206.0822,247.3028 M,0,82162,82202,206.0822,247.3028,187.5617,250.2271 M,0,82202,82242,187.5617,250.2271,169.0411,253.1514 M,0,82242,82282,169.0411,253.1514,150.5206,256.0757 M,0,82282,82322,150.5206,256.0757,132,259
Sprite,Foreground,Centre,"storyboard\ring2.png",0,0 M,0,82483,82523,77,180,95.53896,177.1948 F,2,82483,83353,1,0 S,2,82483,83353,0.7,0.84 P,0,82483,83353,A M,0,82523,82563,95.53896,177.1948,114.0779,174.3895 M,0,82563,82603,114.0779,174.3895,132.6169,171.5843 M,0,82603,82643,132.6169,171.5843,151.1559,168.7791 M,0,82643,82683,151.1559,168.7791,169.6948,165.9738 M,0,82683,82723,169.6948,165.9738,188.2338,163.1686 M,0,82723,82763,188.2338,163.1686,206.7727,160.3633 M,0,82763,82803,206.7727,160.3633,225.3117,157.5581
Sprite,Foreground,Centre,"storyboard\ring2.png",0,0 M,0,82965,83005,306,100,324.1327,104.7718 F,2,82965,83755,1,0 S,2,82965,83755,0.7,0.84 P,0,82965,83755,A M,0,83005,83045,324.1327,104.7718,342.2653,109.5435 M,0,83045,83085,342.2653,109.5435,324.1327,104.7718 M,0,83085,83125,324.1327,104.7718,306,100 M,0,83125,83165,306,100,324.1327,104.7718 M,0,83165,83205,324.1327,104.7718,342.2653,109.5435
Sprite,Foreground,Centre,"storyboard\ring2.png",0,0 M,0,83286,83326,378,137,396.3588,133.2274 F,2,83286,84477,1,0 S,2,83286,84477,0.7,0.84 P,0,83286,84477,A M,0,83326,83366,396.3588,133.2274,415.0363,131.8666 M,0,83366,83406,415.0363,131.8666,433.5301,134.594 M,0,83406,83446,433.5301,134.594,450.9946,141.38 M,0,83446,83486,450.9946,141.38,468.9436,146.5912 M,0,83486,83526,468.9436,146.5912,487.6394,146.4441 M,0,83526,83566,487.6394,146.4441,505.9945,142.6929 M,0,83566,83606,505.9945,142.6929,523.869,137.0463 M,0,83606,83646,523.869,137.0463,505.9945,142.6929 M,0,83646,83687,505.9945,142.6929,487.6394,146.4441 M,0,83687,83727,487.6394,146.4441,468.9436,146.5912 M,0,83727,83767,468.9436,146.5912,450.9946,141.38 M,0,83767,83807,450.9946,141.38,433.5301,134.594 M,0,83807,83847,433.5301,134.594,415.0363,131.8666 M,0,83847,83887,415.0363,131.8666,396.3588,133.2274 M,0,83887,83927,396.3588,133.2274,378,137
Sprite,Foreground,Centre,"storyboard\ring2.png",293,171 F,2,84088,84638,1,0 S,2,84088,84638,0.7,0.84 P,0,84088,84638,A
Sprite,Foreground,Centre,"storyboard\ring2.png",293,171 F,2,84168,84718,1,0 S,2,84168,84718,0.7,0.84 P,0,84168,84718,A
Sprite,Foreground,Centre,"storyboard\ring2.png",0,0 M,0,84248,84288,293,171,297.2471,189.2626 F,2,84248,85118,1,0 S,2,84248,85118,0.7,0.84 P,0,84248,85118,A M,0,84288,84328,297.2471,189.2626,301.4943,207.5253 M,0,84328,84368,301.4943,207.5253,297.2471,189.2626 M,0,84368,84408,297.2471,189.2626,293,171 M,0,84408,84448,293,171,297.2471,189.2626 M,0,84448,84488,297.2471,189.2626,301.4943,207.5253 M,0,84488,84528,301.4943,207.5253,297.2471,189.2626 M,0,84528,84568,297.2471,189.2626,293,171
Sprite,Foreground,Centre,"storyboard\ring.png",0,0 M,0,24248,24288,68,151,69.2585,158.3937 F,2,24248,25529,0.15,0 S,2,24248,25529,0.3,0.6 P,0,24248,25529,A M,0,24288,24328,69.2585,158.3937,70.51699,165.7873 M,0,24328,24368,70.51699,165.7873,71.77548,173.181 M,0,24368,24408,71.77548,173.181,73.03398,180.5746 M,0,24408,24448,73.03398,180.5746,74.29247,187.9683 M,0,24448,24488,74.29247,187.9683,75.55097,195.362 M,0,24488,24528,75.55097,195.362,76.80946,202.7556 M,0,24528,24568,76.80946,202.7556,78.06796,210.1493 M,0,24568,24608,78.06796,210.1493,79.32645,217.5429 M,0,24608,24649,79.32645,217.5429,80.58495,224.9366 M,0,24649,24689,80.58495,224.9366,81.84344,232.3302 M,0,24689,24729,81.84344,232.3302,83.10194,239.7239
Sprite,Foreground,Centre,"storyboard\ring.png",0,0 M,0,24890,24930,123,305,130.3367,303.5425 F,2,24890,26010,0.15,0 S,2,24890,26010,0.3,0.6 P,0,24890,26010,A M,0,24930,24970,130.3367,303.5425,137.6736,302.3474 M,0,24970,25010,137.6736,302.3474,145.1019,301.9456 M,0,25010,25050,145.1019,301.9456,152.5384,302.3432 M,0,25050,25090,152.5384,302.3432,159.9001,303.5382 M,0,25090,25130,159.9001,303.5382,167.1038,305.5203 M,0,25130,25170,167.1038,305.5203,174.0932,308.2307 M,0,25170,25210,174.0932,308.2307,180.6722,311.8211
Sprite,Foreground,Centre,"storyboard\ring.png",253,329 F,2,25371,26171,0.15,0 S,2,25371,26171,0.3,0.6 P,0,25371,26171,A
Sprite,Foreground,Centre,"storyboard\ring.png",0,0 M,0,25532,25572,253,329,254.4494,321.6414 F,2,25532,26652,0.15,0 S,2,25532,26652,0.3,0.6 P,0,25532,26652,A M,0,25572,25612,254.4494,321.6414,255.8988,314.2828 M,0,25612,25652,255.8988,314.2828,257.3483,306.9242 M,0,25652,25692,257.3483,306.9242,258.7977,299.5656 M,0,25692,25732,258.7977,299.5656,260.2471,292.2069 M,0,25732,25772,260.2471,292.2069,261.6965,284.8483 M,0,25772,25812,261.6965,284.8483,263.146,277.4897 M,0,25812,25852,263.146,277.4897,264.5954,270.1311
Sprite,Foreground,Centre,"storyboard\ring.png",0,0 M,0,26173,26213,165,89,167.1527,96.18325 F,2,26173,27293,0.15,0 S,2,26173,27293,0.3,0.6 P,0,26173,27293,A M,0,26213,26253,167.1527,96.18325,169.2469,103.3811 M,0,26253,26293,169.2469,103.3811,171.1593,110.6297 M,0,26293,26333,171.1593,110.6297,172.8888,117.9246 M,0,26333,26373,172.8888,117.9246,174.4341,125.2614 M,0,26373,26413,174.4341,125.2614,175.7944,132.6355 M,0,26413,26453,175.7944,132.6355,176.978,140.0413 M,0,26453,26493,176.978,140.0413,177.9332,147.48
Sprite,Foreground,Centre,"storyboard\ring.png",260,186 F,2,26655,27455,0.15,0 S,2,26655,27455,0.3,0.6 P,0,26655,27455,A
Sprite,Foreground,Centre,"storyboard\ring.png",0,0 M,0,26815,26855,319,110,326.4178,108.8929 F,2,26815,27935,0.15,0 S,2,26815,27935,0.3,0.6 P,0,26815,27935,A M,0,26855,26895,326.4178,108.8929,333.8357,107.7857 M,0,26895,26935,333.8357,107.7857,341.2535,106.6786 M,0,26935,26975,341.2535,106.6786,348.6713,105.5714 M,0,26975,27015,348.6713,105.5714,356.0892,104.4643 M,0,27015,27055,356.0892,104.4643,363.507,103.3572 M,0,27055,27095,363.507,103.3572,370.9248,102.25 M,0,27095,27135,370.9248,102.25,378.3427,101.1429
Sprite,Foreground,Centre,"storyboard\ring.png",440,148 F,2,27296,28096,0.15,0 S,2,27296,28096,0.3,0.6 P,0,27296,28096,A
Sprite,Foreground,Centre,"storyboard\ring.png",0,0 M,0,27457,27497,440,148,438.373,155.3214 F,2,27457,28417,0.15,0 S,2,27457,28417,0.3,0.6 P,0,27457,28417,A M,0,27497,27537,438.373,155.3214,436.746,162.6428 M,0,27537,27577,436.746,162.6428,435.1191,169.9642 M,0,27577,27617,435.1191,169.9642,433.4921,177.2856
Sprite,Foreground,Centre,"storyboard\ring.png",0,0 M,0,27778,27818,479,240,477.373,247.3214 F,2,27778,28738,0.15,0 S,2,27778,28738,0.3,0.6 P,0,27778,28738,A M,0,27818,27858,477.373,247.3214,475.746,254.6428 M,0,27858,27898,475.746,254.6428,474.1191,261.9642 M,0,27898,27938,474.1191,261.9642,472.4921,269.2856
Sprite,Foreground,Centre,"storyboard\ring.png",502,340 F,2,28098,28898,0.15,0 S,2,28098,28898,0.3,0.6 P,0,28098,28898,A
Sprite,Foreground,Centre,"storyboard\ring.png",353,388 F,2,28419,29219,0.15,0 S,2,28419,29219,0.3,0.6 P,0,28419,29219,A
Sprite,Foreground,Centre,"storyboard\ring.png",215,314 F,2,28740,29540,0.15,0 S,2,28740,29540,0.3,0.6 P,0,28740,29540,A
Sprite,Foreground,Centre,"storyboard\ring.png",212,157 F,2,29061,29861,0.15,0 S,2,29061,29861,0.3,0.6 P,0,29061,29861,A
Sprite,Foreground,Centre,"storyboard\ring.png",0,0 M,0,29382,29422,353,90,360.2566,88.17279 F,2,29382,30663,0.15,0 S,2,29382,30663,0.3,0.6 P,0,29382,30663,A M,0,29422,29462,360.2566,88.17279,367.5446,86.65788 M,0,29462,29502,367.5446,86.65788,374.9532,85.91759 M,0,29502,29542,374.9532,85.91759,382.4014,85.96054 M,0,29542,29582,382.4014,85.96054,389.8072,86.78699 M,0,29582,29622,389.8072,86.78699,397.0894,88.38881 M,0,29622,29662,397.0894,88.38881,404.1676,90.74951 M,0,29662,29702,404.1676,90.74951,410.964,93.84444 M,0,29702,29742,410.964,93.84444,417.403,97.64102 M,0,29742,29783,417.403,97.64102,423.413,102.099 M,0,29783,29823,423.413,102.099,428.9486,107.1543 M,0,29823,29863,428.9486,107.1543,433.8495,112.8259
Sprite,Foreground,Centre,"storyboard\ring.png",0,0 M,0,30024,30064,511,102,509.8422,109.4101 F,2,30024,31144,0.15,0 S,2,30024,31144,0.3,0.6 P,0,30024,31144,A M,0,30064,30104,509.8422,109.4101,508.6844,116.8202 M,0,30104,30144,508.6844,116.8202,507.5265,124.2303 M,0,30144,30184,507.5265,124.2303,506.3687,131.6404 M,0,30184,30224,506.3687,131.6404,505.2109,139.0504 M,0,30224,30264,505.2109,139.0504,504.053,146.4605 M,0,30264,30304,504.053,146.4605,502.8952,153.8706 M,0,30304,30344,502.8952,153.8706,501.7374,161.2807
Sprite,Foreground,Centre,"storyboard\ring.png",0,0 M,0,30665,30705,401,301,393.5927,302.1758 F,2,30665,31785,0.15,0 S,2,30665,31785,0.3,0.6 P,0,30665,31785,A M,0,30705,30745,393.5927,302.1758,386.1855,303.3515 M,0,30745,30785,386.1855,303.3515,378.7782,304.5273 M,0,30785,30825,378.7782,304.5273,371.3709,305.703 M,0,30825,30865,371.3709,305.703,363.9637,306.8788 M,0,30865,30905,363.9637,306.8788,356.5564,308.0545 M,0,30905,30945,356.5564,308.0545,349.1491,309.2303 M,0,30945,30985,349.1491,309.2303,341.7419,310.4061
Sprite,Foreground,Centre,"storyboard\ring.png",0,0 M,0,31146,31186,288,253,290.175,245.8223 F,2,31146,32106,0.15,0 S,2,31146,32106,0.3,0.6 P,0,31146,32106,A M,0,31186,31226,290.175,245.8223,292.3501,238.6446 M,0,31226,31266,292.3501,238.6446,294.5251,231.4669 M,0,31266,31306,294.5251,231.4669,296.7002,224.2893
Sprite,Foreground,Centre,"storyboard\ring.png",0,0 M,0,31467,31507,245,144,243.0055,151.2299 F,2,31467,32587,0.15,0 S,2,31467,32587,0.3,0.6 P,0,31467,32587,A M,0,31507,31547,243.0055,151.2299,241.0111,158.4599 M,0,31547,31587,241.0111,158.4599,239.0166,165.6898 M,0,31587,31627,239.0166,165.6898,237.0221,172.9198 M,0,31627,31667,237.0221,172.9198,239.0166,165.6898 M,0,31667,31707,239.0166,165.6898,241.0111,158.4599 M,0,31707,31747,241.0111,158.4599,243.0055,151.2299 M,0,31747,31787,243.0055,151.2299,245,144
Sprite,Foreground,Centre,"storyboard\ring.png",0,0 M,0,31949,31989,314,106,320.7832,102.8496 F,2,31949,33230,0.15,0 S,2,31949,33230,0.3,0.6 P,0,31949,33230,A M,0,31989,32029,320.7832,102.8496,327.667,100.0518 M,0,32029,32069,327.667,100.0518,334.8353,98.0887 M,0,32069,32109,334.8353,98.0887,342.1881,96.98808 M,0,32109,32149,342.1881,96.98808,349.6229,96.76609 M,0,32149,32189,349.6229,96.76609,357.0358,97.42682 M,0,32189,32229,357.0358,97.42682,364.3231,98.96219 M,0,32229,32269,364.3231,98.96219,371.3825,101.3521 M,0,32269,32309,371.3825,101.3521,378.115,104.5647 M,0,32309,32350,378.115,104.5647,384.4256,108.5566 M,0,32350,32390,384.4256,108.5566,390.2929,113.2149 M,0,32390,32430,390.2929,113.2149,395,118
Sprite,Foreground,Centre,"storyboard\ring.png",0,0 M,0,32590,32630,473,118,471.5748,125.3633 F,2,32590,33871,0.15,0 S,2,32590,33871,0.3,0.6 P,0,32590,33871,A M,0,32630,32670,471.5748,125.3633,470.1497,132.7267 M,0,32670,32710,470.1497,132.7267,468.7245,140.0901 M,0,32710,32750,468.7245,140.0901,467.2993,147.4534 M,0,32750,32790,467.2993,147.4534,468.7245,140.0901 M,0,32790,32830,468.7245,140.0901,470.1497,132.7267 M,0,32830,32870,470.1497,132.7267,471.5748,125.3633 M,0,32870,32910,471.5748,125.3633,473,118 M,0,32910,32950,473,118,471.5748,125.3633 M,0,32950,32991,471.5748,125.3633,470.1497,132.7267 M,0,32991,33031,470.1497,132.7267,468.7245,140.0901 M,0,33031,33071,468.7245,140.0901,467.2993,147.4534
Sprite,Foreground,Centre,"storyboard\ring.png",510,228 F,2,33232,34032,0.15,0 S,2,33232,34032,0.3,0.6 P,0,33232,34032,A
Sprite,Foreground,Centre,"storyboard\ring.png",368,85 F,2,33553,34353,0.15,0 S,2,33553,34353,0.3,0.6 P,0,33553,34353,A
Sprite,Foreground,Centre,"storyboard\ring.png",177,145 F,2,33874,34674,0.15,0 S,2,33874,34674,0.3,0.6 P,0,33874,34674,A
Sprite,Foreground,Centre,"storyboard\ring.png",156,334 F,2,34195,34995,0.15,0 S,2,34195,34995,0.3,0.6 P,0,34195,34995,A
Sprite,Foreground,Centre,"storyboard\ring.png",0,0 M,0,34515,34555,330,421,343.6359,424.2385 F,2,34515,35635,0.15,0 S,2,34515,35635,0.3,0.6 P,0,34515,35635,A M,0,34555,34595,343.6359,424.2385,357.5576,425.6327 M,0,34595,34635,357.5576,425.6327,371.5481,424.7745 M,0,34635,34675,371.5481,424.7745,385.1063,421.2417 M,0,34675,34715,385.1063,421.2417,397.9923,415.817 M,0,34715,34755,397.9923,415.817,409.8562,408.3875 M,0,34755,34795,409.8562,408.3875,420.3968,399.1316 M,0,34795,34835,420.3968,399.1316,429.1653,388.1648
Sprite,Foreground,Centre,"storyboard\ring.png",461,309 F,2,34997,35797,0.15,0 S,2,34997,35797,0.3,0.6 P,0,34997,35797,A
Sprite,Foreground,Centre,"storyboard\ring.png",0,0 M,0,35157,35197,397,254,382.9505,254.4323 F,2,35157,36277,0.15,0 S,2,35157,36277,0.3,0.6 P,0,35157,36277,A M,0,35197,35237,382.9505,254.4323,369.0855,256.6788 M,0,35237,35277,369.0855,256.6788,355.9332,261.5732 M,0,35277,35317,355.9332,261.5732,343.8357,268.7291 M,0,35317,35357,343.8357,268.7291,331.6204,275.6758 M,0,35357,35397,331.6204,275.6758,318.4064,280.424 M,0,35397,35437,318.4064,280.424,304.5856,282.9554 M,0,35437,35477,304.5856,282.9554,290.5615,283.9204
Sprite,Foreground,Centre,"storyboard\ring.png",216,242 F,2,35638,36438,0.15,0 S,2,35638,36438,0.3,0.6 P,0,35638,36438,A
Sprite,Foreground,Centre,"storyboard\ring.png",0,0 M,0,35799,35839,138,281,135.9948,267.0812 F,2,35799,37240,0.15,0 S,2,35799,37240,0.3,0.6 P,0,35799,37240,A M,0,35839,35879,135.9948,267.0812,133.9895,253.1624 M,0,35879,35919,133.9895,253.1624,131.9843,239.2436 M,0,35919,35959,131.9843,239.2436,129.979,225.3248 M,0,35959,35999,129.979,225.3248,127.9737,211.406 M,0,35999,36039,127.9737,211.406,125.9685,197.4872 M,0,36039,36079,125.9685,197.4872,123.9632,183.5684 M,0,36079,36119,123.9632,183.5684,121.958,169.6496 M,0,36119,36159,121.958,169.6496,123.9632,183.5684 M,0,36159,36200,123.9632,183.5684,125.9685,197.4872 M,0,36200,36240,125.9685,197.4872,127.9737,211.406 M,0,36240,36280,127.9737,211.406,129.979,225.3248 M,0,36280,36320,129.979,225.3248,131.9843,239.2436 M,0,36320,36360,131.9843,239.2436,133.9895,253.1624 M,0,36360,36400,133.9895,253.1624,135.9948,267.0812 M,0,36400,36440,135.9948,267.0812,138,281
Sprite,Foreground,Centre,"storyboard\ring.png",0,0 M,0,36761,36801,255,405,267.1162,398.0235 F,2,36761,37721,0.15,0 S,2,36761,37721,0.3,0.6 P,0,36761,37721,A M,0,36801,36841,267.1162,398.0235,280.099,392.7679 M,0,36841,36881,280.099,392.7679,293.9663,391.0187 M,0,36881,36921,293.9663,391.0187,307,391
Sprite,Foreground,Centre,"storyboard\ring.png",0,0 M,0,37082,37122,375,340,383.8507,350.8505 F,2,37082,38202,0.15,0 S,2,37082,38202,0.3,0.6 P,0,37082,38202,A M,0,37122,37162,383.8507,350.8505,394.2065,360.2296 M,0,37162,37202,394.2065,360.2296,406.1149,367.5979 M,0,37202,37242,406.1149,367.5979,419.3288,372.2135 M,0,37242,37282,419.3288,372.2135,433.078,374.6246 M,0,37282,37322,433.078,374.6246,447.0572,374.5104 M,0,37322,37362,447.0572,374.5104,460.821,371.8624 M,0,37362,37402,460.821,371.8624,473.8183,366.5649
Sprite,Foreground,Centre,"storyboard\ring.png",537,310 F,2,37564,38364,0.15,0 S,2,37564,38364,0.3,0.6 P,0,37564,38364,A
Sprite,Foreground,Centre,"storyboard\ring.png",0,0 M,0,37724,37764,537,310,539.5156,296.1643 F,2,37724,38684,0.15,0 S,2,37724,38684,0.3,0.6 P,0,37724,38684,A M,0,37764,37804,539.5156,296.1643,542.0311,282.3287 M,0,37804,37844,542.0311,282.3287,544.5468,268.493 M,0,37844,37884,544.5468,268.493,547,255
Sprite,Foreground,Centre,"storyboard\ring.png",0,0 M,0,38045,38085,482,160,479.4844,173.8357 F,2,38045,39005,0.15,0 S,2,38045,39005,0.3,0.6 P,0,38045,39005,A M,0,38085,38125,479.4844,173.8357,476.9688,187.6713 M,0,38125,38165,476.9688,187.6713,474.4533,201.507 M,0,38165,38205,474.4533,201.507,472,215
Sprite,Foreground,Centre,"storyboard\ring.png",0,0 M,0,38366,38406,398,258,383.9572,258.6836 F,2,38366,39807,0.15,0 S,2,38366,39807,0.3,0.6 P,0,38366,39807,A M,0,38406,38446,383.9572,258.6836,370.0435,260.6617 M,0,38446,38486,370.0435,260.6617,356.6122,264.7548 M,0,38486,38526,356.6122,264.7548,343.9682,270.8995 M,0,38526,38566,343.9682,270.8995,330.9464,276.1543 M,0,38566,38606,330.9464,276.1543,317.1761,278.9294 M,0,38606,38646,317.1761,278.9294,303.1593,279.9947 M,0,38646,38686,303.1593,279.9947,289.0989,280.0474 M,0,38686,38726,289.0989,280.0474,303.1593,279.9947 M,0,38726,38767,303.1593,279.9947,317.1761,278.9294 M,0,38767,38807,317.1761,278.9294,330.9464,276.1543 M,0,38807,38847,330.9464,276.1543,343.9682,270.8995 M,0,38847,38887,343.9682,270.8995,356.6122,264.7548 M,0,38887,38927,356.6122,264.7548,370.0435,260.6617 M,0,38927,38967,370.0435,260.6617,383.9572,258.6836 M,0,38967,39007,383.9572,258.6836,398,258
Sprite,Foreground,Centre,"storyboard\ring.png",0,0 M,0,39328,39368,475,104,461.6537,108.1195 F,2,39328,40288,0.15,0 S,2,39328,40288,0.3,0.6 P,0,39328,40288,A M,0,39368,39408,461.6537,108.1195,447.8165,109.5863 M,0,39408,39448,447.8165,109.5863,433.9741,107.8229 M,0,39448,39488,433.9741,107.8229,421,103
Sprite,Foreground,Centre,"storyboard\ring.png",0,0 M,0,39649,39689,334,76,335.9379,89.92834 F,2,39649,40769,0.15,0 S,2,39649,40769,0.3,0.6 P,0,39649,40769,A M,0,39689,39729,335.9379,89.92834,337.8757,103.8567 M,0,39729,39769,337.8757,103.8567,339.8136,117.785 M,0,39769,39809,339.8136,117.785,341.7514,131.7133 M,0,39809,39849,341.7514,131.7133,343.6893,145.6417 M,0,39849,39889,343.6893,145.6417,345.6271,159.57 M,0,39889,39929,345.6271,159.57,347.565,173.4984 M,0,39929,39969,347.565,173.4984,349.5028,187.4267
Sprite,Foreground,Centre,"storyboard\ring.png",303,257 F,2,40130,40930,0.15,0 S,2,40130,40930,0.3,0.6 P,0,40130,40930,A
Sprite,Foreground,Centre,"storyboard\ring.png",0,0 M,0,40291,40331,303,257,293.0148,247.1702 F,2,40291,41411,0.15,0 S,2,40291,41411,0.3,0.6 P,0,40291,41411,A M,0,40331,40371,293.0148,247.1702,281.8843,238.6798 M,0,40371,40411,281.8843,238.6798,269.3306,232.4741 M,0,40411,40451,269.3306,232.4741,256.048,228.1283 M,0,40451,40491,256.048,228.1283,242.2164,225.9019 M,0,40491,40531,242.2164,225.9019,228.2208,226.4357 M,0,40531,40571,228.2208,226.4357,214.4553,228.8811 M,0,40571,40611,214.4553,228.8811,202,233
Sprite,Foreground,Centre,"storyboard\ring.png",134,284 F,2,40772,41572,0.15,0 S,2,40772,41572,0.3,0.6 P,0,40772,41572,A
Sprite,Foreground,Centre,"storyboard\ring.png",0,0 M,0,40933,40973,181,354,194.9594,352.3006 F,2,40933,42053,0.15,0 S,2,40933,42053,0.3,0.6 P,0,40933,42053,A M,0,40973,41013,194.9594,352.3006,208.9189,350.6012 M,0,41013,41053,208.9189,350.6012,222.8783,348.9018 M,0,41053,41093,222.8783,348.9018,236.8378,347.2024 M,0,41093,41133,236.8378,347.2024,250.7972,345.503 M,0,41133,41173,250.7972,345.503,264.7566,343.8035 M,0,41173,41213,264.7566,343.8035,278.7161,342.1041 M,0,41213,41253,278.7161,342.1041,292.6755,340.4047
Sprite,Foreground,Centre,"storyboard\ring.png",369,376 F,2,41414,42214,0.15,0 S,2,41414,42214,0.3,0.6 P,0,41414,42214,A
Sprite,Foreground,Centre,"storyboard\ring.png",0,0 M,0,41574,41614,445,341,451.1136,328.336 F,2,41574,42694,0.15,0 S,2,41574,42694,0.3,0.6 P,0,41574,42694,A M,0,41614,41654,451.1136,328.336,457.2273,315.672 M,0,41654,41694,457.2273,315.672,456.7461,302.2727 M,0,41694,41734,456.7461,302.2727,453.5718,288.5731 M,0,41734,41774,453.5718,288.5731,450.3975,274.8736 M,0,41774,41814,450.3975,274.8736,447.2232,261.174 M,0,41814,41854,447.2232,261.174,444.049,247.4745 M,0,41854,41894,444.049,247.4745,440.8747,233.7749
Sprite,Foreground,Centre,"storyboard\ring.png",0,0 M,0,42216,42256,306,110,291.9466,109.7771 F,2,42216,43336,0.15,0 S,2,42216,43336,0.3,0.6 P,0,42216,43336,A M,0,42256,42296,291.9466,109.7771,278.015,111.5485 M,0,42296,42336,278.015,111.5485,264.7534,116.1304 M,0,42336,42376,264.7534,116.1304,252.5601,123.1185 M,0,42376,42416,252.5601,123.1185,240.3095,130.0018 M,0,42416,42456,240.3095,130.0018,226.9978,134.4441 M,0,42456,42496,226.9978,134.4441,213.0615,136.1937 M,0,42496,42536,213.0615,136.1937,199.0067,136.0612
Sprite,Foreground,Centre,"storyboard\ring.png",115,123 F,2,42697,43497,0.15,0 S,2,42697,43497,0.3,0.6 P,0,42697,43497,A
Sprite,Foreground,Centre,"storyboard\ring.png",0,0 M,0,42858,42898,115,123,117.735,136.794 F,2,42858,44299,0.15,0 S,2,42858,44299,0.3,0.6 P,0,42858,44299,A M,0,42898,42938,117.735,136.794,120.47,150.5879 M,0,42938,42978,120.47,150.5879,123.205,164.3819 M,0,42978,43018,123.205,164.3819,125.94,178.1759 M,0,43018,43058,125.94,178.1759,128.675,191.9698 M,0,43058,43098,128.675,191.9698,131.4101,205.7638 M,0,43098,43138,131.4101,205.7638,134.1451,219.5578 M,0,43138,43178,134.1451,219.5578,136.8801,233.3518 M,0,43178,43218,136.8801,233.3518,134.1451,219.5578 M,0,43218,43259,134.1451,219.5578,131.4101,205.7638 M,0,43259,43299,131.4101,205.7638,128.675,191.9699 M,0,43299,43339,128.675,191.9699,125.94,178.1759 M,0,43339,43379,125.94,178.1759,123.205,164.3819 M,0,43379,43419,123.205,164.3819,120.47,150.588 M,0,43419,43459,120.47,150.588,117.735,136.794 M,0,43459,43499,117.735,136.794,115,123
Sprite,Foreground,Centre,"storyboard\Partyu-nukamiso\77-glow.png",190,80 F,0,65318,,0 P,0,65318,,A F,1,65318,65959,1,0 S,1,65318,65959,0.16,0.24
Sprite,Foreground,Centre,"storyboard\Partyu-nukamiso\77.png",190,80 F,0,65318,,0,1 S,0,65318,,0.16 P,0,65318,,A F,0,70131,70451,1,0
Sprite,Foreground,Centre,"storyboard\Partyu-nukamiso\97-glow.png",204.4,80 F,0,65318,,0 P,0,65358,,A F,1,65358,65999,1,0 S,1,65358,65999,0.16,0.24
Sprite,Foreground,Centre,"storyboard\Partyu-nukamiso\97.png",204.4,80 F,0,65358,,0,1 S,0,65358,,0.16 P,0,65358,,A F,0,70131,70451,1,0
Sprite,Foreground,Centre,"storyboard\Partyu-nukamiso\112-glow.png",218.8,80 F,0,65318,,0 P,0,65398,,A F,1,65398,66039,1,0 S,1,65398,66039,0.16,0.24
Sprite,Foreground,Centre,"storyboard\Partyu-nukamiso\112.png",218.8,80 F,0,65398,,0,1 S,0,65398,,0.16 P,0,65398,,A F,0,70131,70451,1,0
Sprite,Foreground,Centre,"storyboard\Partyu-nukamiso\112-glow.png",233.2,80 F,0,65318,,0 P,0,65438,,A F,1,65438,66079,1,0 S,1,65438,66079,0.16,0.24
Sprite,Foreground,Centre,"storyboard\Partyu-nukamiso\112.png",233.2,80 F,0,65438,,0,1 S,0,65438,,0.16 P,0,65438,,A F,0,70131,70451,1,0
Sprite,Foreground,Centre,"storyboard\Partyu-nukamiso\101-glow.png",247.6,80 F,0,65318,,0 P,0,65478,,A F,1,65478,66119,1,0 S,1,65478,66119,0.16,0.24
Sprite,Foreground,Centre,"storyboard\Partyu-nukamiso\101.png",247.6,80 F,0,65478,,0,1 S,0,65478,,0.16 P,0,65478,,A F,0,70131,70451,1,0
Sprite,Foreground,Centre,"storyboard\Partyu-nukamiso\100-glow.png",262,80 F,0,65318,,0 P,0,65518,,A F,1,65518,66159,1,0 S,1,65518,66159,0.16,0.24
Sprite,Foreground,Centre,"storyboard\Partyu-nukamiso\100.png",262,80 F,0,65518,,0,1 S,0,65518,,0.16 P,0,65518,,A F,0,70131,70451,1,0
Sprite,Foreground,Centre,"storyboard\Partyu-nukamiso\98-glow.png",290.8,80 F,0,65318,,0 P,0,65598,,A F,1,65598,66239,1,0 S,1,65598,66239,0.16,0.24
Sprite,Foreground,Centre,"storyboard\Partyu-nukamiso\98.png",290.8,80 F,0,65598,,0,1 S,0,65598,,0.16 P,0,65598,,A F,0,70131,70451,1,0
Sprite,Foreground,Centre,"storyboard\Partyu-nukamiso\121-glow.png",305.2,80 F,0,65318,,0 P,0,65638,,A F,1,65638,66279,1,0 S,1,65638,66279,0.16,0.24
Sprite,Foreground,Centre,"storyboard\Partyu-nukamiso\121.png",305.2,80 F,0,65638,,0,1 S,0,65638,,0.16 P,0,65638,,A F,0,70131,70451,1,0
Sprite,Foreground,Centre,"storyboard\Partyu-nukamiso\72-glow.png",334,80 F,0,65318,,0 P,0,65718,,A F,1,65718,66359,1,0 S,1,65718,66359,0.16,0.24
Sprite,Foreground,Centre,"storyboard\Partyu-nukamiso\72.png",334,80 F,0,65718,,0,1 S,0,65718,,0.16 P,0,65718,,A F,0,70131,70451,1,0
Sprite,Foreground,Centre,"storyboard\Partyu-nukamiso\97-glow.png",348.4,80 F,0,65318,,0 P,0,65758,,A F,1,65758,66399,1,0 S,1,65758,66399,0.16,0.24
Sprite,Foreground,Centre,"storyboard\Partyu-nukamiso\97.png",348.4,80 F,0,65758,,0,1 S,0,65758,,0.16 P,0,65758,,A F,0,70131,70451,1,0
Sprite,Foreground,Centre,"storyboard\Partyu-nukamiso\98-glow.png",362.8,80 F,0,65318,,0 P,0,65798,,A F,1,65798,66439,1,0 S,1,65798,66439,0.16,0.24
Sprite,Foreground,Centre,"storyboard\Partyu-nukamiso\98.png",362.8,80 F,0,65798,,0,1 S,0,65798,,0.16 P,0,65798,,A F,0,70131,70451,1,0
Sprite,Foreground,Centre,"storyboard\Partyu-nukamiso\105-glow.png",377.2,80 F,0,65318,,0 P,0,65838,,A F,1,65838,66479,1,0 S,1,65838,66479,0.16,0.24
Sprite,Foreground,Centre,"storyboard\Partyu-nukamiso\105.png",377.2,80 F,0,65838,,0,1 S,0,65838,,0.16 P,0,65838,,A F,0,70131,70451,1,0
Sprite,Foreground,Centre,"storyboard\Partyu-nukamiso\72-glow.png",391.6,80 F,0,65318,,0 P,0,65878,,A F,1,65878,66519,1,0 S,1,65878,66519,0.16,0.24
Sprite,Foreground,Centre,"storyboard\Partyu-nukamiso\72.png",391.6,80 F,0,65878,,0,1 S,0,65878,,0.16 P,0,65878,,A F,0,70131,70451,1,0
Sprite,Foreground,Centre,"storyboard\Partyu-nukamiso\111-glow.png",406,80 F,0,65318,,0 P,0,65918,,A F,1,65918,66559,1,0 S,1,65918,66559,0.16,0.24
Sprite,Foreground,Centre,"storyboard\Partyu-nukamiso\111.png",406,80 F,0,65918,,0,1 S,0,65918,,0.16 P,0,65918,,A F,0,70131,70451,1,0
Sprite,Foreground,Centre,"storyboard\Partyu-nukamiso\108-glow.png",420.4,80 F,0,65318,,0 P,0,65958,,A F,1,65958,66599,1,0 S,1,65958,66599,0.16,0.24
Sprite,Foreground,Centre,"storyboard\Partyu-nukamiso\108.png",420.4,80 F,0,65958,,0,1 S,0,65958,,0.16 P,0,65958,,A F,0,70131,70451,1,0
Sprite,Foreground,Centre,"storyboard\Partyu-nukamiso\105-glow.png",434.8,80 F,0,65318,,0 P,0,65998,,A F,1,65998,66639,1,0 S,1,65998,66639,0.16,0.24
Sprite,Foreground,Centre,"storyboard\Partyu-nukamiso\105.png",434.8,80 F,0,65998,,0,1 S,0,65998,,0.16 P,0,65998,,A F,0,70131,70451,1,0
Sprite,Foreground,Centre,"storyboard\Partyu-nukamiso\99-glow.png",449.2,80 F,0,65318,,0 P,0,66038,,A F,1,66038,66679,1,0 S,1,66038,66679,0.16,0.24
Sprite,Foreground,Centre,"storyboard\Partyu-nukamiso\99.png",449.2,80 F,0,66038,,0,1 S,0,66038,,0.16 P,0,66038,,A F,0,70131,70451,1,0
Sprite,Foreground,Centre,"storyboard\Partyu-nukamiso\83-glow.png",104,123 F,0,65318,,0 P,0,66078,,A F,1,66078,66719,1,0 S,1,66078,66719,0.16,0.24
Sprite,Foreground,Centre,"storyboard\Partyu-nukamiso\83.png",104,123 F,0,66078,,0,1 S,0,66078,,0.16 P,0,66078,,A F,0,70131,70451,1,0
Sprite,Foreground,Centre,"storyboard\Partyu-nukamiso\116-glow.png",118.4,123 F,0,65318,,0 P,0,66118,,A F,1,66118,66759,1,0 S,1,66118,66759,0.16,0.24
Sprite,Foreground,Centre,"storyboard\Partyu-nukamiso\116.png",118.4,123 F,0,66118,,0,1 S,0,66118,,0.16 P,0,66118,,A F,0,70131,70451,1,0
Sprite,Foreground,Centre,"storyboard\Partyu-nukamiso\111-glow.png",132.8,123 F,0,65318,,0 P,0,66158,,A F,1,66158,66799,1,0 S,1,66158,66799,0.16,0.24
Sprite,Foreground,Centre,"storyboard\Partyu-nukamiso\111.png",132.8,123 F,0,66158,,0,1 S,0,66158,,0.16 P,0,66158,,A F,0,70131,70451,1,0
Sprite,Foreground,Centre,"storyboard\Partyu-nukamiso\114-glow.png",147.2,123 F,0,65318,,0 P,0,66198,,A F,1,66198,66839,1,0 S,1,66198,66839,0.16,0.24
Sprite,Foreground,Centre,"storyboard\Partyu-nukamiso\114.png",147.2,123 F,0,66198,,0,1 S,0,66198,,0.16 P,0,66198,,A F,0,70131,70451,1,0
Sprite,Foreground,Centre,"storyboard\Partyu-nukamiso\121-glow.png",161.6,123 F,0,65318,,0 P,0,66238,,A F,1,66238,66879,1,0 S,1,66238,66879,0.16,0.24
Sprite,Foreground,Centre,"storyboard\Partyu-nukamiso\121.png",161.6,123 F,0,66238,,0,1 S,0,66238,,0.16 P,0,66238,,A F,0,70131,70451,1,0
Sprite,Foreground,Centre,"storyboard\Partyu-nukamiso\98-glow.png",176,123 F,0,65318,,0 P,0,66278,,A F,1,66278,66919,1,0 S,1,66278,66919,0.16,0.24
Sprite,Foreground,Centre,"storyboard\Partyu-nukamiso\98.png",176,123 F,0,66278,,0,1 S,0,66278,,0.16 P,0,66278,,A F,0,70131,70451,1,0
Sprite,Foreground,Centre,"storyboard\Partyu-nukamiso\111-glow.png",190.4,123 F,0,65318,,0 P,0,66318,,A F,1,66318,66959,1,0 S,1,66318,66959,0.16,0.24
Sprite,Foreground,Centre,"storyboard\Partyu-nukamiso\111.png",190.4,123 F,0,66318,,0,1 S,0,66318,,0.16 P,0,66318,,A F,0,70131,70451,1,0
Sprite,Foreground,Centre,"storyboard\Partyu-nukamiso\97-glow.png",204.8,123 F,0,65318,,0 P,0,66358,,A F,1,66358,66999,1,0 S,1,66358,66999,0.16,0.24
Sprite,Foreground,Centre,"storyboard\Partyu-nukamiso\97.png",204.8,123 F,0,66358,,0,1 S,0,66358,,0.16 P,0,66358,,A F,0,70131,70451,1,0
Sprite,Foreground,Centre,"storyboard\Partyu-nukamiso\114-glow.png",219.2,123 F,0,65318,,0 P,0,66398,,A F,1,66398,67039,1,0 S,1,66398,67039,0.16,0.24
Sprite,Foreground,Centre,"storyboard\Partyu-nukamiso\114.png",219.2,123 F,0,66398,,0,1 S,0,66398,,0.16 P,0,66398,,A F,0,70131,70451,1,0
Sprite,Foreground,Centre,"storyboard\Partyu-nukamiso\100-glow.png",233.6,123 F,0,65318,,0 P,0,66438,,A F,1,66438,67079,1,0 S,1,66438,67079,0.16,0.24
Sprite,Foreground,Centre,"storyboard\Partyu-nukamiso\100.png",233.6,123 F,0,66438,,0,1 S,0,66438,,0.16 P,0,66438,,A F,0,70131,70451,1,0
Sprite,Foreground,Centre,"storyboard\Partyu-nukamiso\101-glow.png",248,123 F,0,65318,,0 P,0,66478,,A F,1,66478,67119,1,0 S,1,66478,67119,0.16,0.24
Sprite,Foreground,Centre,"storyboard\Partyu-nukamiso\101.png",248,123 F,0,66478,,0,1 S,0,66478,,0.16 P,0,66478,,A F,0,70131,70451,1,0
Sprite,Foreground,Centre,"storyboard\Partyu-nukamiso\100-glow.png",262.4,123 F,0,65318,,0 P,0,66518,,A F,1,66518,67159,1,0 S,1,66518,67159,0.16,0.24
Sprite,Foreground,Centre,"storyboard\Partyu-nukamiso\100.png",262.4,123 F,0,66518,,0,1 S,0,66518,,0.16 P,0,66518,,A F,0,70131,70451,1,0
Sprite,Foreground,Centre,"storyboard\Partyu-nukamiso\98-glow.png",291.2,123 F,0,65318,,0 P,0,66598,,A F,1,66598,67239,1,0 S,1,66598,67239,0.16,0.24
Sprite,Foreground,Centre,"storyboard\Partyu-nukamiso\98.png",291.2,123 F,0,66598,,0,1 S,0,66598,,0.16 P,0,66598,,A F,0,70131,70451,1,0
Sprite,Foreground,Centre,"storyboard\Partyu-nukamiso\121-glow.png",305.6,123 F,0,65318,,0 P,0,66638,,A F,1,66638,67279,1,0 S,1,66638,67279,0.16,0.24
Sprite,Foreground,Centre,"storyboard\Partyu-nukamiso\121.png",305.6,123 F,0,66638,,0,1 S,0,66638,,0.16 P,0,66638,,A F,0,70131,70451,1,0
Sprite,Foreground,Centre,"storyboard\Partyu-nukamiso\45-glow.png",334.4,123 F,0,65318,,0 P,0,66718,,A F,1,66718,67359,1,0 S,1,66718,67359,0.16,0.24
Sprite,Foreground,Centre,"storyboard\Partyu-nukamiso\45.png",334.4,123 F,0,66718,,0,1 S,0,66718,,0.16 P,0,66718,,A F,0,70131,70451,1,0
Sprite,Foreground,Centre,"storyboard\Partyu-nukamiso\65-glow.png",348.8,123 F,0,65318,,0 P,0,66758,,A F,1,66758,67399,1,0 S,1,66758,67399,0.16,0.24
Sprite,Foreground,Centre,"storyboard\Partyu-nukamiso\65.png",348.8,123 F,0,66758,,0,1 S,0,66758,,0.16 P,0,66758,,A F,0,70131,70451,1,0
Sprite,Foreground,Centre,"storyboard\Partyu-nukamiso\100-glow.png",363.2,123 F,0,65318,,0 P,0,66798,,A F,1,66798,67439,1,0 S,1,66798,67439,0.16,0.24
Sprite,Foreground,Centre,"storyboard\Partyu-nukamiso\100.png",363.2,123 F,0,66798,,0,1 S,0,66798,,0.16 P,0,66798,,A F,0,70131,70451,1,0
Sprite,Foreground,Centre,"storyboard\Partyu-nukamiso\121-glow.png",377.6,123 F,0,65318,,0 P,0,66838,,A F,1,66838,67479,1,0 S,1,66838,67479,0.16,0.24
Sprite,Foreground,Centre,"storyboard\Partyu-nukamiso\121.png",377.6,123 F,0,66838,,0,1 S,0,66838,,0.16 P,0,66838,,A F,0,70131,70451,1,0
Sprite,Foreground,Centre,"storyboard\Partyu-nukamiso\97-glow.png",406.4,123 F,0,65318,,0 P,0,66918,,A F,1,66918,67559,1,0 S,1,66918,67559,0.16,0.24
Sprite,Foreground,Centre,"storyboard\Partyu-nukamiso\97.png",406.4,123 F,0,66918,,0,1 S,0,66918,,0.16 P,0,66918,,A F,0,70131,70451,1,0
Sprite,Foreground,Centre,"storyboard\Partyu-nukamiso\110-glow.png",420.8,123 F,0,65318,,0 P,0,66958,,A F,1,66958,67599,1,0 S,1,66958,67599,0.16,0.24
Sprite,Foreground,Centre,"storyboard\Partyu-nukamiso\110.png",420.8,123 F,0,66958,,0,1 S,0,66958,,0.16 P,0,66958,,A F,0,70131,70451,1,0
Sprite,Foreground,Centre,"storyboard\Partyu-nukamiso\100-glow.png",435.2,123 F,0,65318,,0 P,0,66998,,A F,1,66998,67639,1,0 S,1,66998,67639,0.16,0.24
Sprite,Foreground,Centre,"storyboard\Partyu-nukamiso\100.png",435.2,123 F,0,66998,,0,1 S,0,66998,,0.16 P,0,66998,,A F,0,70131,70451,1,0
Sprite,Foreground,Centre,"storyboard\Partyu-nukamiso\80-glow.png",464,123 F,0,65318,,0 P,0,67078,,A F,1,67078,67719,1,0 S,1,67078,67719,0.16,0.24
Sprite,Foreground,Centre,"storyboard\Partyu-nukamiso\80.png",464,123 F,0,67078,,0,1 S,0,67078,,0.16 P,0,67078,,A F,0,70131,70451,1,0
Sprite,Foreground,Centre,"storyboard\Partyu-nukamiso\97-glow.png",478.4,123 F,0,65318,,0 P,0,67118,,A F,1,67118,67759,1,0 S,1,67118,67759,0.16,0.24
Sprite,Foreground,Centre,"storyboard\Partyu-nukamiso\97.png",478.4,123 F,0,67118,,0,1 S,0,67118,,0.16 P,0,67118,,A F,0,70131,70451,1,0
Sprite,Foreground,Centre,"storyboard\Partyu-nukamiso\114-glow.png",492.8,123 F,0,65318,,0 P,0,67158,,A F,1,67158,67799,1,0 S,1,67158,67799,0.16,0.24
Sprite,Foreground,Centre,"storyboard\Partyu-nukamiso\114.png",492.8,123 F,0,67158,,0,1 S,0,67158,,0.16 P,0,67158,,A F,0,70131,70451,1,0
Sprite,Foreground,Centre,"storyboard\Partyu-nukamiso\116-glow.png",507.2,123 F,0,65318,,0 P,0,67198,,A F,1,67198,67839,1,0 S,1,67198,67839,0.16,0.24
Sprite,Foreground,Centre,"storyboard\Partyu-nukamiso\116.png",507.2,123 F,0,67198,,0,1 S,0,67198,,0.16 P,0,67198,,A F,0,70131,70451,1,0
Sprite,Foreground,Centre,"storyboard\Partyu-nukamiso\121-glow.png",521.6,123 F,0,65318,,0 P,0,67238,,A F,1,67238,67879,1,0 S,1,67238,67879,0.16,0.24
Sprite,Foreground,Centre,"storyboard\Partyu-nukamiso\121.png",521.6,123 F,0,67238,,0,1 S,0,67238,,0.16 P,0,67238,,A F,0,70131,70451,1,0
Sprite,Foreground,Centre,"storyboard\Partyu-nukamiso\117-glow.png",536,123 F,0,65318,,0 P,0,67278,,A F,1,67278,67919,1,0 S,1,67278,67919,0.16,0.24
Sprite,Foreground,Centre,"storyboard\Partyu-nukamiso\117.png",536,123 F,0,67278,,0,1 S,0,67278,,0.16 P,0,67278,,A F,0,70131,70451,1,0
//Storyboard Layer 4 (Overlay)
//Storyboard Sound Samples

[TimingPoints]
1147,320.855614973262,4,2,1,50,1,0
3713,-133.333333333333,4,2,1,50,0,0
24248,-250,4,2,1,50,0,0
34195,-250,4,2,1,30,0,0
34515,-133.333333333333,4,2,1,40,0,0
42858,-133.333333333333,4,2,1,30,0,0
44783,-100,4,2,1,70,0,0
63392,-100,4,2,1,50,0,0
64034,-100,4,2,1,70,0,0
73018,-100,4,2,2,70,0,0
73339,-100,4,2,1,70,0,0
84248,-100,4,2,1,50,0,0
85852,-133.333333333333,4,2,1,40,0,0
94676,-100,4,2,1,40,0,0
96120,-100,4,2,1,70,0,0
96360,-100,4,2,1,70,0,0
96441,-100,4,2,1,70,0,0
104462,-100,4,2,1,50,0,0
105745,-100,4,2,1,50,0,0
106387,-100,4,2,1,40,0,0
108633,-100,4,2,1,30,0,0

[Colours]
Combo1 : 255,230,151
Combo2 : 0,255,255
Combo3 : 149,202,255
Combo4 : 255,191,232

[HitObjects]
30,54,3713,6,0,P|84:47|132:75,1,112.500004291535,8|0,0:3|0:0,0:0:0:0:
206,127,4195,1,0,0:0:0:0:
206,127,4355,2,0,L|328:109,1,112.500004291535,8|0,0:0|0:0,0:0:0:0:
394,58,4836,1,0,0:0:0:0:
456,119,4997,6,0,P|474:170|458:223,1,112.500004291535
387,278,5478,2,0,L|327:264,1,56.2500021457673
254,310,5799,2,0,L|194:296,1,56.2500021457673,8|0,0:3|0:0,0:0:0:0:
118,336,6120,1,0,0:0:0:0:
118,336,6280,6,0,L|97:220,1,112.500004291535,8|0,0:3|0:0,0:0:0:0:
150,150,6761,1,0,0:0:0:0:
220,202,6922,2,0,B|282:193|267:227|332:216,1,112.500004291535,8|0,0:0|0:0,0:0:0:0:
409,174,7403,1,0,0:0:0:0:
409,174,7483,1,0,0:0:0:0:
409,174,7564,6,0,L|430:52,2,112.500004291535
299,327,8526,2,0,L|244:311,1,56.2500021457673
162,347,8847,6,0,L|137:227,1,112.500004291535,8|0,0:3|0:0,0:0:0:0:
183,157,9328,1,0,0:0:0:0:
183,157,9489,2,0,P|236:148|276:185,1,112.500004291535,8|0,0:0|0:0,0:0:0:0:
309,269,9970,1,0,0:0:0:0:
309,269,10050,1,0,0:0:0:0:
309,269,10130,6,0,L|424:252,2,112.500004291535,2|0|0,0:0|0:0|0:0,0:0:0:0:
140,334,11093,2,0,P|107:321|79:311,1,56.2500021457673
23,249,11414,6,0,L|135:227,1,112.500004291535,8|0,0:3|0:0,0:0:0:0:
209,179,11895,1,0,0:0:0:0:
209,179,12056,2,0,L|319:206,1,112.500004291535,8|0,0:0|0:0,0:0:0:0:
401,170,12537,6,0,P|421:118|413:63,1,112.500004291535
338,12,13018,1,0,0:0:0:0:
257,52,13179,2,0,L|191:37,1,56.2500021457673,0|8,0:0|0:0,0:0:0:0:
124,85,13499,1,0,0:0:0:0:
124,85,13580,1,8,0:0:0:0:
124,85,13660,2,0,L|138:139,1,56.2500021457673,0|8,0:0|0:0,0:0:0:0:
165,226,13981,5,8,0:3:0:0:
247,179,14141,2,0,B|312:179|287:141|360:141,1,112.500004291535,8|0,0:3|0:0,0:0:0:0:
423,193,14622,2,0,L|403:305,1,112.500004291535,8|0,0:0|0:0,0:0:0:0:
324,349,15104,1,0,0:0:0:0:
324,349,15184,1,0,0:0:0:0:
324,349,15264,6,0,P|279:317|224:315,1,112.500004291535
146,263,15745,2,0,L|158:209,1,56.2500021457673
72,178,16066,2,0,L|84:124,1,56.2500021457673,8|0,0:3|0:0,0:0:0:0:
150,59,16387,1,0,0:0:0:0:
223,111,16548,6,0,P|277:114|321:81,1,112.500004291535,8|0,0:3|0:0,0:0:0:0:
400,37,17029,1,0,0:0:0:0:
471,96,17189,2,0,B|457:131|457:131|475:207,1,112.500004291535,8|0,0:0|0:0,0:0:0:0:
409,267,17671,1,0,0:0:0:0:
409,267,17751,1,0,0:0:0:0:
409,267,17831,6,0,L|344:254,1,56.2500021457673
312,177,18152,2,0,L|183:194,1,112.500004291535,0|8,0:0|0:0,0:0:0:0:
107,175,18633,1,8,0:3:0:0:
107,175,18713,1,8,0:3:0:0:
107,175,18794,2,0,L|123:234,1,56.2500021457673,8|8,0:0|0:0,0:0:0:0:
154,317,19114,6,0,P|99:319|53:288,1,112.500004291535,8|0,0:3|0:0,0:0:0:0:
81,201,19596,2,0,P|136:198|182:229,1,112.500004291535
245,294,20077,1,0,0:0:0:0:
327,258,20237,1,0,0:0:0:0:
327,258,20318,1,0,0:0:0:0:
327,258,20398,2,0,L|348:142,1,112.500004291535,2|0,0:0|0:0,0:0:0:0:
207,28,21040,5,8,0:3:0:0:
207,28,21200,1,8,0:3:0:0:
137,84,21360,2,0,L|150:149,1,56.2500021457673
171,223,21681,6,0,B|239:221|219:193|279:193,1,112.500004291535,8|0,0:3|0:0,0:0:0:0:
358,227,22163,1,8,0:0:0:0:
358,227,22243,1,0,0:0:0:0:
358,227,22323,2,0,L|378:106,1,112.500004291535,0|8,0:0|0:0,0:0:0:0:
320,44,22804,1,8,0:0:0:0:
320,44,22884,1,8,0:0:0:0:
320,44,22965,1,4,0:0:0:0:
4,95,24248,6,0,L|20:189,1,90,12|0,0:3|0:0,0:0:0:0:
59,249,24890,2,0,P|89:246|117:256,1,60
189,273,25371,1,0,0:0:0:0:
189,273,25532,2,0,L|202:207,1,60
101,33,26173,2,0,P|109:62|114:92,1,60
196,130,26655,1,8,0:3:0:0:
255,54,26815,6,0,L|322:44,1,60,8|0,0:3|0:0,0:0:0:0:
376,92,27296,1,0,0:0:0:0:
376,92,27457,2,0,L|368:128,1,30
415,184,27778,2,0,L|407:220,1,30
438,284,28098,5,0,0:0:0:0:
289,332,28419,1,0,0:0:0:0:
151,258,28740,1,0,0:0:0:0:
148,101,29061,1,0,0:0:0:0:
289,34,29382,6,0,P|333:32|370:57,1,90,12|0,0:3|0:0,0:0:0:0:
447,46,30024,2,0,L|437:110,1,60
337,245,30665,6,0,L|274:255,1,60
224,197,31146,2,0,L|234:164,1,30
181,88,31467,2,0,L|173:117,2,30,0|0|8,0:0|0:0|0:3,0:0:0:0:
250,50,31949,6,0,P|293:41|331:62,1,90,8|0,0:3|0:0,0:0:0:0:
409,62,32590,2,0,L|403:93,3,30
446,172,33232,5,0,0:0:0:0:
304,29,33553,1,0,0:0:0:0:
113,89,33874,1,2,0:0:0:0:
92,278,34195,1,2,0:0:0:0:
266,365,34515,6,0,P|323:365|366:331,1,112.500004291535,12|8,0:3|0:3,0:0:0:0:
397,253,34997,1,0,0:0:0:0:
333,198,35157,2,0,B|273:197|289:228|221:228,1,112.500004291535,8|8,0:3|0:3,0:0:0:0:
152,186,35638,1,0,0:0:0:0:
74,225,35799,6,0,L|57:107,2,112.500004291535,8|8|8,0:3|0:3|0:3,0:0:0:0:
191,349,36761,2,0,P|215:337|243:335,1,56.2500021457673,8|0,0:3|0:0,0:0:0:0:
311,284,37082,6,0,P|353:316|411:310,1,112.500004291535,8|8,0:3|0:3,0:0:0:0:
473,254,37564,1,0,0:0:0:0:
473,254,37724,2,0,L|483:199,1,56.2500021457673,8|0,0:3|0:0,0:0:0:0:
418,104,38045,2,0,L|408:159,1,56.2500021457673,8|0,0:3|0:0,0:0:0:0:
334,202,38366,6,0,B|271:203|294:226|223:224,2,112.500004291535,8|8|8,0:3|0:3|0:3,0:0:0:0:
411,48,39328,2,0,P|384:54|357:47,1,56.2500021457673,8|0,0:3|0:0,0:0:0:0:
270,20,39649,6,0,L|286:135,1,112.500004291535,12|8,0:3|0:3,0:0:0:0:
239,201,40130,1,0,0:0:0:0:
239,201,40291,2,0,P|193:172|138:177,1,112.500004291535,8|8,0:3|0:3,0:0:0:0:
70,228,40772,1,0,0:0:0:0:
117,298,40933,6,0,L|232:284,1,112.500004291535,8|8,0:3|0:3,0:0:0:0:
305,320,41414,1,0,0:0:0:0:
381,285,41574,2,0,B|395:256|395:256|376:174,1,112.500004291535,8|8,0:3|0:3,0:0:0:0:
242,54,42216,6,0,B|183:50|195:84|134:80,1,112.500004291535,8|10,0:3|0:3,0:0:0:0:
51,67,42697,1,2,0:0:0:0:
51,67,42858,2,0,L|74:183,2,112.500004291535,10|10|14,0:3|0:3|0:3,0:0:0:0:
38,327,44783,6,0,P|94:281|165:296,1,150,12|8,0:3|0:1,0:0:0:0:
251,325,45264,2,0,L|266:248,1,75,0|8,0:0|0:3,0:0:0:0:
191,198,45585,2,0,L|206:121,1,75,8|8,0:3|0:1,0:0:0:0:
275,67,45906,6,0,B|356:50|333:99|423:79,1,150,8|8,0:3|0:3,0:0:0:0:
495,27,46387,1,8,0:1:0:0:
495,214,46708,2,0,P|457:213|423:228,1,75,8|8,0:3|0:3,0:0:0:0:
351,173,47029,2,0,L|362:95,1,75,8|0,0:1|0:0,0:0:0:0:
299,32,47350,6,0,P|225:29|169:77,1,150,8|8,0:3|0:1,0:0:0:0:
79,79,47831,1,0,0:0:0:0:
79,79,47991,2,0,L|96:154,1,75,8|8,0:3|0:3,0:0:0:0:
49,229,48312,1,8,0:1:0:0:
109,295,48473,6,0,B|186:294|174:252|256:252,1,150,8|8,0:3|0:3,0:0:0:0:
324,303,48954,1,8,0:1:0:0:
408,272,49114,1,0,0:0:0:0:
408,272,49195,1,0,0:0:0:0:
408,272,49275,2,0,L|424:196,1,75,8|8,0:3|0:3,0:0:0:0:
337,57,49596,2,0,L|352:130,1,75,8|8,0:1|0:3,0:0:0:0:
296,200,49917,6,0,B|230:185|230:185|209:188|209:188|149:174,1,150,12|8,0:3|0:1,0:0:0:0:
76,121,50398,1,0,0:0:0:0:
8,180,50558,2,0,P|15:216|18:254,1,75,8|8,0:3|0:3,0:0:0:0:
76,323,50879,1,8,0:1:0:0:
154,279,51040,6,0,P|228:279|286:331,1,150,8|8,0:3|0:3,0:0:0:0:
368,295,51521,2,0,L|398:138,1,150,8|8,0:1|0:3,0:0:0:0:
327,90,52002,1,8,0:3:0:0:
291,173,52163,2,0,L|207:151,1,75,8|0,0:1|0:0,0:0:0:0:
134,123,52483,6,0,B|120:205|167:184|145:269,1,150,8|8,0:3|0:1,0:0:0:0:
200,340,52965,2,0,P|260:296|334:296,1,150,0|8,0:0|0:3,0:0:0:0:
413,340,53446,1,8,0:1:0:0:
493,299,53606,6,0,B|479:275|456:260|456:260|479:159,1,150,8|8,0:3|0:3,0:0:0:0:
500,78,54088,1,8,0:1:0:0:
326,30,54409,6,0,L|283:38,3,37.5,10|2|2|2,0:3|0:0|0:0|0:0,0:0:0:0:
244,41,54729,2,0,L|170:23,1,75,10|2,0:1|0:0,0:0:0:0:
95,72,55050,6,0,B|75:163|129:131|102:219,1,150,14|8,0:3|0:1,0:0:0:0:
172,274,55532,2,0,P|228:228|302:227,1,150,0|8,0:0|0:3,0:0:0:0:
378,275,56013,1,8,0:1:0:0:
458,235,56173,2,0,L|494:84,1,150,8|8,0:3|0:3,0:0:0:0:
439,24,56655,1,8,0:1:0:0:
319,188,56975,2,0,L|336:264,1,75,8|8,0:3|0:3,0:0:0:0:
259,346,57296,2,0,L|242:272,1,75,8|0,0:1|0:0,0:0:0:0:
177,195,57617,6,0,P|105:204|57:150,1,150,8|8,0:3|0:1,0:0:0:0:
95,67,58098,2,0,P|166:58|214:112,1,150,0|8,0:0|0:3,0:0:0:0:
290,162,58580,1,8,0:1:0:0:
290,162,58740,2,0,B|372:167|351:118|434:118,1,150,8|8,0:3|0:3,0:0:0:0:
492,182,59221,1,8,0:1:0:0:
436,253,59382,1,0,0:0:0:0:
436,253,59462,1,0,0:0:0:0:
436,253,59542,2,0,L|352:239,1,75,8|8,0:3|0:3,0:0:0:0:
278,275,59863,1,8,0:1:0:0:
14,148,60184,6,0,B|48:176|48:176|20:289,1,150,12|8,0:3|0:1,0:0:0:0:
83,345,60665,1,0,0:0:0:0:
162,302,60826,2,0,P|207:308|235:316,1,75,8|8,0:3|0:3,0:0:0:0:
314,273,61146,1,8,0:1:0:0:
384,329,61307,6,0,L|415:181,1,150,12|8,0:3|0:3,0:0:0:0:
351,115,61788,2,0,P|315:111|280:124,1,75,8|0,0:1|0:0,0:0:0:0:
195,93,62109,1,8,0:3:0:0:
195,93,62269,2,0,L|222:248,1,150,8|8,0:3|0:3,0:0:0:0:
189,326,62751,6,0,B|103:327|129:287|42:286,2,150,12|10|10,0:3|0:1|0:3,0:0:0:0:
269,360,63553,1,10,0:3:0:0:
346,323,63713,2,0,L|362:248,1,75,10|10,0:1|0:3,0:0:0:0:
377,169,64034,5,6,0:0:0:0:
42,51,65318,6,0,P|18:121|45:190,1,150,12|8,0:3|0:1,0:0:0:0:
118,243,65799,1,0,0:0:0:0:
190,189,65959,2,0,L|230:203,3,37.5,10|2|10|2,0:3|0:0|0:3|0:0,0:0:0:0:
252,234,66280,2,0,L|330:218,1,75,10|10,0:1|0:3,0:0:0:0:
413,166,66601,6,0,P|419:123|409:92,2,75,2|8|8,0:0|0:3|0:1,0:0:0:0:
469,236,67082,1,0,0:0:0:0:
469,236,67243,2,0,P|459:271|465:308,2,75,8|8|8,0:3|0:3|0:1,0:0:0:0:
379,249,67724,1,0,0:0:0:0:
379,249,67804,1,0,0:0:0:0:
379,249,67884,6,0,L|223:220,1,150,8|10,0:3|0:1,0:0:0:0:
68,136,68526,2,0,P|65:96|57:61,2,75,10|10|8,0:3|0:3|0:1,0:0:0:0:
18,211,69007,2,0,P|76:167|147:183,1,150,8|8,0:3|0:3,0:0:0:0:
186,208,69409,1,0,0:0:0:0:
186,208,69489,2,0,L|202:131,1,75,8|0,0:1|0:0,0:0:0:0:
216,47,69810,1,8,0:3:0:0:
288,100,69970,1,10,0:3:0:0:
361,47,70130,2,0,P|398:46|430:63,1,75,10|8,0:1|0:3,0:0:0:0:
496,125,70451,6,0,L|470:281,1,150,12|8,0:3|0:1,0:0:0:0:
410,340,70933,1,2,0:0:0:0:
410,340,71013,1,2,0:0:0:0:
410,340,71093,2,0,L|373:332,3,37.5,10|2|10|2,0:3|0:0|0:3|0:0,0:0:0:0:
333,353,71414,2,0,L|296:345,3,37.5,10|2|10|2,0:1|0:0|0:3|0:0,0:0:0:0:
253,360,71735,6,0,L|100:337,1,150,2|8,0:0|0:1,0:0:0:0:
48,267,72216,1,0,0:0:0:0:
48,267,72296,1,0,0:0:0:0:
48,267,72376,2,0,L|29:185,1,75,0|8,0:0|0:3,0:0:0:0:
103,106,72697,2,0,L|120:180,1,75,8|8,0:1|0:3,0:0:0:0:
188,239,73018,6,0,B|278:241|246:191|334:192,1,150,10|8,0:3|0:1,0:0:0:0:
406,233,73499,1,0,0:0:0:0:
489,197,73660,2,0,P|500:157|489:122,2,75,8|8|10,0:3|0:3|0:1,0:0:0:0:
406,233,74141,1,10,0:3:0:0:
465,300,74302,5,14,0:3:0:0:
377,321,74462,1,10,0:3:0:0:
377,321,74542,1,2,0:0:0:0:
377,321,74622,2,0,L|331:309,3,37.5,10|2|2|2,0:1|0:0|0:0|0:0,0:0:0:0:
301,333,74943,2,0,L|255:321,3,37.5,10|10|10|2,0:3|0:3|0:1|0:0,0:0:0:0:
223,341,75264,2,0,L|142:323,1,75,10|10,0:3|0:3,0:0:0:0:
53,253,75585,6,0,L|204:228,1,150,12|10,0:3|0:1,0:0:0:0:
267,166,76066,1,2,0:0:0:0:
267,166,76227,2,0,P|307:170|340:178,1,75,10|10,0:3|0:3,0:0:0:0:
428,155,76548,1,10,0:1:0:0:
428,155,76708,6,0,L|397:310,1,150,10|10,0:3|0:3,0:0:0:0:
320,347,77189,2,0,P|261:301|188:301,1,150,10|2,0:1|0:0,0:0:0:0:
110,349,77671,1,10,0:3:0:0:
36,297,77831,2,0,L|23:220,1,75,10|2,0:1|0:0,0:0:0:0:
84,156,78152,6,0,B|171:141|137:195|227:178,2,150,14|10|10,0:3|0:1|0:3,0:0:0:0:
17,94,78954,1,8,0:3:0:0:
17,94,79114,1,8,0:1:0:0:
89,40,79275,6,0,B|176:25|142:79|232:62,1,150,8|8,0:3|0:3,0:0:0:0:
312,21,79756,1,8,0:1:0:0:
392,61,79917,1,0,0:0:0:0:
392,61,79997,1,0,0:0:0:0:
392,61,80077,2,0,L|372:142,1,75,8|8,0:3|0:3,0:0:0:0:
439,196,80398,2,0,L|419:277,1,75,8|0,0:1|0:0,0:0:0:0:
408,311,80638,1,0,0:0:0:0:
408,311,80719,6,0,P|351:264|279:271,1,150,12|10,0:3|0:1,0:0:0:0:
202,319,81200,1,2,0:0:0:0:
202,319,81280,1,2,0:0:0:0:
202,319,81360,2,0,L|123:297,1,75,10|8,0:3|0:3,0:0:0:0:
35,293,81681,1,8,0:1:0:0:
68,203,81842,5,8,0:3:0:0:
68,203,81922,1,0,0:0:0:0:
68,203,82002,2,0,L|144:191,2,75,0|8|8,0:0|0:3|0:1,0:0:0:0:
13,124,82483,2,0,L|165:101,1,150,0|8,0:0|0:3,0:0:0:0:
242,44,82965,2,0,L|280:54,3,37.5,10|2|2|2,0:1|0:0|0:0|0:0,0:0:0:0:
314,81,83286,6,0,B|397:60|373:112|460:81,2,150,14|8|10,0:3|0:1|0:3,0:0:0:0:
229,115,84088,1,10,0:3:0:0:
229,115,84168,1,2,0:0:0:0:
229,115,84248,2,0,L|239:158,4,37.5,10|2|10|2|14,0:1|0:0|0:3|0:0|0:3,0:0:0:0:
256,192,84649,12,0,85532,0:0:0:0:
162,347,85852,6,0,L|137:227,1,112.500004291535,8|0,0:3|0:0,0:0:0:0:
183,157,86334,1,0,0:0:0:0:
183,157,86494,2,0,P|236:148|276:185,1,112.500004291535,2|0,0:0|0:0,0:0:0:0:
309,269,86975,1,2,0:0:0:0:
309,269,87055,1,0,0:0:0:0:
309,269,87136,6,0,L|424:252,2,112.500004291535
232,318,87938,1,8,0:3:0:0:
232,318,88098,2,0,L|169:302,1,56.2500021457673
92,233,88419,6,0,L|204:211,1,112.500004291535,8|0,0:3|0:0,0:0:0:0:
283,171,88900,1,0,0:0:0:0:
283,171,89061,2,0,L|393:198,1,112.500004291535,8|0,0:0|0:0,0:0:0:0:
475,162,89542,6,0,P|495:110|487:55,1,112.500004291535
400,15,90023,1,0,0:0:0:0:
209,71,90344,1,8,0:0:0:0:
209,71,90505,1,8,0:3:0:0:
134,131,90665,2,0,L|148:185,1,56.2500021457673
179,270,90986,5,8,0:3:0:0:
261,223,91146,2,0,B|326:223|301:185|374:185,1,112.500004291535,8|0,0:3|0:0,0:0:0:0:
437,237,91628,2,0,L|417:349,1,112.500004291535,8|0,0:0|0:0,0:0:0:0:
325,350,92109,1,2,0:0:0:0:
325,350,92189,1,0,0:0:0:0:
325,350,92269,6,0,P|280:318|225:316,1,112.500004291535
146,263,92751,1,0,0:0:0:0:
146,263,92911,2,0,L|158:209,1,56.2500021457673,8|8,0:3|0:3,0:0:0:0:
72,178,93232,2,0,L|84:124,1,56.2500021457673
103,34,93553,5,12,0:3:0:0:
479,347,94676,6,0,P|420:297|351:297,1,150,12|8,0:3|0:3,0:0:0:0:
268,334,95157,1,8,0:1:0:0:
96,279,95478,2,0,L|89:240,3,37.5,10|2|10|2,0:3|0:0|0:3|0:0,0:0:0:0:
52,215,95799,2,0,L|45:176,3,37.5,10|2|2|2,0:1|0:0|0:0|0:0,0:0:0:0:
40,132,96120,6,0,P|112:138|161:85,1,150,14|8,0:3|0:1,0:0:0:0:
231,28,96601,1,0,0:0:0:0:
308,78,96761,2,0,L|389:66,2,75,8|0|8,0:3|0:0|0:1,0:0:0:0:
270,160,97243,6,0,L|191:143,1,75,0|8,0:0|0:3,0:0:0:0:
99,120,97564,2,0,P|106:156|112:193,1,75,0|8,0:0|0:1,0:0:0:0:
65,269,97884,1,0,0:0:0:0:
134,326,98045,2,0,L|208:312,1,75,8|0,0:3|0:0,0:0:0:0:
290,348,98366,1,8,0:1:0:0:
454,267,98687,6,0,L|479:114,1,150,12|8,0:3|0:1,0:0:0:0:
418,49,99168,2,0,P|381:50|347:65,1,75,0|8,0:0|0:3,0:0:0:0:
259,45,99489,2,0,L|278:120,1,75,0|8,0:0|0:1,0:0:0:0:
265,207,99810,6,0,B|344:207|328:167|407:166,1,150
477,221,100291,1,8,0:1:0:0:
345,344,100612,1,8,0:3:0:0:
275,286,100772,1,8,0:3:0:0:
209,349,100933,2,0,L|124:329,1,75,8|0,0:1|0:0,0:0:0:0:
36,261,101253,6,0,L|190:237,1,150,12|8,0:3|0:1,0:0:0:0:
239,165,101735,2,0,P|280:174|314:185,1,75,0|8,0:0|0:3,0:0:0:0:
374,248,102056,2,0,P|409:236|446:228,1,75,8|8,0:3|0:1,0:0:0:0:
433,351,102376,6,0,L|285:321,1,150,0|0,0:3|0:0,0:0:0:0:
218,260,102858,2,0,P|224:223|232:186,1,75,8|0,0:1|0:0,0:0:0:0:
127,83,103179,2,0,P|134:119|141:156,1,75,8|8,0:3|0:3,0:0:0:0:
227,89,103499,2,0,P|282:86|323:50,1,112.5,8|0,0:1|0:0,0:0:0:0:
348,26,103820,6,0,P|421:18|477:65,2,150,12|10|10,0:3|0:1|0:3,0:0:0:0:
244,184,104783,2,0,L|165:171,1,75,10|2,0:3|0:0,0:0:0:0:
80,157,105104,1,14,0:3:0:0:
256,192,106387,12,2,108633,0:0:0:0:
