osu file format v14

[General]
AudioFilename: audio.mp3
AudioLeadIn: 0
PreviewTime: 72801
Countdown: 0
SampleSet: Soft
StackLeniency: 0.5
Mode: 0
LetterboxInBreaks: 0
EpilepsyWarning: 1
WidescreenStoryboard: 1

[Editor]
DistanceSpacing: 1
BeatDivisor: 2
GridSize: 16
TimelineZoom: 1.3

[Metadata]
Title:Arousing
TitleUnicode:Arousing
Artist:DJ TOTTO feat. Yoshikawa Sunao
ArtistUnicode:DJ TOTTO feat. 吉河順央
Creator:- Matha -
Version:Normal
Source:jubeat saucer
Tags:REFLEC BEAT colette spring GIDZ Starfy Deppyforce Bite you death Link Deppy Avena Priti byd smau5 starforyou
BeatmapID:1389012
BeatmapSetID:652525

[Difficulty]
HPDrainRate:3
CircleSize:3.5
OverallDifficulty:4
ApproachRate:5
SliderMultiplier:0.999999999999999
SliderTickRate:1

[Events]
//Background and Video events
0,0,"BG.jpg",0,0
//Break Periods
2,48029,57355
//Storyboard Layer 0 (Background)
Sprite,Background,Centre,"sb\halfRing.png",0,0 M,0,25036,,422,392 F,0,25036,,1 C,0,25036,,255,255,255 S,0,25036,26436,0.3,1 R,22,25036,26436,0,-40 F,0,25037,26437,1,0
//Storyboard Layer 1 (Fail)
//Storyboard Layer 2 (Pass)
//Storyboard Layer 3 (Foreground)
//Storyboard Sound Samples

[TimingPoints]
902,335.195530726257,4,2,1,50,1,0
3583,-100,4,2,1,30,0,0
14309,-100,4,2,1,50,0,0
73304,-100,4,2,1,70,0,1
100119,-100,4,2,1,60,0,0
115036,-100,4,2,1,5,0,0

[Colours]
Combo1 : 184,162,244
Combo2 : 96,204,244
Combo3 : 245,165,254
Combo4 : 119,242,159

[HitObjects]
64,114,3583,6,0,B|97:94|97:94|175:104,1,99.9999999999999,6|2,0:0|0:0,0:0:0:0:
197,193,4253,2,0,B|230:213|230:213|308:203,1,99.9999999999999,8|0,0:0|0:0,0:0:0:0:
340,195,4756,2,0,L|351:80,2,99.9999999999999,0|0|2,0:0|0:0|0:0,0:0:0:0:
335,244,5594,1,8,0:0:0:0:
162,345,6265,6,0,P|113:321|51:318,1,99.9999999999999,2|2,0:0|0:0,0:0:0:0:
98,220,6935,2,0,P|147:244|209:247,1,99.9999999999999,8|8,0:0|0:0,0:0:0:0:
232,219,7438,2,0,L|224:97,1,99.9999999999999,2|8,0:0|0:0,0:0:0:0:
219,69,7941,1,0,0:0:0:0:
219,69,8108,2,0,L|318:78,1,99.9999999999999,0|2,0:0|0:0,0:0:0:0:
417,92,8779,1,2,0:0:0:0:
417,92,8946,6,0,B|455:125|455:125|442:217,1,99.9999999999999,6|0,0:0|0:0,0:0:0:0:
352,204,9617,2,0,L|363:340,1,99.9999999999999,8|0,0:0|0:0,0:0:0:0:
272,352,10287,2,0,P|194:315|71:345,1,200,2|0,0:0|0:0,0:0:0:0:
29,252,11293,1,2,0:0:0:0:
35,152,11628,6,0,B|12:42|12:42|122:24|122:24|144:71|144:71|194:46|194:46|262:72,1,400
201,152,13304,5,8,0:0:0:0:
288,200,13639,2,0,B|313:199|313:199|324:191|324:191|396:188,1,99.9999999999999,2|12,0:0|0:0,0:0:0:0:
465,129,14309,6,0,P|480:156|485:189,1,50,6|0,0:0|0:0,0:0:0:0:
466,221,14645,2,0,L|471:331,1,99.9999999999999,8|2,0:0|0:0,0:0:0:0:
436,357,15147,2,0,B|412:349|412:349|402:351|402:351|391:347|391:347|325:350,1,99.9999999999999,0|0,0:0|0:0,0:0:0:0:
288,351,15650,1,2,0:0:0:0:
203,297,15985,2,0,B|179:302|157:282|157:282|142:310|91:326,2,99.9999999999999,8|0|8,0:0|0:0|0:0,0:0:0:0:
276,228,16991,6,0,P|283:162|161:145,1,200,2|2,0:0|0:0,0:0:0:0:
94,193,17996,1,8,0:0:0:0:
45,105,18332,2,0,L|41:36,2,50,2|2|8,0:0|0:0|0:0,0:0:0:0:
94,193,19002,1,2,0:0:0:0:
21,379,19672,6,0,P|41:370|80:368,1,50,6|0,0:0|0:0,0:0:0:0:
98,325,20008,2,0,L|212:334,1,99.9999999999999,8|0,0:0|0:0,0:0:0:0:
292,341,20678,2,0,L|295:374,2,33.3333333333333,8|0|0,0:0|0:0|0:0,0:0:0:0:
301,308,21013,2,0,L|293:189,1,99.9999999999999,2|8,0:0|0:0,0:0:0:0:
349,124,21684,2,0,L|414:126,2,50,0|2|8,0:0|0:0|0:0,0:0:0:0:
268,65,22354,6,0,P|192:63|60:84,1,200,2|2,0:0|0:0,0:0:0:0:
42,123,23192,2,0,L|51:185,1,50,2|8,0:0|0:0,0:0:0:0:
82,209,23527,2,0,B|80:225|80:225|83:231|83:231|74:243|74:243|76:313,1,99.9999999999999,2|0,0:0|0:0,0:0:0:0:
80,355,24030,1,8,0:0:0:0:
167,307,24365,2,0,B|197:293|197:293|286:317,1,99.9999999999999,8|8,0:0|0:0,0:0:0:0:
358,336,25036,5,2,0:0:0:0:
427,263,25371,2,0,L|417:198,2,50,8|0|8,0:0|0:0|0:0,0:0:0:0:
358,336,26041,1,0,0:0:0:0:
285,267,26376,6,0,L|296:145,1,99.9999999999999,2|8,0:0|0:0,0:0:0:0:
224,34,27214,1,2,0:0:0:0:
224,34,27382,2,0,L|137:45,1,50,8|0,0:0|0:0,0:0:0:0:
140,76,27717,2,0,L|19:60,2,99.9999999999999,2|8|0,0:0|0:0|0:0,0:0:0:0:
158,122,28555,2,0,L|161:204,1,50,2|8,0:0|0:0,0:0:0:0:
227,245,29058,6,0,P|266:218|363:220,1,99.9999999999999,2|8,0:0|0:0,0:0:0:0:
405,255,29728,2,0,L|399:366,1,99.9999999999999,0|8,0:0|0:0,0:0:0:0:
301,375,30399,2,0,L|225:360,1,50,2|2,0:0|0:0,0:0:0:0:
203,353,30734,1,8,0:0:0:0:
132,282,31069,2,0,L|63:290,2,50,0|2|8,0:0|0:0|0:0,0:0:0:0:
172,252,31572,1,2,0:0:0:0:
172,252,31739,6,0,B|141:214|141:214|161:128,1,99.9999999999999,6|8,0:0|0:0,0:0:0:0:
275,78,32577,1,2,0:0:0:0:
275,78,32745,2,0,L|340:89,1,50,8|0,0:0|0:0,0:0:0:0:
360,121,33080,2,0,L|365:240,1,99.9999999999999,2|8,0:0|0:0,0:0:0:0:
397,315,33751,2,0,L|457:308,2,50,0|2|8,0:0|0:0|0:0,0:0:0:0:
359,347,34253,6,0,L|246:338,1,99.9999999999999,0|0,0:0|0:0,0:0:0:0:
209,334,34756,1,8,0:0:0:0:
162,245,35091,2,0,L|163:188,2,50,2|2|8,0:0|0:0|0:0,0:0:0:0:
117,268,35594,2,0,P|67:237|55:172,1,99.9999999999999,2|2,0:0|0:0,0:0:0:0:
30,155,36097,2,0,L|40:48,1,99.9999999999999,8|8,0:0|0:0,0:0:0:0:
131,17,36767,1,8,0:0:0:0:
189,98,37103,6,0,P|243:111|310:63,1,99.9999999999999,6|8,0:0|0:0,0:0:0:0:
341,14,37773,2,0,L|454:27,1,99.9999999999999,0|8,0:0|0:0,0:0:0:0:
483,115,38443,2,0,L|466:182,1,50,2|0,0:0|0:0,0:0:0:0:
428,191,38779,2,0,L|441:301,1,99.9999999999999,8|0,0:0|0:0,0:0:0:0:
411,331,39281,2,0,L|349:319,1,50,2|8,0:0|0:0,0:0:0:0:
296,245,39784,6,0,P|236:252|197:300,1,99.9999999999999,2|8,0:0|0:0,0:0:0:0:
145,355,40455,2,0,P|86:339|60:286,1,99.9999999999999,0|8,0:0|0:0,0:0:0:0:
27,216,41125,2,0,L|34:147,1,50,2|2,0:0|0:0,0:0:0:0:
38,116,41460,1,8,0:0:0:0:
120,59,41795,2,0,L|127:3,2,50,0|2|8,0:0|0:0|0:0,0:0:0:0:
147,101,42298,1,0,0:0:0:0:
147,101,42466,6,0,L|264:90,1,99.9999999999999,2|8,0:0|0:0,0:0:0:0:
318,161,43136,1,0,0:0:0:0:
416,141,43471,2,0,L|490:154,1,50,8|0,0:0|0:0,0:0:0:0:
502,183,43807,2,0,L|494:297,1,99.9999999999999,2|8,0:0|0:0,0:0:0:0:
400,314,44477,2,0,L|406:369,2,50,0|2|8,0:0|0:0|0:0,0:0:0:0:
374,270,44980,6,0,P|317:265|255:341,1,150,0|8,0:0|0:0,0:0:0:0:
161,357,45818,2,0,L|85:347,2,50,0|2|8,0:0|0:0|0:0,0:0:0:0:
182,312,46320,2,0,L|173:148,1,150,2|8,0:0|0:0,0:0:0:0:
112,83,47158,2,0,P|150:60|241:85,1,99.9999999999999,2|8,0:0|0:0,0:0:0:0:
289,113,47829,5,2,0:0:0:0:
95,299,58555,6,0,P|135:321|196:235,1,150,6|0,0:0|0:0,0:0:0:0:
197,209,59226,2,0,B|234:212|234:212|239:207|239:207|265:217|265:217|347:226,1,150,8|0,0:0|0:0,0:0:0:0:
442,228,60064,2,0,L|443:153,1,50,2|0,0:0|0:0,0:0:0:0:
403,85,60566,2,0,B|304:56|346:116|211:78,1,150,8|0,0:0|0:0,0:0:0:0:
214,58,61237,6,0,L|101:69,1,99.9999999999999,2|0,0:0|0:0,0:0:0:0:
69,156,61907,2,0,L|4:166,2,50,8|0|0,0:0|0:0|0:0,0:0:0:0:
111,181,62410,1,2,0:0:0:0:
111,181,62577,2,2,L|128:304,1,99.9999999999999
135,329,63080,1,0,0:0:0:0:
135,329,63248,2,0,L|246:310,1,99.9999999999999,8|0,0:0|0:0,0:0:0:0:
312,373,63918,6,0,P|398:341|350:259,1,200,6|8,0:0|0:0,0:0:0:0:
278,206,64924,2,0,L|285:135,1,50
292,106,65259,2,0,B|319:123|319:123|418:121,2,99.9999999999999
220,35,66265,1,0,0:0:0:0:
126,69,66600,6,0,L|121:189,1,99.9999999999999,2|8,0:0|0:0,0:0:0:0:
167,258,67270,2,0,L|171:357,1,99.9999999999999,0|8,0:0|0:0,0:0:0:0:
270,342,67941,2,0,B|309:327|309:327|385:338,1,99.9999999999999,2|8,0:0|0:0,0:0:0:0:
410,245,68611,2,0,B|371:260|371:260|295:249,1,99.9999999999999,0|8,0:0|0:0,0:0:0:0:
249,173,69281,6,0,L|238:90,1,50,8|2,0:0|0:0,0:0:0:0:
233,73,69617,1,8,0:0:0:0:
143,118,69952,1,8,0:0:0:0:
43,106,70287,2,0,L|51:194,1,50,8|2,0:0|0:0,0:0:0:0:
256,192,70622,12,0,71963,0:0:0:0:
116,300,73304,6,0,P|156:279|229:286,1,99.9999999999999,6|8,0:0|0:0,0:0:0:0:
253,302,73807,1,0,0:0:0:0:
253,302,73974,2,0,L|361:287,1,99.9999999999999,2|8,0:0|0:0,0:0:0:0:
435,232,74645,2,0,L|445:115,1,99.9999999999999,2|8,0:0|0:0,0:0:0:0:
427,85,75147,1,0,0:0:0:0:
427,85,75315,2,0,L|344:90,2,50,2|2|8,0:0|0:0|0:0,0:0:0:0:
359,11,75985,6,0,L|231:14,1,99.9999999999999,2|8,0:0|0:0,0:0:0:0:
216,40,76488,1,2,0:0:0:0:
216,40,76656,2,0,P|232:92|224:163,1,99.9999999999999,2|8,0:0|0:0,0:0:0:0:
144,187,77326,2,0,L|151:271,1,50,0|2,0:0|0:0,0:0:0:0:
153,286,77661,2,0,L|271:269,1,99.9999999999999,8|0,0:0|0:0,0:0:0:0:
294,245,78164,1,2,0:0:0:0:
294,245,78332,2,0,L|364:251,1,50,8|0,0:0|0:0,0:0:0:0:
388,271,78667,5,2,0:0:0:0:
464,206,79002,6,0,L|450:98,1,99.9999999999999,12|0,0:0|0:0,0:0:0:0:
412,75,79505,2,0,L|342:68,1,50,0|8,0:0|0:0,0:0:0:0:
323,101,79840,1,0,0:0:0:0:
323,101,80008,2,0,L|331:170,2,50,2|0|8,0:0|0:0|0:0,0:0:0:0:
234,147,80678,2,0,L|139:139,2,74.9999999999999,2|2|2,0:0|0:0|0:0,0:0:0:0:
246,195,81348,6,0,L|258:317,1,99.9999999999999,2|8,0:0|0:0,0:0:0:0:
242,342,81851,1,0,0:0:0:0:
242,342,82019,2,0,L|174:338,2,50,2|2|8,0:0|0:0|0:0,0:0:0:0:
340,356,82689,2,0,L|451:333,1,99.9999999999999,2|8,0:0|0:0,0:0:0:0:
508,264,83360,1,2,0:0:0:0:
445,185,83695,1,8,0:0:0:0:
491,96,84030,6,0,P|429:79|369:119,1,99.9999999999999,6|8,0:0|0:0,0:0:0:0:
365,129,84533,1,0,0:0:0:0:
365,129,84700,2,0,L|243:119,1,99.9999999999999,2|8,0:0|0:0,0:0:0:0:
213,30,85371,2,0,L|95:51,1,99.9999999999999,2|8,0:0|0:0,0:0:0:0:
78,81,85874,1,0,0:0:0:0:
78,81,86041,2,0,L|16:96,2,50,2|2|8,0:0|0:0|0:0,0:0:0:0:
134,163,86712,6,0,L|126:271,1,99.9999999999999,2|8,0:0|0:0,0:0:0:0:
122,312,87214,1,0,0:0:0:0:
122,312,87382,2,0,P|170:293|252:306,1,99.9999999999999,2|8,0:0|0:0,0:0:0:0:
296,356,88052,2,0,L|413:327,1,99.9999999999999,0|8,0:0|0:0,0:0:0:0:
465,262,88723,2,0,L|477:191,2,50,2|2|8,0:0|0:0|0:0,0:0:0:0:
393,331,89393,5,2,0:0:0:0:
313,269,89728,6,0,L|292:156,1,99.9999999999999,12|0,0:0|0:0,0:0:0:0:
249,148,90231,2,0,L|177:147,2,50,2|8|0,0:0|0:0|0:0,0:0:0:0:
273,104,90734,2,0,L|275:29,1,50,2|2,0:0|0:0,0:0:0:0:
274,3,91069,1,8,0:0:0:0:
176,26,91404,2,0,L|97:22,2,50,2|2|8,0:0|0:0|0:0,0:0:0:0:
274,3,92075,5,2,0:0:0:0:
368,34,92410,2,0,L|374:162,1,99.9999999999999,12|2,0:0|0:0,0:0:0:0:
295,182,93080,2,0,L|289:310,1,99.9999999999999,8|8,0:0|0:0,0:0:0:0:
271,328,93583,1,2,0:0:0:0:
271,328,93751,2,0,L|203:323,1,50,8|2,0:0|0:0,0:0:0:0:
181,293,94086,2,0,L|98:286,2,74.9999999999999,2|2|2,0:0|0:0|0:0,0:0:0:0:
205,249,94756,6,0,L|204:128,1,99.9999999999999,6|8,0:0|0:0,0:0:0:0:
200,99,95259,2,0,P|253:128|352:89,1,150,2|8,0:0|0:0,0:0:0:0:
427,66,96097,2,0,L|424:181,1,99.9999999999999,2|8,0:0|0:0,0:0:0:0:
440,213,96600,1,2,0:0:0:0:
440,213,96767,2,0,L|435:282,2,50,0|2|8,0:0|0:0|0:0,0:0:0:0:
340,200,97438,6,0,L|215:208,1,99.9999999999999,2|8,0:0|0:0,0:0:0:0:
194,226,97941,1,2,0:0:0:0:
194,226,98108,2,0,L|119:214,2,50,2|0|8,0:0|0:0|0:0,0:0:0:0:
216,270,98611,2,0,P|221:327|191:371,1,99.9999999999999,6|2,0:0|0:0,0:0:0:0:
152,376,99114,1,8,0:0:0:0:
65,326,99449,1,8,0:0:0:0:
45,227,99784,1,8,0:0:0:0:
91,138,100119,6,0,L|202:133,1,99.9999999999999,6|8,0:0|0:0,0:0:0:0:
261,62,100790,2,0,L|360:66,1,99.9999999999999,2|8,0:0|0:0,0:0:0:0:
433,135,101460,2,0,B|430:172|430:172|434:177|434:177|421:191|421:191|426:243,1,99.9999999999999,8|8,0:0|0:0,0:0:0:0:
447,325,102131,2,0,L|255:299,1,150,0|0,0:0|0:0,0:0:0:0:
251,322,102801,6,0,L|20:345,1,200,10|10,0:0|0:0,0:0:0:0:
13,249,103807,1,10,0:0:0:0:
102,204,104142,2,0,L|111:268,2,50,10|0|0,0:0|0:0|0:0,0:0:0:0:
128,161,104645,2,0,L|263:176,2,99.9999999999999,2|2|2,0:0|0:0|0:0,0:0:0:0:
113,113,105483,6,0,P|111:56|156:19,1,99.9999999999999,6|8,0:0|0:0,0:0:0:0:
187,18,105985,1,0,0:0:0:0:
187,18,106153,2,0,L|311:37,1,99.9999999999999,8|8,0:0|0:0,0:0:0:0:
327,61,106656,1,2,0:0:0:0:
327,61,106823,2,0,L|404:49,2,50,2|2|8,0:0|0:0|0:0,0:0:0:0:
272,144,107494,2,0,B|263:177|263:177|270:182|270:182|256:198|256:198|266:301,1,150,0|0,0:0|0:0,0:0:0:0:
272,332,108164,6,0,P|221:296|71:331,1,200,8|10,0:0|0:0,0:0:0:0:
14,377,109170,1,10,0:0:0:0:
3,277,109505,2,0,L|7:175,1,99.9999999999999,2|2,0:0|0:0,0:0:0:0:
38,82,110175,1,2,0:0:0:0:
129,123,110510,1,2,0:0:0:0:
214,71,110846,6,0,P|241:68|279:69,1,50,2|2,0:0|0:0,0:0:0:0:
360,94,111348,2,0,P|384:94|409:97,1,50,2|2,0:0|0:0,0:0:0:0:
463,181,111851,2,0,L|465:239,1,50,2|2,0:0|0:0,0:0:0:0:
365,246,112354,2,0,L|363:295,1,50,2|2,0:0|0:0,0:0:0:0:
284,358,112857,1,2,0:0:0:0:
208,292,113192,1,2,0:0:0:0:
135,222,113527,2,0,L|55:221,2,50,2|2|2,0:0|0:0|0:0,0:0:0:0:
175,187,114030,6,0,B|186:77|186:77|397:95,1,300,6|0,0:0|0:0,0:0:0:0:
