osu file format v14

[General]
AudioFilename: audio.mp3
AudioLeadIn: 0
PreviewTime: 72801
Countdown: 0
SampleSet: Soft
StackLeniency: 0.5
Mode: 0
LetterboxInBreaks: 0
EpilepsyWarning: 1
WidescreenStoryboard: 1

[Editor]
DistanceSpacing: 1
BeatDivisor: 4
GridSize: 16
TimelineZoom: 2.6

[Metadata]
Title:Arousing
TitleUnicode:Arousing
Artist:DJ TOTTO feat. Yoshikawa Sunao
ArtistUnicode:DJ TOTTO feat. 吉河順央
Creator:- Matha -
Version:Insane
Source:jubeat saucer
Tags:REFLEC BEAT colette spring GIDZ Starfy Deppyforce Bite you death Link Deppy Avena Priti byd smau5 starforyou
BeatmapID:1383606
BeatmapSetID:652525

[Difficulty]
HPDrainRate:6.4
CircleSize:4
OverallDifficulty:8
ApproachRate:9
SliderMultiplier:1.8
SliderTickRate:1

[Events]
//Background and Video events
0,0,"BG.jpg",0,0
//Break Periods
//Storyboard Layer 0 (Background)
Sprite,Background,Centre,"sb/halfRing.png",0,0 C,0,25036,,255,255,255 F,0,25036,,1 S,0,25036,26436,0.3,1 F,0,25037,26437,1,0 M,0,25036,,176,226 R,22,25036,26436,0,-40
//Storyboard Layer 1 (Fail)
//Storyboard Layer 2 (Pass)
//Storyboard Layer 3 (Foreground)
//Storyboard Sound Samples

[TimingPoints]
902,335.195530726257,4,2,1,20,1,0
1572,-142.857142857143,4,2,1,20,0,0
1907,-142.857142857143,4,2,1,5,0,0
2242,-142.857142857143,4,2,1,20,0,0
2577,-142.857142857143,4,2,1,5,0,0
2913,-142.857142857143,4,2,1,20,0,0
11293,-111.111111111111,4,2,1,30,0,0
11628,-142.857142857143,4,2,1,30,0,0
12969,-111.111111111111,4,2,1,40,0,0
13974,-83.3333333333333,4,2,1,50,0,0
14226,-83.3333333333333,4,2,1,5,0,0
14309,-100,4,2,1,50,0,0
19253,-100,4,2,1,5,0,0
19505,-100,4,2,1,50,0,0
19589,-100,4,2,1,5,0,0
19672,-100,4,2,1,50,0,0
20678,-83.3333333333333,4,2,1,50,0,0
21013,-100,4,2,1,50,0,0
22019,-142.857142857143,4,2,1,50,0,0
22270,-142.857142857143,4,2,1,5,0,0
22354,-100,4,2,1,50,0,0
23108,-100,4,2,1,5,0,0
23192,-83.3333333333333,4,2,1,50,0,0
23527,-100,4,2,1,50,0,0
23946,-100,4,2,1,5,0,0
24030,-100,4,2,1,50,0,0
24700,-66.6666666666667,4,2,1,50,0,0
24952,-66.6666666666667,4,2,1,5,0,0
25036,-100,4,2,1,50,0,0
26293,-100,4,2,1,5,0,0
26376,-100,4,2,1,50,0,0
34170,-100,4,2,1,5,0,0
34253,-100,4,2,1,50,0,0
35510,-100,4,2,1,5,0,0
35594,-100,4,2,1,50,0,0
44896,-100,4,2,1,5,0,0
44980,-100,4,2,1,50,0,0
47494,-66.6666666666667,4,2,1,50,0,0
47745,-66.6666666666667,4,2,1,5,0,0
47829,-142.857142857143,4,2,1,30,0,0
58471,-142.857142857143,4,2,1,5,0,0
58555,-142.857142857143,4,2,1,40,0,0
62689,-142.857142857143,4,2,1,5,0,0
62745,-142.857142857143,4,2,1,50,0,0
62857,-142.857142857143,4,2,1,5,0,0
62913,-142.857142857143,4,2,1,50,0,0
63024,-142.857142857143,4,2,1,5,0,0
63080,-142.857142857143,4,2,1,50,0,0
63164,-142.857142857143,4,2,1,5,0,0
63248,-142.857142857143,4,2,1,50,0,0
67270,-100,4,2,1,50,0,0
68024,-100,4,2,1,5,0,0
68108,-100,4,2,1,50,0,0
73304,-100,4,2,1,60,0,1
94253,-100,4,2,1,5,0,1
94337,-83.3333333333333,4,2,1,60,0,1
94505,-83.3333333333333,4,2,1,5,0,1
94589,-71.4285714285714,4,2,1,60,0,1
94672,-71.4285714285714,4,2,1,5,0,1
94756,-100,4,2,1,60,0,1
100119,-100,4,2,1,60,0,0
104728,-100,4,2,1,5,0,0
104980,-100,4,2,1,60,0,0
105064,-100,4,2,1,5,0,0
105315,-100,4,2,1,60,0,0
105399,-100,4,2,1,5,0,0
105483,-100,4,2,1,60,0,0
106404,-100,4,2,1,5,0,0
106488,-83.3333333333333,4,2,1,60,0,0
106823,-100,4,2,1,60,0,0
107494,-142.857142857143,4,2,1,60,0,0
108164,-100,4,2,1,60,0,0
108918,-100,4,2,1,5,0,0
109002,-83.3333333333333,4,2,1,60,0,0
109337,-100,4,2,1,60,0,0
114030,-166.666666666667,4,2,1,60,0,0
114700,-166.666666666667,4,2,1,5,0,0
115036,-166.666666666667,4,2,1,20,0,0

[Colours]
Combo1 : 184,162,244
Combo2 : 96,204,244
Combo3 : 245,165,254
Combo4 : 119,242,159

[HitObjects]
18,128,1572,6,0,B|77:150|77:150|131:134|131:134|214:162,1,188.999994232178
194,237,2242,2,0,P|258:219|253:102,1,188.999994232178
181,61,2913,2,0,P|227:28|345:67,1,188.999994232178
435,212,3583,6,0,L|428:293,1,62.9999980773926,4|0,0:0|0:0,0:0:0:0:
378,338,3918,1,2,0:0:0:0:
310,291,4086,1,2,0:0:0:0:
248,346,4253,2,0,P|216:336|176:344,1,62.9999980773926,8|0,0:0|0:0,0:0:0:0:
113,374,4589,1,2,0:0:0:0:
91,295,4756,6,0,L|94:205,1,62.9999980773926,2|0,0:0|0:0,0:0:0:0:
153,176,5091,2,0,L|150:86,1,62.9999980773926,2|0,0:0|0:0,0:0:0:0:
95,51,5427,1,2,0:0:0:0:
167,13,5594,2,0,P|231:18|275:64,1,125.999996154785,8|0,0:0|0:0,0:0:0:0:
254,175,6097,1,0,0:0:0:0:
254,175,6181,1,0,0:0:0:0:
254,175,6265,6,0,L|251:237,1,62.9999980773926,4|0,0:0|0:0,0:0:0:0:
321,279,6600,2,0,P|324:323|316:355,1,62.9999980773926,2|0,0:0|0:0,0:0:0:0:
244,313,6935,2,0,L|173:313,1,62.9999980773926,8|0,0:0|0:0,0:0:0:0:
146,237,7270,1,2,0:0:0:0:
69,268,7438,6,0,P|32:206|52:149,1,125.999996154785,2|0,0:0|0:0,0:0:0:0:
124,112,7941,1,2,0:0:0:0:
199,159,8108,2,0,P|210:219|175:269,1,125.999996154785,8|2,0:0|0:0,0:0:0:0:
123,199,8611,1,0,0:0:0:0:
266,304,8779,1,2,0:0:0:0:
266,304,8862,1,2,0:0:0:0:
266,304,8946,6,0,B|314:293|314:293|340:303|340:303|389:291,1,125.999996154785,6|0,0:0|0:0,0:0:0:0:
439,227,9449,1,2,0:0:0:0:
384,165,9617,2,0,P|359:99|399:45,1,125.999996154785,8|2,0:0|0:0,0:0:0:0:
443,109,10119,1,0,0:0:0:0:
468,185,10287,2,0,P|426:241|351:244,1,125.999996154785,2|0,0:0|0:0,0:0:0:0:
301,192,10790,2,0,B|223:188,1,62.9999980773926,2|8,0:0|0:0,0:0:0:0:
167,147,11125,1,0,0:0:0:0:
101,261,11293,6,0,L|98:359,1,80.9999975280763,2|0,0:0|0:0,0:0:0:0:
261,353,11628,6,0,B|307:359|341:329|341:329|372:357|397:362|397:362|416:331|454:324|454:324|456:267|416:242|373:250|373:250|416:276,1,377.999988464356,2|0,0:0|0:0,0:0:0:0:
445,77,12969,6,0,L|349:66,1,80.9999975280763,2|0,0:0|0:0,0:0:0:0:
199,162,13304,2,0,L|295:151,1,80.9999975280763,8|0,0:0|0:0,0:0:0:0:
144,56,13639,5,2,0:0:0:0:
107,40,13722,1,2,0:0:0:0:
68,48,13806,1,2,0:0:0:0:
40,77,13890,1,2,0:0:0:0:
33,116,13974,6,0,B|27:147|41:177|41:177|31:204|31:204|44:244|28:283,1,161.999995056153,6|0,0:0|0:0,0:0:0:0:
103,354,14309,6,0,P|152:346|193:311,1,90,6|0,0:0|0:0,0:0:0:0:
355,357,14645,2,0,P|310:351|274:325,1,90,8|0,0:0|0:0,0:0:0:0:
233,227,14980,1,0,0:0:0:0:
362,133,15147,2,0,L|347:27,1,90,2|8,0:0|0:0,0:0:0:0:
270,13,15483,2,0,P|251:8|217:14,1,45
156,133,15650,6,0,P|111:139|68:128,1,90,2|0,0:0|0:0,0:0:0:0:
62,293,15985,2,0,B|30:212|30:212|77:107,1,180,8|0,0:0|0:0,0:0:0:0:
37,24,16488,1,2,0:0:0:0:
150,51,16656,2,0,B|172:95|172:95|151:141,1,90,8|0,0:0|0:0,0:0:0:0:
185,271,16991,6,0,L|195:213,1,45,2|0,0:0|0:0,0:0:0:0:
217,277,17158,2,0,L|196:221,1,45,0|0,0:0|0:0,0:0:0:0:
249,277,17326,2,0,L|203:239,1,45,8|0,0:0|0:0,0:0:0:0:
275,261,17494,2,0,L|216:250,1,45,0|0,0:0|0:0,0:0:0:0:
349,227,17661,6,0,L|359:285,1,45,0|0,0:0|0:0,0:0:0:0:
381,220,17829,2,0,L|361:277,1,45,2|0,0:0|0:0,0:0:0:0:
413,221,17996,2,0,L|367:259,1,45,8|0,0:0|0:0,0:0:0:0:
439,237,18164,2,0,L|380:248,1,45,0|0,0:0|0:0,0:0:0:0:
430,330,18332,5,0,0:0:0:0:
512,206,18499,2,0,L|512:98,1,90,2|8,0:0|0:0,0:0:0:0:
348,43,18834,1,0,0:0:0:0:
400,174,19002,1,2,0:0:0:0:
254,128,19170,6,0,L|178:120,1,45,0|0,0:0|0:0,0:0:0:0:
275,200,19505,6,0,L|351:192,1,45,8|8,0:0|0:0,0:0:0:0:
131,90,19672,6,0,P|130:144|163:194,1,90,6|0,0:0|0:0,0:0:0:0:
334,112,20008,2,0,P|337:67|319:26,1,90,8|0,0:0|0:0,0:0:0:0:
254,203,20343,1,0,0:0:0:0:
417,161,20510,1,2,0:0:0:0:
346,287,20678,6,0,B|351:313|351:313|361:327|361:327|356:343|356:343|365:384,2,80.9999975280763,8|0|0,0:0|0:0|0:0,0:0:0:0:
254,203,21013,6,0,P|205:193|165:207,1,90,2|0,0:0|0:0,0:0:0:0:
115,352,21348,1,8,0:0:0:0:
85,198,21516,1,0,0:0:0:0:
212,272,21684,1,2,0:0:0:0:
39,283,21851,1,2,0:0:0:0:
129,127,22019,6,0,B|129:114|129:114|122:100|122:100|128:86|128:86|122:14,1,94.499997116089,8|0,0:0|0:0,0:0:0:0:
273,72,22354,6,0,P|274:94|265:118,1,45,2|0,0:0|0:0,0:0:0:0:
299,99,22522,2,0,P|285:116|263:129,1,45,0|0,0:0|0:0,0:0:0:0:
307,135,22689,2,0,P|285:139|260:135,1,45,8|0,0:0|0:0,0:0:0:0:
293,170,22857,2,0,P|273:159|257:140,1,45,0|0,0:0|0:0,0:0:0:0:
287,270,23024,6,0,P|309:271|333:262,1,45
384,366,23192,6,0,P|401:352|424:270,1,107.999996704102,2|8,0:0|0:0,0:0:0:0:
304,111,23527,2,0,P|314:130|388:167,1,90,2|0,0:0|0:0,0:0:0:0:
512,138,23862,1,2,0:0:0:0:
385,81,24030,1,8,0:0:0:0:
438,255,24198,1,2,0:0:0:0:
479,47,24365,1,8,0:0:0:0:
317,163,24533,1,2,0:0:0:0:
295,170,24617,1,2,0:0:0:0:
272,177,24700,6,0,B|191:183|140:145|152:62|201:38|242:71|200:127,1,202.500007724762,8|0,0:0|0:0,0:0:0:0:
112,170,25036,6,0,P|98:118|108:57,1,90,6|0,0:0|0:0,0:0:0:0:
224,0,25371,1,8,0:0:0:0:
323,107,25538,1,0,0:0:0:0:
181,126,25706,1,0,0:0:0:0:
181,126,25790,1,0,0:0:0:0:
181,126,25874,1,0,0:0:0:0:
375,41,26041,6,0,L|380:191,1,135,2|0,0:0|0:0,0:0:0:0:
332,245,26376,6,0,P|283:250|245:232,1,90,6|0,0:0|0:0,0:0:0:0:
253,68,26712,1,8,0:0:0:0:
379,175,26879,1,0,0:0:0:0:
181,183,27047,6,0,P|167:235|186:292,1,90,0|2,0:0|0:0,0:0:0:0:
324,342,27382,1,8,0:0:0:0:
288,229,27550,1,0,0:0:0:0:
191,355,27717,5,2,0:0:0:0:
191,355,27885,2,0,L|74:335,1,90,0|8,0:0|0:0,0:0:0:0:
288,229,28220,2,0,L|199:244,1,90
394,341,28555,2,0,L|305:325,1,90,2|8,0:0|0:0,0:0:0:0:
479,221,28890,1,0,0:0:0:0:
340,100,29058,6,0,P|290:89|235:113,1,90,2|0,0:0|0:0,0:0:0:0:
199,244,29393,1,8,0:0:0:0:
296,175,29561,1,0,0:0:0:0:
355,335,29728,6,0,P|390:342|449:317,1,90,0|2,0:0|0:0,0:0:0:0:
390,158,30064,1,8,0:0:0:0:
286,276,30231,1,0,0:0:0:0:
471,214,30399,5,0,0:0:0:0:
471,214,30566,2,0,P|487:156|468:101,1,90,2|8,0:0|0:0,0:0:0:0:
301,207,30902,2,0,P|349:172|408:171,1,90,0|2,0:0|0:0,0:0:0:0:
435,305,31237,1,2,0:0:0:0:
302,384,31404,2,0,P|305:336|293:272,1,90,8|0,0:0|0:0,0:0:0:0:
189,263,31739,2,0,B|176:217|176:217|216:118,1,135,2|0,0:0|0:0,0:0:0:0:
298,111,32075,6,0,B|261:91|249:56|249:56|206:61|206:61|174:27|119:28,1,180,8|0,0:0|0:0,0:0:0:0:
50,153,32577,1,2,0:0:0:0:
189,263,32745,2,0,B|202:217|202:217|177:147,1,90,8|0,0:0|0:0,0:0:0:0:
35,273,33080,5,2,0:0:0:0:
189,263,33248,1,0,0:0:0:0:
92,369,33415,1,8,0:0:0:0:
115,186,33583,1,0,0:0:0:0:
99,341,33751,1,0,0:0:0:0:
257,287,33918,1,2,0:0:0:0:
81,257,34086,2,0,L|29:239,1,45,8|0,0:0|0:0,0:0:0:0:
0,168,34253,6,0,P|10:120|65:67,1,90,0|2,0:0|0:0,0:0:0:0:
183,42,34589,1,0,0:0:0:0:
180,206,34756,1,8,0:0:0:0:
91,159,34924,1,0,0:0:0:0:
256,138,35091,1,2,0:0:0:0:
186,289,35259,1,2,0:0:0:0:
183,77,35427,2,0,P|200:60|234:48,1,45,8|0,0:0|0:0,0:0:0:0:
308,60,35594,6,0,L|308:172,1,90,2|0,0:0|0:0,0:0:0:0:
204,268,35929,1,2,0:0:0:0:
339,324,36097,2,0,B|350:279|350:279|339:234,1,90,8|0,0:0|0:0,0:0:0:0:
186,159,36432,2,0,B|175:201|175:201|186:246,1,90,8|2,0:0|0:0,0:0:0:0:
204,268,36684,1,2,0:0:0:0:
227,294,36767,2,0,B|237:336|237:336|226:381,1,90,8|0,0:0|0:0,0:0:0:0:
24,287,37103,5,4,0:0:0:0:
139,384,37270,1,0,0:0:0:0:
301,247,37438,2,0,P|261:220|191:219,1,90,8|0,0:0|0:0,0:0:0:0:
106,237,37773,2,0,L|108:121,1,90,0|2,0:0|0:0,0:0:0:0:
194,23,38108,1,8,0:0:0:0:
247,141,38276,1,0,0:0:0:0:
91,65,38443,5,2,0:0:0:0:
91,65,38611,2,0,P|44:91|26:137,1,90,0|8,0:0|0:0,0:0:0:0:
59,251,38946,2,0,P|106:225|124:179,1,90,0|0,0:0|0:0,0:0:0:0:
251,166,39281,2,0,P|204:140|186:94,1,90,2|8,0:0|0:0,0:0:0:0:
270,30,39617,1,0,0:0:0:0:
368,135,39784,6,0,L|363:251,1,90,2|0,0:0|0:0,0:0:0:0:
343,361,40119,1,8,0:0:0:0:
270,256,40287,1,0,0:0:0:0:
432,303,40455,6,0,P|466:262|462:206,1,90,0|2,0:0|0:0,0:0:0:0:
409,90,40790,1,8,0:0:0:0:
364,224,40957,1,0,0:0:0:0:
236,148,41125,5,0,0:0:0:0:
236,148,41293,2,0,P|280:129|337:142,1,90,2|8,0:0|0:0,0:0:0:0:
449,237,41628,2,0,P|408:219|347:231,1,90
229,308,41963,1,2,0:0:0:0:
398,384,42131,2,0,L|398:265,1,90,8|0,0:0|0:0,0:0:0:0:
367,135,42466,2,0,P|305:115|241:145,1,135,2|0,0:0|0:0,0:0:0:0:
273,216,42801,6,0,B|232:226|199:209|199:209|171:242|171:242|125:239|85:277,1,180,8|0,0:0|0:0,0:0:0:0:
26,333,43304,1,2,0:0:0:0:
0,185,43471,2,0,B|-5:139|-5:139|25:87,1,90,8|0,0:0|0:0,0:0:0:0:
211,69,43807,5,2,0:0:0:0:
76,154,43974,1,0,0:0:0:0:
199,216,44142,1,8,0:0:0:0:
100,41,44309,1,0,0:0:0:0:
187,192,44477,1,0,0:0:0:0:
0,185,44645,1,2,0:0:0:0:
159,113,44812,2,0,P|185:110|210:113,1,45,8|0,0:0|0:0,0:0:0:0:
279,165,44980,6,0,L|279:270,1,90,0|2,0:0|0:0,0:0:0:0:
210,356,45315,1,0,0:0:0:0:
381,344,45483,2,0,P|407:297|394:246,1,90,8|0,0:0|0:0,0:0:0:0:
228,200,45818,1,0,0:0:0:0:
314,280,45985,1,2,0:0:0:0:
324,124,46153,1,8,0:0:0:0:
221,288,46320,6,0,P|148:294|76:187,1,180,2|2,0:0|0:0,0:0:0:0:
168,95,46823,1,8,0:0:0:0:
274,210,46991,1,2,0:0:0:0:
294,249,47074,1,2,0:0:0:0:
299,294,47158,1,2,0:0:0:0:
283,335,47242,1,2,0:0:0:0:
250,365,47326,1,2,0:0:0:0:
206,374,47409,1,2,0:0:0:0:
162,361,47494,6,0,B|77:340|57:274|104:205|159:204|181:252|119:284,1,202.500007724762,8|0,0:0|0:0,0:0:0:0:
7,291,47829,6,0,B|9:241|9:241|19:218|19:218|21:157,1,125.999996154785,6|0,0:2|0:2,0:2:0:0:
75,78,48332,1,2,0:2:0:0:
137,164,48499,2,0,P|200:188|276:167,1,125.999996154785,8|2,0:2|0:2,0:2:0:0:
340,112,49002,6,0,L|345:193,1,62.9999980773926,0|0,0:2|0:2,0:2:0:0:
409,241,49337,2,0,L|404:322,1,62.9999980773926,2|0,0:2|0:2,0:2:0:0:
301,275,49672,1,2,0:2:0:0:
233,358,49840,2,0,P|163:358|126:303,1,125.999996154785,8|0,0:2|0:2,0:2:0:0:
144,212,50343,1,2,0:2:0:0:
25,203,50510,6,0,P|16:157|27:123,1,62.9999980773926,2|0,0:2|0:2,0:2:0:0:
110,83,50846,2,0,P|140:90|166:108,1,62.9999980773926,0|2,0:2|0:2,0:2:0:0:
179,214,51181,2,0,P|157:236|129:249,1,62.9999980773926,8|0,0:2|0:2,0:2:0:0:
104,168,51516,1,2,0:2:0:0:
252,175,51684,6,0,B|299:159|299:159|333:168|333:168|385:152,1,125.999996154785,0|2,0:2|0:2,0:2:0:0:
456,90,52186,1,2,0:2:0:0:
500,187,52354,1,2,0:2:0:0:
421,260,52522,6,0,B|372:280|372:280|288:259,1,125.999996154785,8|0,0:2|0:2,0:2:0:0:
366,177,53024,1,0,0:2:0:0:
218,334,53192,6,0,L|205:188,1,125.999996154785,6|0,0:2|0:2,0:2:0:0:
259,115,53695,1,0,0:2:0:0:
158,149,53862,6,0,P|130:197|132:224,1,62.9999980773926,8|0,0:2|0:2,0:2:0:0:
212,271,54198,1,2,0:2:0:0:
300,212,54365,2,0,L|384:229,1,62.9999980773926,0|0,0:2|0:2,0:2:0:0:
433,304,54700,2,0,L|349:321,1,62.9999980773926,2|0,0:2|0:2,0:2:0:0:
279,373,55036,5,2,0:2:0:0:
211,290,55203,2,0,P|149:279|82:309,1,125.999996154785,8|0,0:2|0:2,0:2:0:0:
158,370,55706,1,2,0:2:0:0:
262,347,55874,6,0,P|287:304|284:271,1,62.9999980773926,2|0,0:2|0:2,0:2:0:0:
215,166,56209,2,0,P|226:195|249:215,1,62.9999980773926,2|0,0:2|0:2,0:2:0:0:
337,219,56544,1,8,0:2:0:0:
405,167,56712,2,0,L|405:88,1,62.9999980773926,2|0,0:2|0:2,0:2:0:0:
328,28,57047,6,0,P|253:29|201:84,1,125.999996154785,2|2,0:2|0:2,0:2:0:0:
304,137,57550,1,0,0:2:0:0:
182,169,57717,2,0,L|175:256,1,62.9999980773926,0|8,0:2|0:2,0:2:0:0:
197,344,58052,1,2,0:2:0:0:
94,262,58220,6,0,L|105:162,1,94.499997116089,8|0,0:2|0:2,0:2:0:0:
142,93,58555,6,0,P|198:86|259:136,1,125.999996154785,6|0,0:0|0:0,0:0:0:0:
232,229,59058,1,0,0:0:0:0:
337,214,59226,2,0,P|369:214|398:225,1,62.9999980773926,8|0,0:0|0:0,0:0:0:0:
476,300,59561,1,0,0:0:0:0:
358,360,59728,6,0,L|361:287,1,62.9999980773926
308,219,60064,2,0,L|305:146,1,62.9999980773926,2|2,0:0|0:0,0:0:0:0:
366,71,60399,1,0,0:0:0:0:
259,81,60566,6,0,B|234:89|213:103|213:103|198:142|209:192,1,125.999996154785,8|0,0:0|0:0,0:0:0:0:
240,284,61069,1,0,0:0:0:0:
126,210,61237,6,0,P|92:206|46:210,1,62.9999980773926,2|0,0:0|0:0,0:0:0:0:
0,97,61572,2,0,P|34:93|80:97,1,62.9999980773926,0|0,0:0|0:0,0:0:0:0:
164,60,61907,2,0,P|168:94|164:140,2,62.9999980773926,8|0|0,0:0|0:0|0:0,0:0:0:0:
126,210,62410,1,2,0:0:0:0:
278,183,62577,6,0,B|301:174|301:174|338:180,1,41.9999987182618
334,190,62745,2,0,B|357:199|357:199|394:193,1,41.9999987182618
391,183,62913,2,0,B|408:180|408:180|431:189,1,41.9999987182618
485,256,63080,6,0,B|488:297,1,31.4999990386963
369,384,63248,1,8,0:0:0:0:
255,265,63415,2,0,B|233:255|233:255|187:265,1,62.9999980773926
126,210,63751,1,0,0:0:0:0:
45,318,63918,6,0,B|47:254|47:254|25:208|25:208|33:49,1,251.999992309571,6|8,0:0|0:0,0:0:0:0:
249,25,64924,1,0,0:0:0:0:
216,106,65091,1,0,0:0:0:0:
292,156,65259,2,0,P|299:200|290:229,1,62.9999980773926,0|2,0:0|0:0,0:0:0:0:
218,267,65594,1,2,0:0:0:0:
185,348,65761,1,0,0:0:0:0:
297,353,65929,6,0,B|339:354|339:354|371:337|371:337|443:338,1,125.999996154785,8|0,0:0|0:0,0:0:0:0:
419,136,66600,5,2,0:0:0:0:
475,267,66767,1,0,0:0:0:0:
345,180,66935,1,8,0:0:0:0:
495,97,67103,1,0,0:0:0:0:
394,256,67270,6,0,P|346:268|301:258,1,90,0|2,0:0|0:0,0:0:0:0:
223,157,67605,1,8,0:0:0:0:
216,288,67773,1,0,0:0:0:0:
327,142,67941,2,0,L|330:92,1,45,2|0,0:0|0:0,0:0:0:0:
295,17,68108,6,0,P|248:10|197:27,1,90,0|8,0:0|0:0,0:0:0:0:
135,161,68443,2,0,P|182:168|233:151,1,90,0|0,0:0|0:0,0:0:0:0:
329,97,68779,1,2,0:0:0:0:
266,216,68946,2,0,B|246:261|246:261|262:323,1,90,8|0,0:0|0:0,0:0:0:0:
448,340,69281,5,8,0:0:0:0:
337,272,69449,1,2,0:0:0:0:
481,230,69617,5,8,0:0:0:0:
266,216,69784,1,2,0:0:0:0:
427,123,69952,5,8,0:0:0:0:
256,300,70119,1,2,0:0:0:0:
312,95,70287,5,8,0:0:0:0:
320,357,70455,1,2,0:0:0:0:
142,197,70622,5,2,0:0:0:0:
97,195,70705,1,2,0:0:0:0:
58,216,70789,1,2,0:0:0:0:
35,254,70873,1,2,0:0:0:0:
34,298,70957,1,2,0:0:0:0:
56,337,71040,1,2,0:0:0:0:
94,359,71124,1,2,0:0:0:0:
139,359,71208,1,2,0:0:0:0:
177,337,71293,6,0,L|202:289,3,45,2|2|2|2,0:0|0:0|0:0|0:0,0:0:0:0:
174,300,71628,6,0,L|171:261,7,22.5,2|0|2|0|2|0|2|0,0:0|0:0|0:0|0:0|0:0|0:0|0:0|0:0,0:0:0:0:
412,220,72801,5,0,0:0:0:0:
419,130,72969,1,0,0:0:0:0:
426,40,73136,1,0,0:0:0:0:
338,272,73304,6,0,P|296:288|236:273,1,90,6|0,0:0|0:0,0:0:0:0:
178,156,73639,1,8,0:0:0:0:
104,340,73807,1,2,0:0:0:0:
287,206,73974,2,0,L|287:98,1,90,0|2,0:0|0:0,0:0:0:0:
188,41,74309,1,8,0:0:0:0:
92,142,74477,6,0,P|148:161|192:149,1,90,0|2,0:0|0:0,0:0:0:0:
291,39,74812,2,0,P|250:20|205:24,1,90,2|8,0:0|0:0,0:0:0:0:
287,206,75147,1,2,0:0:0:0:
426,54,75315,2,0,L|424:154,1,90,2|2,0:0|0:0,0:0:0:0:
354,303,75650,1,8,0:0:0:0:
511,229,75818,1,0,0:0:0:0:
511,229,75902,1,0,0:0:0:0:
511,229,75985,6,0,L|509:329,1,90,2|0,0:0|0:0,0:0:0:0:
378,384,76320,1,8,0:0:0:0:
287,206,76488,1,2,0:0:0:0:
433,138,76656,6,0,P|380:121|325:122,1,90,2|2,0:0|0:0,0:0:0:0:
234,295,76991,1,8,0:0:0:0:
183,97,77158,2,0,P|133:57|87:51,1,90,0|2,0:0|0:0,0:0:0:0:
15,186,77494,2,0,P|65:146|111:140,1,90,0|8,0:0|0:0,0:0:0:0:
120,147,77745,1,2,0:0:0:0:
147,170,77829,2,0,B|159:219|159:219|143:271,1,90,2|2,0:0|0:0,0:0:0:0:
225,350,78164,2,0,L|255:234,1,90,2|8,0:0|0:0,0:0:0:0:
299,111,78499,1,0,0:0:0:0:
475,199,78667,5,2,0:0:0:0:
475,199,79002,6,0,L|351:202,1,90,6|0,0:0|0:0,0:0:0:0:
247,262,79337,1,0,0:0:0:0:
149,174,79505,2,0,B|134:131|134:131|156:78,2,90,2|8|0,0:0|0:0|0:0,0:0:0:0:
253,111,80008,2,0,P|254:64|224:27,1,90,2|0,0:0|0:0,0:0:0:0:
52,59,80343,2,0,P|77:19|123:5,1,90,8|2,0:0|0:0,0:0:0:0:
149,174,80678,2,0,B|164:131|164:131|151:88,1,90,2|2,0:0|0:0,0:0:0:0:
16,158,81013,1,8,0:0:0:0:
62,283,81181,1,2,0:0:0:0:
171,355,81348,6,0,P|219:349|279:307,1,90,2|0,0:0|0:0,0:0:0:0:
294,141,81684,1,8,0:0:0:0:
409,288,81851,1,2,0:0:0:0:
385,92,82019,2,0,P|344:61|276:59,1,90,2|0,0:0|0:0,0:0:0:0:
211,189,82354,2,0,P|203:144|217:102,1,90,8|0,0:0|0:0,0:0:0:0:
297,242,82689,2,0,L|279:347,1,90,2|0,0:0|0:0,0:0:0:0:
255,368,82941,1,2,0:0:0:0:
210,368,83024,1,8,0:0:0:0:
170,348,83108,1,2,0:0:0:0:
143,313,83192,6,0,P|94:285|38:283,1,90,2|2,0:0|0:0,0:0:0:0:
21,299,83443,1,2,0:0:0:0:
7,342,83527,2,0,P|42:358|74:354,1,45,2|2,0:0|0:0,0:0:0:0:
220,252,83695,1,8,0:0:0:0:
23,112,83862,1,2,0:0:0:0:
221,39,84030,6,0,B|261:45|261:45|266:43|266:43|326:52,1,90,6|0,0:0|0:0,0:0:0:0:
387,140,84365,1,8,0:0:0:0:
309,286,84533,1,2,0:0:0:0:
483,185,84700,2,0,L|483:83,1,90,0|2,0:0|0:0,0:0:0:0:
399,0,85036,1,8,0:0:0:0:
308,137,85203,6,0,P|259:152|195:133,1,90,0|2,0:0|0:0,0:0:0:0:
109,0,85538,2,0,P|146:34|162:99,1,90,2|8,0:0|0:0,0:0:0:0:
190,293,85874,1,2,0:0:0:0:
74,235,86041,2,0,P|84:185|133:139,1,90,2|2,0:0|0:0,0:0:0:0:
221,146,86376,1,8,0:0:0:0:
190,293,86544,1,0,0:0:0:0:
403,188,86712,6,0,L|281:208,1,90,2|0,0:0|0:0,0:0:0:0:
263,322,87047,2,0,B|301:326|301:326|305:330|305:330|383:340,1,90,8|2,0:0|0:0,0:0:0:0:
481,254,87382,2,0,P|501:210|491:135,1,90,2|0,0:0|0:0,0:0:0:0:
388,44,87717,1,8,0:0:0:0:
314,202,87885,2,0,B|269:214|269:214|202:193,1,90,0|2,0:0|0:0,0:0:0:0:
76,98,88220,1,0,0:0:0:0:
65,127,88303,1,2,0:0:0:0:
82,152,88387,1,8,0:0:0:0:
75,182,88471,1,2,0:0:0:0:
91,208,88555,1,2,0:0:0:0:
208,370,88723,6,0,L|223:247,1,90,2|2,0:0|0:0,0:0:0:0:
284,124,89058,2,0,L|269:1,1,90,8|0,0:0|0:0,0:0:0:0:
76,98,89393,5,2,0:0:0:0:
76,98,89728,6,0,L|93:205,1,90,6|2,0:0|0:0,0:0:0:0:
57,316,90064,1,0,0:0:0:0:
208,266,90231,1,2,0:0:0:0:
268,384,90399,1,8,0:0:0:0:
90,186,90566,1,0,0:0:0:0:
298,318,90734,6,0,B|345:328|345:328|405:311,1,90,2|2,0:0|0:0,0:0:0:0:
382,173,91069,1,8,0:0:0:0:
472,254,91237,2,0,P|503:210|497:141,1,90,2|2,0:0|0:0,0:0:0:0:
347,94,91572,2,0,P|354:137|381:172,1,90,2|8,0:0|0:0,0:0:0:0:
470,57,91907,1,0,0:0:0:0:
268,14,92075,5,2,0:0:0:0:
268,14,92410,6,0,L|241:129,1,90,14|2,0:0|0:0,0:0:0:0:
215,267,92745,2,0,L|194:179,1,90,2|2,0:0|0:0,0:0:0:0:
102,73,93080,1,8,0:0:0:0:
76,248,93248,1,2,0:0:0:0:
187,156,93415,1,8,0:0:0:0:
0,123,93583,1,2,0:0:0:0:
74,276,93751,1,8,0:0:0:0:
184,78,93918,1,2,0:0:0:0:
210,298,94086,6,0,P|252:309|331:282,1,90,6|0,0:0|0:0,0:0:0:0:
315,380,94337,6,0,P|359:352|380:258,1,107.999996704102,2|0,0:0|0:0,0:0:0:0:
458,326,94589,6,0,P|457:273|417:231,1,62.9999980773926,2|0,0:0|0:0,0:0:0:0:
389,176,94756,6,0,P|379:118|396:77,1,90,6|0,0:0|0:0,0:0:0:0:
507,131,95091,1,8,0:0:0:0:
325,221,95259,2,0,B|261:213|261:213|233:222|233:222|126:212,1,180,2|2,0:0|0:0,0:0:0:0:
45,75,95762,2,0,P|50:126|40:179,1,90,8|0,0:0|0:0,0:0:0:0:
95,324,96097,6,0,L|205:335,1,90,2|2,0:0|0:0,0:0:0:0:
389,176,96432,1,8,0:0:0:0:
310,360,96600,1,2,0:0:0:0:
250,184,96767,2,0,L|261:80,1,90,2|2,0:0|0:0,0:0:0:0:
421,57,97103,2,0,P|381:95|337:110,1,90,8|0,0:0|0:0,0:0:0:0:
227,13,97438,1,2,0:0:0:0:
76,190,97605,5,0,0:0:0:0:
170,87,97773,2,0,L|291:98,1,90,8|2,0:0|0:0,0:0:0:0:
396,193,98108,1,2,0:0:0:0:
382,69,98276,1,2,0:0:0:0:
244,223,98443,1,8,0:0:0:0:
483,117,98611,6,0,P|497:63|482:22,1,90,2|0,0:0|0:0,0:0:0:0:
396,193,98946,1,2,0:0:0:0:
306,88,99114,2,0,L|194:82,1,90,8|2,0:0|0:0,0:0:0:0:
118,183,99449,1,8,0:0:0:0:
112,227,99532,1,8,0:0:0:0:
124,270,99616,1,2,0:0:0:0:
151,306,99700,1,2,0:0:0:0:
190,328,99784,1,8,0:0:0:0:
234,335,99867,1,8,0:0:0:0:
278,324,99951,1,2,0:0:0:0:
415,245,100119,6,0,L|423:115,1,90,6|0,0:0|0:0,0:0:0:0:
300,22,100455,5,8,0:0:0:0:
318,229,100622,1,2,0:0:0:0:
188,113,100790,5,8,0:0:0:0:
305,308,100957,1,2,0:0:0:0:
136,231,101125,5,8,0:0:0:0:
330,384,101293,1,2,0:0:0:0:
112,366,101460,5,8,0:0:0:0:
395,333,101628,1,2,0:0:0:0:
395,333,101712,1,2,0:0:0:0:
395,333,101795,1,8,0:0:0:0:
188,113,101963,1,2,0:0:0:0:
280,251,102131,6,0,B|224:264|179:241|179:241|141:286|141:286|78:269|24:333,1,270
17,182,102801,6,0,P|50:170|83:169,1,45,8|0,0:0|0:0,0:0:0:0:
26,143,102969,2,0,P|58:155|84:175,1,45,2|0,0:0|0:0,0:0:0:0:
52,111,103136,2,0,P|69:141|76:173,1,45,8|0,0:0|0:0,0:0:0:0:
95,96,103304,2,0,P|88:130|73:159,1,45,2|0,0:0|0:0,0:0:0:0:
172,62,103471,6,0,P|192:70|214:75,1,45,8|0,0:0|0:0,0:0:0:0:
180,101,103639,2,0,P|201:94|221:83,1,45,2|0,0:0|0:0,0:0:0:0:
207,133,103806,2,0,P|219:114|227:93,1,45,8|0,0:0|0:0,0:0:0:0:
250,148,103974,2,0,P|247:125|240:104,1,45,2|2,0:0|0:0,0:0:0:0:
219,0,104142,1,8,0:0:0:0:
401,91,104309,1,2,0:0:0:0:
267,224,104477,1,8,0:0:0:0:
250,148,104645,6,0,L|298:150,1,45,0|0,0:0|0:0,0:0:0:0:
391,202,104980,6,0,L|343:204,1,45,0|0,0:0|0:0,0:0:0:0:
447,152,105315,6,0,L|495:154,1,45
512,245,105483,6,0,P|519:306|481:353,1,90,6|0,0:0|0:0,0:0:0:0:
307,322,105818,1,8,0:0:0:0:
401,91,105985,1,2,0:0:0:0:
446,284,106153,1,8,0:0:0:0:
256,239,106320,2,0,B|237:231|237:231|224:232|224:232|186:217,1,45,2|0,0:0|0:0,0:0:0:0:
134,239,106488,6,0,B|120:234|120:234|104:235|104:235|94:223|94:223|41:202,2,80.9999975280763,8|0|0,0:0|0:0|0:0,0:0:0:0:
265,318,106823,6,0,P|308:300|334:222,1,90,8|0,0:0|0:0,0:0:0:0:
332,219,107075,1,2,0:0:0:0:
308,178,107158,2,0,P|301:125|336:55,1,90,8|2,0:0|0:0,0:0:0:0:
414,199,107494,6,0,B|420:245|420:245|415:258|415:258|425:273|425:273|421:289|421:289|432:396,1,188.999994232178
300,364,108164,6,0,P|325:343|340:320,1,45,8|0,0:0|0:0,0:0:0:0:
277,333,108332,2,0,P|309:334|335:325,1,45,2|0,0:0|0:0,0:0:0:0:
276,293,108499,2,0,P|300:315|325:325,1,45,8|0,0:0|0:0,0:0:0:0:
306,258,108667,2,0,P|310:290|323:314,1,45,2|0,0:0|0:0,0:0:0:0:
222,201,108834,6,0,P|196:180|181:157,1,45,8|0,0:0|0:0,0:0:0:0:
268,104,109002,6,0,P|266:70|332:-5,1,107.999996704102,2|8,0:0|0:0,0:0:0:0:
398,120,109337,2,0,P|398:146|385:174,1,45,2|0,0:0|0:0,0:0:0:0:
306,258,109505,1,2,0:0:0:0:
265,277,109588,1,2,0:0:0:0:
221,280,109672,1,2,0:0:0:0:
179,265,109756,1,2,0:0:0:0:
146,235,109840,1,2,0:0:0:0:
127,194,109923,1,2,0:0:0:0:
125,150,110007,1,2,0:0:0:0:
141,108,110091,1,2,0:0:0:0:
173,76,110175,6,0,P|224:65|282:87,1,90,2|0,0:0|0:0,0:0:0:0:
385,137,110510,2,0,L|383:242,1,90,2|0,0:0|0:0,0:0:0:0:
427,326,110846,5,2,0:0:0:0:
297,210,111013,1,2,0:0:0:0:
267,308,111348,5,2,0:0:0:0:
385,137,111516,1,2,0:0:0:0:
471,241,111851,5,2,0:0:0:0:
295,76,112019,1,2,0:0:0:0:
232,231,112354,5,2,0:0:0:0:
389,23,112522,1,2,0:0:0:0:
335,281,112857,6,0,L|135:266,1,180,2|0,0:0|0:0,0:0:0:0:
15,210,113527,5,2,0:0:0:0:
167,351,113695,1,2,0:0:0:0:
308,199,113862,1,2,0:0:0:0:
156,57,114030,2,0,B|129:38|91:49|91:49|62:92|66:162|128:192|128:192|144:176|144:176|160:192|160:192|176:176|176:176|192:192|192:192|208:176,1,323.999990112305,2|0,0:0|0:0,0:0:0:0:
