osu file format v14

[General]
AudioFilename: audio.mp3
AudioLeadIn: 0
PreviewTime: 71859
Countdown: 0
SampleSet: Soft
StackLeniency: 0.7
Mode: 2
LetterboxInBreaks: 0
WidescreenStoryboard: 1

[Editor]
DistanceSpacing: 0.9
BeatDivisor: 4
GridSize: 4
TimelineZoom: 1.3

[Metadata]
Title:Precious * Star
TitleUnicode:Precious ☆ Star
Artist:DJ TOTTO feat. Enako
ArtistUnicode:DJ TOTTO feat. えなこ
Creator:Spectator
Version:Platter
Source:REFLEC BEAT VOLZZA 2
Tags:Myle KONAMI yoshihiro tagawa 田川 義浩 kozue
BeatmapID:1666917
BeatmapSetID:776495

[Difficulty]
HPDrainRate:5
CircleSize:3.8
OverallDifficulty:8
ApproachRate:8
SliderMultiplier:1.6
SliderTickRate:2

[Events]
//Background and Video events
0,0,"y1.jpg",0,0
//Break Periods
//Storyboard Layer 0 (Background)
//Storyboard Layer 1 (Fail)
//Storyboard Layer 2 (Pass)
//Storyboard Layer 3 (Foreground)
//Storyboard Sound Samples

[TimingPoints]
2844,337.078651685393,4,2,1,60,1,0
5540,-100,4,2,1,70,0,0
8237,-111.111111111111,4,2,1,60,0,0
16327,-100,4,2,1,60,0,0
19108,-100,4,2,1,17,0,0
20372,-100,4,2,1,35,0,0
21720,-100,4,2,1,70,0,0
29641,-100,4,2,1,75,0,0
32506,-100,4,2,1,70,0,0
43293,-100,4,2,1,75,0,0
54079,337.078651685393,3,2,1,60,1,0
54079,-111.111111111111,3,2,1,60,0,0
65202,337.078651685393,4,2,1,70,1,0
66550,-100,4,2,1,75,0,0
71943,-100,4,2,1,90,0,1
96213,-100,4,2,1,80,0,0
105651,-90.9090909090909,4,2,1,80,0,0

[Colours]
Combo1 : 106,181,255
Combo2 : 253,123,163
Combo3 : 255,130,98
Combo4 : 124,252,143

[HitObjects]
131,313,2675,5,0,0:0:0:0:
131,273,2759,1,0,0:0:0:0:
131,232,2844,1,2,0:0:0:0:
226,145,3012,2,0,L|328:168,2,80,0|0|2,0:0|0:0|0:0,0:0:0:0:
381,313,3686,5,0,0:0:0:0:
381,273,3770,1,0,0:0:0:0:
381,232,3855,1,2,0:0:0:0:
226,145,4023,2,0,L|124:168,2,80,0|0|2,0:0|0:0|0:0,0:0:0:0:
404,217,4697,5,0,0:0:0:0:
404,217,4782,1,0,0:0:0:0:
404,217,4866,2,0,L|312:205,1,80,2|0,0:0|0:0,0:0:0:0:
221,250,5203,2,0,L|119:241,1,80,2|0,0:0|0:0,0:0:0:0:
387,292,5540,6,0,P|442:263|403:184,1,160,4|0,0:0|0:0,0:0:0:0:
327,179,6046,1,2,0:0:0:0:
241,168,6214,2,0,L|235:336,1,160,0|0,1:0|0:0,0:0:0:0:
325,296,6720,1,2,0:0:0:0:
150,278,6888,5,4,0:0:0:0:
110,208,7057,1,0,3:0:0:0:
140,133,7226,1,0,1:0:0:0:
214,105,7394,1,0,1:0:0:0:
396,193,7563,2,0,L|478:179,1,80,0|0,1:0|1:0,0:0:0:0:
384,116,7900,2,0,L|272:128,1,80,0|0,1:0|1:0,0:0:0:0:
71,284,8237,6,0,P|36:236|99:166,1,143.999995605469,2|0,0:0|0:0,0:0:0:0:
227,105,8911,2,0,L|233:188,1,71.9999978027344,2|0,0:0|0:0,0:0:0:0:
132,260,9248,1,0,0:0:0:0:
123,172,9417,1,0,0:0:0:0:
306,254,9585,6,0,P|350:206|285:148,1,143.999995605469,0|0,0:0|0:0,0:0:0:0:
228,137,10091,1,0,0:0:0:0:
48,200,10259,2,0,L|41:32,1,143.999995605469,2|0,0:0|0:0,0:0:0:0:
140,201,10765,1,0,0:0:0:0:
324,291,10933,6,0,P|392:273|413:178,1,143.999995605469,2|0,0:0|0:0,0:0:0:0:
297,79,11608,2,0,L|391:76,1,71.9999978027344,2|0,0:0|0:0,0:0:0:0:
456,156,11945,2,0,L|361:157,1,71.9999978027344,0|0,0:0|0:0,0:0:0:0:
208,156,12282,5,2,0:0:0:0:
357,208,12619,2,0,L|382:116,2,71.9999978027344,2|0|2,0:0|0:0|0:0,0:0:0:0:
166,137,13461,1,0,0:0:0:0:
340,90,13630,5,2,0:0:0:0:
400,128,13799,1,0,0:0:0:0:
427,194,13967,1,0,0:0:0:0:
398,260,14136,1,0,0:0:0:0:
341,303,14304,1,0,0:0:0:0:
197,289,14641,5,2,0:0:0:0:
189,210,14810,1,0,0:0:0:0:
366,154,14978,1,2,0:0:0:0:
448,173,15147,1,0,0:0:0:0:
366,154,15315,1,2,0:0:0:0:
211,268,15652,5,2,0:0:0:0:
136,268,15821,1,0,0:0:0:0:
100,204,15990,1,2,0:0:0:0:
136,136,16158,1,0,0:0:0:0:
326,100,16327,6,0,P|402:142|310:227,1,240,2|0,0:0|0:0,0:0:0:0:
145,94,17001,2,0,P|69:136|161:221,1,240,2|0,0:0|0:0,0:0:0:0:
256,74,17675,6,0,P|312:120|235:124,1,160,2|0,0:0|0:0,0:0:0:0:
159,254,18181,2,0,L|145:89,1,160,0|0,0:0|0:0,0:0:0:0:
249,61,18686,1,0,0:0:0:0:
482,117,19023,1,2,0:0:0:0:
256,192,19192,12,0,21383,0:0:0:0:
245,313,21720,6,0,P|195:267|265:215,1,160,4|0,0:0|1:0,0:0:0:0:
341,159,22226,2,0,L|347:252,1,80,2|0,0:0|1:0,0:0:0:0:
242,269,22563,2,0,L|154:269,1,80,0|0,0:0|1:0,0:0:0:0:
331,327,22900,6,0,P|407:303|430:205,1,160,2|2,0:0|0:0,0:0:0:0:
350,193,23405,2,0,L|256:186,1,80,0|2,1:0|0:0,0:0:0:0:
91,257,23742,1,0,1:0:0:0:
52,186,23911,1,2,0:0:0:0:
87,114,24079,1,0,1:0:0:0:
166,101,24248,1,0,1:0:0:0:
411,62,24417,6,0,P|471:96|408:219,1,240,4|2,2:0|0:0,0:0:0:0:
307,278,25091,2,0,L|291:176,1,80,0|0,1:0|0:0,0:0:0:0:
393,133,25428,2,0,L|406:230,1,80,0|2,1:0|0:0,0:0:0:0:
217,133,25765,5,0,1:0:0:0:
137,133,25933,1,0,0:0:0:0:
217,133,26102,1,0,1:0:0:0:
300,169,26270,2,0,P|351:219|291:273,1,160,0|0,0:0|1:0,0:0:0:0:
217,320,26776,2,0,L|131:301,1,80,0|0,1:0|0:0,0:0:0:0:
384,222,27113,6,0,P|428:189|334:74,1,240,4|0,0:0|0:0,0:0:0:0:
251,124,27787,2,0,L|168:111,2,80,0|0|0,1:0|0:0|1:0,0:0:0:0:
433,106,28293,6,0,L|440:193,1,80,2|0,0:0|1:0,0:0:0:0:
363,243,28630,2,0,L|283:230,1,80,2|0,0:0|1:0,0:0:0:0:
115,165,28967,1,2,0:0:0:0:
43,241,29136,1,0,1:0:0:0:
113,305,29304,1,2,0:0:0:0:
266,203,29473,1,0,1:0:0:0:
347,245,29641,1,2,0:0:0:0:
112,215,29810,6,0,P|57:172|134:155,1,160,4|0,0:0|1:0,0:0:0:0:
195,138,30315,1,0,0:0:0:0:
425,206,30484,2,0,P|480:163|403:146,1,160,4|0,2:0|1:0,0:0:0:0:
342,129,30989,1,0,0:0:0:0:
157,125,31158,6,0,L|75:148,2,80,4|0|0,2:0|1:0|1:0,0:0:0:0:
249,156,31664,1,2,0:0:0:0:
344,129,31832,2,0,L|255:102,1,80,0|0,0:0|1:0,0:0:0:0:
166,128,32169,1,0,1:0:0:0:
426,95,32506,6,0,P|473:144|412:207,1,160,4|0,0:0|1:0,0:0:0:0:
290,190,33181,2,0,P|243:239|304:302,1,160,0|0,1:0|1:0,0:0:0:0:
142,96,33855,2,0,P|95:145|156:208,1,160,0|0,1:0|1:0,0:0:0:0:
278,191,34530,2,0,P|325:240|264:303,1,160,0|0,1:0|1:0,0:0:0:0:
48,315,35203,6,0,P|121:294|214:328,1,160,0|0,1:0|1:0,0:0:0:0:
332,315,35877,2,0,P|259:294|166:328,1,160,0|0,1:0|1:0,0:0:0:0:
399,312,36551,2,0,P|443:281|387:202,1,160,0|0,1:0|1:0,0:0:0:0:
242,317,37226,2,0,P|198:286|254:207,1,160,0|0,1:0|1:0,0:0:0:0:
405,109,37900,6,0,L|409:216,1,80,0|0,1:0|0:0,0:0:0:0:
326,243,38237,2,0,P|284:258|242:236,1,80,0|0,1:0|0:0,0:0:0:0:
345,168,38574,1,0,1:0:0:0:
406,108,38742,1,0,0:0:0:0:
345,168,38911,1,0,1:0:0:0:
182,164,39079,6,0,P|145:207|192:302,1,160,2|0,0:0|0:0,0:0:0:0:
266,295,39585,1,0,1:0:0:0:
449,294,39922,1,0,1:0:0:0:
497,213,40091,1,0,0:0:0:0:
449,294,40259,1,0,1:0:0:0:
293,293,40428,1,2,0:0:0:0:
163,291,40765,6,0,L|136:177,1,80,0|0,0:0|1:0,0:0:0:0:
284,197,41270,2,0,P|341:173|379:72,1,160,0|0,1:0|1:0,0:0:0:0:
285,86,41776,1,2,0:0:0:0:
125,150,41945,6,0,L|115:244,1,80,0|2,1:0|0:0,0:0:0:0:
211,274,42282,2,0,L|298:266,1,80,0|2,1:0|0:0,0:0:0:0:
203,358,42619,1,0,1:0:0:0:
135,315,42787,1,0,0:0:0:0:
111,238,42956,1,0,1:0:0:0:
145,165,43124,1,0,1:0:0:0:
393,69,43293,6,0,L|408:167,1,80,4|0,0:0|0:0,0:0:0:0:
309,153,43630,2,0,P|263:197|336:266,1,160,0|2,1:0|0:0,0:0:0:0:
393,270,44136,1,0,0:0:0:0:
308,318,44304,2,0,L|201:309,1,80,0|0,1:0|0:0,0:0:0:0:
72,332,44641,6,0,P|83:255|171:211,1,160,2|0,0:0|1:0,0:0:0:0:
244,204,45147,1,0,0:0:0:0:
161,294,45315,1,2,0:0:0:0:
98,244,45484,1,0,0:0:0:0:
75,167,45652,1,0,1:0:0:0:
109,94,45821,1,0,0:0:0:0:
272,95,45990,6,0,L|460:126,1,160,2|0,0:0|1:0,0:0:0:0:
436,214,46495,1,0,0:0:0:0:
346,245,46664,2,0,L|331:334,1,80,2|0,0:0|0:0,0:0:0:0:
426,327,47001,1,0,1:0:0:0:
332,323,47169,1,0,0:0:0:0:
166,273,47338,6,0,L|117:278,2,40,2|0|0,0:0|0:0|0:0,0:0:0:0:
248,273,47675,2,0,L|297:278,2,40,0|0|0,1:0|0:0|0:0,0:0:0:0:
166,273,48012,2,0,L|117:278,2,40,2|0|0,0:0|0:0|0:0,0:0:0:0:
256,261,48349,1,0,1:0:0:0:
265,360,48518,1,0,1:0:0:0:
104,348,48686,5,0,1:0:0:0:
60,280,48855,1,0,0:0:0:0:
93,207,49023,1,0,1:0:0:0:
169,182,49192,1,0,0:0:0:0:
322,184,49360,2,0,L|427:183,2,80,2|0|0,0:0|0:0|1:0,0:0:0:0:
87,96,49866,6,0,P|32:142|114:162,1,160,0|0,0:0|0:0,0:0:0:0:
170,179,50372,1,0,1:0:0:0:
336,176,50709,2,0,L|425:177,2,80,2|0|0,0:0|0:0|1:0,0:0:0:0:
104,280,51214,6,0,P|43:227|124:105,1,240,2|0,0:0|1:0,0:0:0:0:
207,101,51888,2,0,L|219:264,1,160,2|0,0:0|0:0,0:0:0:0:
136,294,52394,1,0,1:0:0:0:
367,270,52563,6,0,P|425:249|468:140,1,160,4|0,1:0|0:0,0:0:0:0:
369,134,53068,2,0,L|261:124,1,80,2|0,0:0|0:0,0:0:0:0:
134,202,53405,1,0,1:0:0:0:
122,113,53574,1,0,0:0:0:0:
174,33,53742,1,0,1:0:0:0:
264,29,53911,1,0,0:0:0:0:
430,237,54079,6,0,P|479:190|413:171,1,143.999995605469,4|0,0:0|1:0,0:0:0:0:
360,150,54584,1,0,0:0:0:0:
288,138,54753,1,0,1:0:0:0:
139,256,55090,1,4,0:0:0:0:
76,220,55258,1,0,0:0:0:0:
51,152,55427,1,0,1:0:0:0:
75,84,55595,1,0,2:0:0:0:
141,56,55764,1,0,3:0:0:0:
438,106,56101,6,0,L|444:260,1,143.999995605469,4|0,0:0|3:0,0:0:0:0:
368,280,56607,1,0,0:0:0:0:
296,220,56775,1,0,1:0:0:0:
368,280,56944,1,2,0:0:0:0:
205,310,57112,2,0,P|155:272|218:243,1,143.999995605469,4|0,0:0|1:0,0:0:0:0:
276,227,57618,1,0,0:0:0:0:
329,179,57786,1,2,0:0:0:0:
342,108,57955,1,0,0:0:0:0:
193,126,58123,6,0,P|144:79|210:60,1,143.999995605469,4|0,0:0|3:0,0:0:0:0:
263,39,58628,1,0,0:0:0:0:
335,27,58797,1,0,0:0:0:0:
195,114,59135,2,0,L|33:74,1,143.999995605469,4|0,0:0|3:0,0:0:0:0:
138,78,59640,1,0,0:0:0:0:
55,79,59809,1,0,0:0:0:0:
337,274,60146,5,4,0:0:0:0:
419,284,60314,1,0,0:0:0:0:
334,350,60483,2,0,L|171:325,1,143.999995605469,0|6,1:0|0:0,0:0:0:0:
261,283,60989,1,0,0:0:0:0:
434,198,61157,2,0,P|476:238|418:301,1,143.999995605469,0|0,1:0|3:0,0:0:0:0:
353,286,61663,1,0,0:0:0:0:
437,265,61831,1,0,3:0:0:0:
182,215,62168,6,0,P|149:140|198:126,1,143.999995605469,4|0,0:0|1:0,0:0:0:0:
268,123,62674,1,0,0:0:0:0:
186,124,62843,1,0,1:0:0:0:
426,78,63180,1,4,0:0:0:0:
367,119,63348,1,0,0:0:0:0:
339,185,63517,1,0,1:0:0:0:
362,252,63685,1,0,0:0:0:0:
423,289,63854,1,0,1:0:0:0:
164,308,64191,6,0,P|107:250|159:232,1,143.999995605469,4|0,0:0|0:0,0:0:0:0:
210,202,64696,1,0,0:0:0:0:
291,155,64865,2,0,L|301:233,1,71.9999978027344,0|0,1:0|0:0,0:0:0:0:
63,207,65202,5,0,1:0:0:0:
219,211,65539,1,0,1:0:0:0:
63,207,65876,1,0,1:0:0:0:
219,211,66213,1,0,1:0:0:0:
291,192,66381,1,0,0:0:0:0:
36,77,66550,6,0,L|33:252,1,160,4|0,2:2|1:0,0:0:0:0:
113,220,67055,1,0,0:0:0:0:
199,204,67224,2,0,L|209:303,1,80,0|0,1:0|0:0,0:0:0:0:
132,341,67561,2,0,L|37:333,1,80,0|2,1:0|0:0,0:0:0:0:
225,280,67898,6,0,L|316:271,2,80,0|0|0,1:0|0:0|1:0,0:0:0:0:
144,213,68404,2,0,L|308:230,1,160,2|0,0:0|0:0,0:0:0:0:
386,199,68909,1,0,1:0:0:0:
393,279,69078,1,0,1:0:0:0:
145,304,69246,6,0,P|92:254|151:217,1,160,4|0,1:0|0:0,0:0:0:0:
312,220,69752,2,0,P|365:170|306:133,1,160,0|0,1:0|0:0,0:0:0:0:
230,129,70258,1,0,0:0:0:0:
52,126,70426,6,0,L|46:316,1,160,0|0,1:0|0:0,0:0:0:0:
127,289,70932,1,0,0:0:0:0:
206,292,71100,1,0,0:0:0:0:
457,294,71269,1,0,1:0:0:0:
464,197,71437,1,0,1:0:0:0:
208,327,71943,5,4,0:0:0:0:
143,279,72112,1,0,0:0:0:0:
113,205,72280,1,0,1:0:0:0:
148,133,72449,1,0,0:0:0:0:
382,105,72617,2,0,L|477:116,1,80,4|0,0:0|0:0,0:0:0:0:
357,194,72954,2,0,L|256:181,1,80,0|0,1:0|0:0,0:0:0:0:
117,217,73291,6,0,P|81:160|172:106,1,160,4|0,0:0|1:0,0:0:0:0:
215,99,73797,1,0,0:0:0:0:
374,100,73966,2,0,L|458:92,2,80,0|2|0,1:0|0:0|1:0,0:0:0:0:
294,83,74471,1,2,0:0:0:0:
131,83,74640,5,0,1:0:0:0:
96,154,74808,1,0,0:0:0:0:
131,225,74977,1,0,1:0:0:0:
205,252,75145,1,2,0:0:0:0:
296,240,75314,2,0,L|207:246,1,80,0|0,1:0|0:0,0:0:0:0:
125,331,75651,2,0,L|226:327,1,80,0|2,1:0|0:0,0:0:0:0:
392,316,75988,5,0,1:0:0:0:
233,293,76325,1,0,1:0:0:0:
74,270,76662,1,0,1:0:0:0:
211,236,76999,2,0,L|302:225,1,80,0|2,1:0|0:0,0:0:0:0:
466,271,77336,5,0,1:0:0:0:
404,213,77505,1,0,0:0:0:0:
379,136,77673,1,0,1:0:0:0:
406,60,77842,1,0,0:0:0:0:
475,20,78010,1,0,1:0:0:0:
300,228,78348,5,0,1:0:0:0:
290,145,78516,1,0,0:0:0:0:
459,70,78685,1,0,1:0:0:0:
471,154,78853,1,0,0:0:0:0:
388,149,79022,1,0,1:0:0:0:
246,190,79359,6,0,L|150:177,2,80,0|2|0,1:0|0:0|1:0,0:0:0:0:
334,153,79864,1,2,0:0:0:0:
61,308,80033,6,0,L|49:131,1,160,4|0,0:0|1:0,0:0:0:0:
460,224,80707,2,0,L|466:134,1,80,4|2,2:0|0:0,0:0:0:0:
391,96,81044,2,0,L|298:85,1,80,0|2,1:0|0:0,0:0:0:0:
72,257,81381,6,0,L|64:165,1,80,0|0,1:0|1:0,0:0:0:0:
154,161,81718,1,0,1:0:0:0:
242,145,81887,1,0,1:0:0:0:
149,148,82055,2,0,P|95:195|175:238,1,160,0|0,1:0|1:0,0:0:0:0:
229,246,82561,1,2,0:0:0:0:
470,253,82730,5,4,1:0:0:0:
489,175,82898,1,0,0:0:0:0:
463,98,83067,1,0,1:0:0:0:
387,72,83235,1,0,0:0:0:0:
297,86,83404,2,0,L|280:180,1,80,4|0,0:0|0:0,0:0:0:0:
364,231,83741,2,0,L|452:217,1,80,0|0,1:0|0:0,0:0:0:0:
280,281,84078,6,0,P|229:246|258:157,1,160,4|0,2:0|1:0,0:0:0:0:
334,145,84584,1,2,0:0:0:0:
103,197,84752,2,0,L|12:176,2,80,0|2|0,1:0|0:0|1:0,0:0:0:0:
193,152,85258,1,2,0:0:0:0:
361,99,85426,5,0,1:0:0:0:
419,153,85595,1,0,0:0:0:0:
441,229,85763,1,0,1:0:0:0:
408,302,85932,1,0,0:0:0:0:
326,337,86100,2,0,L|240:327,1,80,0|0,1:0|0:0,0:0:0:0:
170,244,86437,2,0,L|273:258,1,80,0|0,1:0|0:0,0:0:0:0:
419,160,86775,5,0,1:0:0:0:
276,242,87112,1,0,1:0:0:0:
419,160,87449,1,0,1:0:0:0:
317,81,87701,2,0,L|317:136,1,40,0|0,3:0|1:0,3:0:0:0:
397,167,87954,1,0,1:0:0:0:
235,247,88123,5,0,1:0:0:0:
165,208,88291,1,0,0:0:0:0:
136,132,88460,1,0,1:0:0:0:
167,58,88628,1,0,0:0:0:0:
239,22,88797,1,0,1:0:0:0:
417,128,89134,2,0,L|320:133,1,80,0|0,1:0|0:0,0:0:0:0:
246,218,89471,6,0,L|142:206,2,80,0|2|0,1:0|0:0|1:0,0:0:0:0:
330,176,89977,1,2,0:0:0:0:
71,287,90145,1,0,1:0:0:0:
77,207,90314,1,2,0:0:0:0:
130,147,90482,1,0,1:0:0:0:
208,130,90651,1,0,3:0:0:0:
448,134,90819,6,0,L|457:-36,1,160,4|0,0:0|1:0,0:0:0:0:
364,132,91325,1,0,0:0:0:0:
199,130,91494,2,0,P|150:181|224:238,1,160,4|0,0:0|1:0,0:0:0:0:
285,242,91999,1,0,0:0:0:0:
50,332,92168,6,0,L|41:168,1,160,4|0,0:0|1:0,0:0:0:0:
118,166,92673,1,0,0:0:0:0:
396,167,92842,2,0,L|504:173,2,80,4|0|0,2:0|0:0|1:0,0:0:0:0:
314,163,93348,1,2,0:0:0:0:
65,100,93516,6,0,P|72:172|165:215,1,160,4|0,0:0|1:0,0:0:0:0:
223,215,94022,1,2,0:0:0:0:
314,217,94190,2,0,L|309:311,1,80,0|2,1:0|0:0,0:0:0:0:
206,338,94527,2,0,L|98:337,1,80,0|2,1:0|0:0,0:0:0:0:
374,297,94864,5,4,0:0:0:0:
494,296,95117,1,2,2:0:0:0:
374,297,95370,1,2,2:0:0:0:
138,297,95539,5,4,0:0:0:0:
18,296,95792,1,0,2:0:0:0:
138,297,96045,1,2,2:0:0:0:
383,319,96213,6,0,P|433:273|363:221,1,160,4|0,2:0|1:0,0:0:0:0:
291,156,96719,2,0,L|285:249,1,80,0|2,0:0|0:0,0:0:0:0:
368,284,97056,2,0,L|456:284,1,80,2|0,0:0|1:0,0:0:0:0:
286,340,97393,6,0,P|210:316|187:218,1,160,0|0,0:0|0:0,0:0:0:0:
270,216,97898,2,0,L|279:113,1,80,0|0,1:0|0:0,0:0:0:0:
115,186,98235,1,2,0:0:0:0:
76,115,98404,1,0,0:0:0:0:
111,43,98572,1,0,1:0:0:0:
190,30,98741,1,0,1:0:0:0:
439,94,98909,6,0,P|505:176|430:276,1,240,4|0,0:0|0:0,0:0:0:0:
264,282,99584,2,0,L|184:279,1,80,2|0,0:0|0:0,0:0:0:0:
287,209,99921,2,0,L|381:211,1,80,0|2,1:0|0:0,0:0:0:0:
243,131,100258,5,2,0:0:0:0:
163,131,100426,1,0,0:0:0:0:
243,131,100595,1,0,1:0:0:0:
331,132,100763,2,0,P|382:182|322:236,1,160,2|0,0:0|1:0,0:0:0:0:
238,278,101269,2,0,L|151:260,1,80,0|0,1:0|0:0,0:0:0:0:
406,282,101606,6,0,P|450:249|356:134,1,240,4|0,0:0|0:0,0:0:0:0:
280,128,102280,2,0,L|273:227,1,80,2|0,0:0|0:0,0:0:0:0:
362,233,102617,1,0,1:0:0:0:
196,315,102786,6,0,L|108:335,1,80,2|0,0:0|0:0,0:0:0:0:
192,239,103123,2,0,L|272:226,1,80,2|0,0:0|1:0,0:0:0:0:
431,223,103460,1,0,0:0:0:0:
503,299,103629,1,2,0:0:0:0:
431,362,103797,1,0,0:0:0:0:
280,326,103966,1,0,1:0:0:0:
206,332,104134,1,0,1:0:0:0:
435,262,104303,6,0,P|490:225|413:186,1,160,4|0,0:0|1:0,0:0:0:0:
350,171,104808,1,2,0:0:0:0:
96,168,104977,6,0,P|41:131|118:92,1,160,4|0,0:0|1:0,0:0:0:0:
175,76,105482,1,2,0:0:0:0:
328,78,105651,6,0,L|416:106,2,88.000002685547,4|0|0,0:0|1:0|1:0,0:0:0:0:
241,95,106157,1,2,0:0:0:0:
475,251,106325,5,0,1:0:0:0:
481,207,106409,1,0,0:0:0:0:
487,163,106494,1,2,0:0:0:0:
397,132,106662,2,0,L|297:106,1,88.000002685547,0|0,1:0|1:0,1:0:0:0:
80,181,106999,1,4,1:1:0:0:
