osu file format v14

[General]
AudioFilename: audio.mp3
AudioLeadIn: 0
PreviewTime: 71859
Countdown: 0
SampleSet: Soft
StackLeniency: 0.7
Mode: 2
LetterboxInBreaks: 0
WidescreenStoryboard: 1

[Editor]
DistanceSpacing: 1.2
BeatDivisor: 2
GridSize: 4
TimelineZoom: 1.3

[Metadata]
Title:Precious * Star
TitleUnicode:Precious ☆ Star
Artist:DJ TOTTO feat. Enako
ArtistUnicode:DJ TOTTO feat. えなこ
Creator:Spectator
Version:Myle's Salad
Source:REFLEC BEAT VOLZZA 2
Tags:Myle KONAMI yoshihiro tagawa 田川 義浩 kozue
BeatmapID:1668253
BeatmapSetID:776495

[Difficulty]
HPDrainRate:4
CircleSize:3
OverallDifficulty:7
ApproachRate:7
SliderMultiplier:1.4
SliderTickRate:1

[Events]
//Background and Video events
0,0,"y1.jpg",0,0
//Break Periods
//Storyboard Layer 0 (Background)
//Storyboard Layer 1 (Fail)
//Storyboard Layer 2 (Pass)
//Storyboard Layer 3 (Foreground)
//Storyboard Sound Samples

[TimingPoints]
2844,337.078651685393,4,2,1,60,1,0
5540,-100,4,2,1,70,0,0
8237,-111.111111111111,4,2,1,65,0,0
16327,-100,4,2,1,60,0,0
19108,-100,4,2,1,17,0,0
20372,-100,4,2,1,35,0,0
21720,-100,4,2,1,70,0,0
29641,-100,4,2,1,75,0,0
32506,-100,4,2,1,70,0,0
43293,-100,4,2,1,75,0,0
54079,337.078651685393,3,2,1,60,1,0
54079,-111.111111111111,3,2,1,60,0,0
65202,337.078651685393,4,2,1,70,1,0
66550,-100,4,2,1,75,0,0
71943,-100,4,2,1,90,0,1
96213,-100,4,2,1,80,0,0
105651,-100,4,2,1,80,0,0
105988,-100,4,2,1,80,0,0

[Colours]
Combo1 : 106,181,255
Combo2 : 253,123,163
Combo3 : 255,130,98
Combo4 : 124,252,143

[HitObjects]
400,288,2844,5,2,0:0:0:0:
432,204,3012,1,0,0:0:0:0:
404,116,3181,1,0,0:0:0:0:
324,68,3349,1,2,0:0:0:0:
84,316,3855,5,2,0:0:0:0:
52,232,4023,1,0,0:0:0:0:
80,144,4192,1,0,0:0:0:0:
160,96,4360,1,2,0:0:0:0:
360,208,4866,2,0,L|364:124,1,70,2|0,0:0|0:0,0:0:0:0:
276,116,5203,2,0,L|268:32,1,70,2|0,0:0|0:0,0:0:0:0:
440,68,5540,6,0,P|476:108|400:296,1,280,4|0,0:0|1:0,0:0:0:0:
140,276,6888,1,4,0:0:0:0:
232,264,7057,1,0,3:0:0:0:
324,252,7226,1,0,1:0:0:0:
152,200,7563,2,0,L|136:104,1,70,0|0,1:0|1:0,0:0:0:0:
236,108,7900,2,0,L|257:24,1,70,0|0,1:0|1:0,0:0:0:0:
92,56,8237,6,0,P|56:96|104:216,1,188.999994232178,2|0,0:0|0:0,0:0:0:0:
176,224,8911,2,0,L|248:228,2,62.9999980773926,2|0|0,0:0|0:0|0:0,0:0:0:0:
342,144,9585,1,0,0:0:0:0:
196,185,9922,2,0,L|192:261,1,62.9999980773926
267,260,10259,1,2,0:0:0:0:
76,248,10765,1,0,0:0:0:0:
161,310,10933,6,0,P|233:279|196:168,1,188.999994232178,2|0,0:0|0:0,0:0:0:0:
147,162,11608,2,0,L|75:162,2,62.9999980773926,2|0|0,0:0|0:0|0:0,0:0:0:0:
314,303,12282,1,2,0:0:0:0:
334,139,12619,1,2,0:0:0:0:
170,135,12956,1,2,0:0:0:0:
190,299,13293,1,2,0:0:0:0:
36,296,13630,6,0,P|24:228|120:152,1,188.999994232178,2|0,0:0|0:0,0:0:0:0:
188,156,14304,1,0,0:0:0:0:
352,164,14641,2,0,L|368:80,1,62.9999980773926,2|0,0:0|0:0,0:0:0:0:
251,95,14978,1,2,0:0:0:0:
203,163,15147,1,0,0:0:0:0:
251,95,15315,1,2,0:0:0:0:
400,260,15652,1,2,0:0:0:0:
436,188,15821,1,0,0:0:0:0:
412,108,15990,1,2,0:0:0:0:
336,76,16158,1,0,0:0:0:0:
228,114,16327,6,0,P|192:134|276:294,1,280,2|2,0:0|0:0,0:0:0:0:
400,192,17675,2,0,P|376:220|148:192,1,280,2|0,0:0|0:0,0:0:0:0:
460,120,19023,5,2,0:0:0:0:
256,192,19360,12,0,21383,0:0:0:0:
168,88,21720,6,0,P|112:148|184:240,1,210,4|2,0:0|0:0,0:0:0:0:
268,236,22394,2,0,L|280:164,1,70,0|0,1:0|0:0,0:0:0:0:
192,136,22731,1,0,1:0:0:0:
356,92,22900,6,0,L|508:88,2,140,2|2|2,0:0|0:0|0:0,0:0:0:0:
272,124,23742,2,0,L|264:208,1,70,0|2,1:0|0:0,0:0:0:0:
352,224,24079,2,0,L|360:304,1,70,0|0,1:0|1:0,0:0:0:0:
188,304,24417,6,0,P|156:268|232:136,1,210,4|2,2:0|0:0,0:0:0:0:
304,128,25091,2,0,L|216:104,1,70,0|0,1:0|0:0,0:0:0:0:
148,84,25428,2,0,L|140:8,1,70,0|2,1:0|0:0,0:0:0:0:
312,76,25765,6,0,L|392:72,2,70,0|0|0,1:0|0:0|1:0,0:0:0:0:
164,156,26439,2,0,L|84:152,2,70,0|0|0,1:0|1:0|1:0,0:0:0:0:
416,280,27113,6,0,P|456:232|372:116,1,210,4|0,0:0|0:0,0:0:0:0:
304,116,27787,1,0,1:0:0:0:
392,140,27956,2,0,L|388:232,1,70,0|0,0:0|1:0,0:0:0:0:
220,236,28293,6,0,L|64:252,2,140,2|2|2,0:0|0:0|0:0,0:0:0:0:
308,256,29136,2,0,L|388:248,2,70,0|2|0,1:0|0:0|1:0,0:0:0:0:
216,264,29641,1,2,0:0:0:0:
44,308,29810,6,0,P|24:248|56:168,1,140,4|0,0:0|1:0,0:0:0:0:
136,168,30315,1,0,0:0:0:0:
224,188,30484,2,0,L|368:176,1,140,4|0,2:0|1:0,0:0:0:0:
284,128,30990,1,0,0:0:0:0:
116,228,31158,6,0,L|32:232,2,70,4|0|0,2:0|1:0|1:0,0:0:0:0:
288,288,31832,1,0,0:0:0:0:
368,248,32001,1,0,1:0:0:0:
392,160,32169,1,0,1:0:0:0:
356,76,32338,1,0,1:0:0:0:
176,173,32506,5,4,0:0:0:0:
192,76,32843,1,0,1:0:0:0:
364,140,33181,2,0,P|408:108|384:12,1,140,0|0,1:0|1:0,0:0:0:0:
229,124,33855,5,0,1:0:0:0:
229,124,34192,1,0,1:0:0:0:
401,251,34529,2,0,L|375:108,1,140,0|0,1:0|1:0,0:0:0:0:
88,84,35203,6,0,P|48:144|216:332,1,350,0|0,1:0|0:0,1:1:0:0:
270,328,36214,1,0,1:0:0:0:
112,212,36551,5,0,1:0:0:0:
112,212,36888,1,0,1:0:0:0:
288,168,37226,1,0,1:0:0:0:
288,168,37563,1,0,1:0:0:0:
48,300,37900,6,0,L|44:152,1,140,0|0,1:0|1:0,0:0:0:0:
224,132,38574,2,0,L|232:276,1,140,0|0,1:0|1:0,0:0:0:0:
480,276,39248,5,0,1:0:0:0:
480,276,39585,1,0,1:0:0:0:
300,300,39922,1,0,1:0:0:0:
300,300,40259,1,0,1:0:0:0:
56,296,40596,6,0,P|36:232|88:160,1,140,0|0,1:0|1:0,0:0:0:0:
240,108,41270,2,0,P|300:112|384:72,1,140,0|0,1:0|1:0,0:0:0:0:
124,180,41945,6,0,L|44:176,2,70,0|2|0,1:0|0:0|1:0,0:0:0:0:
296,216,42619,6,0,L|332:280,2,70,0|0|0,1:0|0:0|1:0,0:0:0:0:
212,180,43124,1,0,1:0:0:0:
44,120,43293,6,0,P|28:160|88:256,1,140,4|0,0:0|1:0,0:0:0:0:
156,260,43799,1,0,0:0:0:0:
248,264,43967,2,0,L|392:272,1,140,2|0,0:0|1:0,0:0:0:0:
160,312,44641,6,0,L|148:160,1,140,2|0,2:0|1:0,0:0:0:0:
240,156,45147,1,0,0:0:0:0:
332,152,45315,2,0,P|360:200|320:280,1,140,2|0,0:0|1:0,0:0:0:0:
88,256,45990,6,0,P|68:200|108:120,1,140,2|0,0:0|1:0,0:0:0:0:
188,108,46495,1,0,0:0:0:0:
280,96,46664,1,2,0:0:0:0:
188,108,46832,2,0,L|96:120,2,70,0|0|0,0:0|1:0|0:0,0:0:0:0:
360,264,47338,6,0,L|364:24,1,210,2|0,0:0|0:0,0:0:0:0:
272,48,48012,1,2,0:0:0:0:
180,40,48181,1,0,0:0:0:0:
88,32,48349,1,0,1:0:0:0:
340,196,48686,6,0,L|496:176,1,140,0|0,1:0|1:0,0:0:0:0:
284,132,49360,2,0,L|184:128,2,70,2|0|0,0:0|0:0|1:0,0:0:0:0:
76,256,50035,6,0,L|60:112,1,140,2|0,0:0|1:0,0:0:0:0:
240,96,50709,2,0,L|316:104,2,70,2|0|0,0:0|0:0|1:0,0:0:0:0:
440,252,51383,6,0,P|456:184|420:112,1,140,2|0,0:0|1:0,0:0:0:0:
340,100,51888,1,2,0:0:0:0:
248,112,52057,2,0,L|84:144,1,140,0|0,0:0|1:0,0:0:0:0:
280,220,52563,5,4,1:0:0:0:
108,276,53068,1,2,0:0:0:0:
288,304,53405,2,0,P|356:300|444:316,1,140,0|0,1:0|1:0,0:0:0:0:
160,320,54079,6,0,P|128:280|144:192,1,125.999996154785,4|0,0:0|1:0,0:0:0:0:
208,176,54584,1,0,0:0:0:0:
132,144,54753,1,0,1:0:0:0:
296,152,55090,2,0,L|440:144,1,125.999996154785,4|0,0:0|1:0,0:0:0:0:
360,148,55595,1,0,2:0:0:0:
296,152,55764,1,0,3:0:0:0:
52,296,56101,6,0,L|40:152,1,125.999996154785,4|0,0:0|3:0,0:0:0:0:
116,136,56607,1,0,0:0:0:0:
192,104,56775,1,0,1:0:0:0:
460,296,57112,2,0,L|472:152,1,125.999996154785,4|0,0:0|1:0,0:0:0:0:
396,136,57618,1,0,2:0:0:0:
320,104,57786,1,0,3:0:0:0:
92,316,58123,6,0,P|64:276|100:208,1,125.999996154785,4|0,0:0|3:0,0:0:0:0:
176,200,58629,1,0,0:0:0:0:
256,188,58798,1,0,1:0:0:0:
104,132,59135,2,0,L|252:136,1,125.999996154785,4|0,0:0|3:0,0:0:0:0:
312,140,59640,1,0,0:0:0:0:
392,144,59809,1,0,3:0:0:0:
152,264,60146,6,0,L|144:112,1,125.999996154785,4|0,0:0|1:0,0:0:0:0:
304,100,60820,2,0,L|312:24,1,62.9999980773926,6|0,0:0|0:0,0:0:0:0:
156,44,61157,6,0,L|28:56,1,125.999996154785,0|0,1:0|3:0,0:0:0:0:
92,52,61663,1,0,0:0:0:0:
156,44,61831,1,0,1:0:0:0:
392,244,62168,6,0,L|404:108,1,125.999996154785,4|0,0:0|1:0,0:0:0:0:
324,100,62674,1,0,0:0:0:0:
400,72,62843,1,0,1:0:0:0:
236,52,63180,2,0,L|96:60,1,125.999996154785,4|0,0:0|1:0,0:0:0:0:
188,76,63685,1,0,0:0:0:0:
108,92,63854,1,0,3:0:0:0:
360,188,64191,6,0,L|496:192,2,125.999996154785,4|0|0,0:0|1:0|1:0,0:0:0:0:
92,264,65202,5,0,1:0:0:0:
248,256,65539,1,0,1:0:0:0:
92,264,65876,1,0,1:0:0:0:
248,256,66213,1,0,1:0:0:0:
488,316,66550,6,0,P|496:252|448:176,1,140,4|0,2:2|1:0,0:0:0:0:
304,188,67224,1,0,1:0:0:0:
220,180,67393,1,0,0:0:0:0:
136,171,67561,1,0,1:0:0:0:
373,72,67898,6,0,L|525:68,2,140,0|0|0,1:0|1:0|1:0,0:0:0:0:
210,130,68909,2,0,L|177:211,1,70,0|0,1:0|1:0,0:0:0:0:
343,261,69246,6,0,P|389:200|346:135,1,140,4|0,1:0|0:0,0:0:0:0:
284,164,69752,2,0,P|231:77|262:8,1,140,0|0,1:0|0:0,0:0:0:0:
320,55,70258,1,0,0:0:0:0:
154,241,70426,2,0,P|83:195|96:102,1,140,0|0,1:0|0:0,0:0:0:0:
158,129,70932,2,0,L|231:112,1,70
395,156,71269,2,0,L|479:160,2,70,0|0|2,1:0|1:0|0:0,0:0:0:0:
112,300,71943,6,0,L|96:148,1,140,4|0,0:0|1:0,0:0:0:0:
280,140,72617,2,0,L|356:152,2,70,4|0|0,0:0|0:0|1:0,0:0:0:0:
40,280,73291,6,0,P|20:224|80:160,1,140,4|0,0:0|1:0,0:0:0:0:
156,164,73797,1,0,0:0:0:0:
248,160,73966,1,0,1:0:0:0:
432,200,74303,2,0,L|436:116,1,70,0|2,1:0|0:0,0:0:0:0:
264,92,74640,6,0,L|116:100,1,140,0|0,1:0|1:0,0:0:0:0:
300,220,75314,2,0,L|448:228,1,140,0|0,1:0|1:0,0:0:0:0:
184,312,75988,6,0,L|12:328,2,140,0|0|0,1:0|1:0|1:0,0:0:0:0:
364,308,76999,2,0,L|368:224,1,70,0|2,1:0|0:0,0:0:0:0:
196,252,77336,5,0,1:0:0:0:
144,176,77505,1,0,0:0:0:0:
124,88,77673,1,0,1:0:0:0:
144,176,77842,1,0,0:0:0:0:
196,252,78010,1,0,1:0:0:0:
372,300,78348,2,0,L|376:216,1,70,0|0,1:0|0:0,0:0:0:0:
204,224,78685,6,0,L|124:228,2,70,0|0|0,1:0|0:0|1:0,0:0:0:0:
376,280,79359,1,0,1:0:0:0:
440,216,79527,1,2,0:0:0:0:
448,124,79696,1,0,1:0:0:0:
408,40,79864,1,2,0:0:0:0:
236,64,80033,6,0,L|88:72,1,140,4|0,0:0|1:0,0:0:0:0:
260,140,80707,2,0,L|112:148,1,140,4|0,2:0|1:0,0:0:0:0:
372,248,81381,6,0,L|456:256,2,70,0|0|0,1:0|1:0|1:0,0:0:0:0:
192,264,82055,2,0,L|184:184,1,70,0|0,1:0|0:0,0:0:0:0:
276,172,82393,2,0,L|288:96,1,70,0|2,1:0|0:0,0:0:0:0:
116,88,82730,6,0,P|92:132|152:204,1,140,4|0,1:2|1:0,0:0:0:0:
316,224,83404,2,0,L|396:232,2,70,4|0|0,0:0|0:0|1:0,0:0:0:0:
60,288,84078,6,0,L|52:144,1,140,4|0,2:0|1:0,0:0:0:0:
140,128,84584,1,2,0:0:0:0:
228,108,84752,1,0,1:0:0:0:
404,156,85089,2,0,L|408:236,1,70,0|2,1:0|0:0,0:0:0:0:
236,256,85426,6,0,P|208:224|232:116,1,140,0|0,1:0|1:0,0:0:0:0:
400,136,86100,2,0,L|408:284,1,140,0|0,1:0|1:0,0:0:0:0:
152,312,86775,6,0,L|4:324,2,140,0|0|0,1:0|1:0|1:0,0:0:0:0:
332,332,87786,2,0,L|340:252,1,70,0|0,1:0|1:0,0:0:0:0:
168,256,88123,5,0,1:0:0:0:
116,180,88292,1,0,0:0:0:0:
96,92,88460,1,0,1:0:0:0:
116,180,88629,1,0,0:0:0:0:
168,256,88797,1,0,1:0:0:0:
348,280,89134,2,0,L|352:204,1,70,0|0,1:0|0:0,0:0:0:0:
181,271,89471,5,0,1:0:0:0:
116,206,89640,1,2,0:0:0:0:
79,124,89808,1,0,1:0:0:0:
116,206,89977,1,2,0:0:0:0:
181,271,90145,1,0,1:0:0:0:
364,276,90482,2,0,L|372:192,1,70,0|0,1:0|3:0,0:0:0:0:
200,176,90819,6,0,L|56:164,1,140,4|0,0:0|1:0,0:0:0:0:
244,276,91494,2,0,L|100:264,1,140,4|0,0:0|1:0,0:0:0:0:
344,164,92168,6,0,L|492:156,2,140,4|0|4,0:0|1:0|2:0,0:0:0:0:
180,240,93179,2,0,L|172:160,1,70,0|2,1:0|0:0,0:0:0:0:
344,136,93516,5,4,0:0:0:0:
344,136,93853,1,0,1:0:0:0:
176,140,94190,1,0,1:0:0:0:
344,136,94527,2,0,L|344:212,1,70,0|2,1:0|0:0,0:0:0:0:
172,240,94864,6,0,L|92:240,2,70,4|0|2,0:0|0:0|0:0,0:0:0:0:
356,236,95539,2,0,L|436:236,2,70,4|0|2,0:0|0:0|0:0,0:0:0:0:
96,288,96213,6,0,P|56:228|140:140,1,210,4|0,2:0|0:0,2:2:0:0:
228,144,96887,1,2,0:0:0:0:
320,152,97055,2,0,L|328:72,1,70,2|0,0:0|1:0,0:0:0:0:
156,56,97393,6,0,L|-12:60,2,140,2|2|0,0:0|0:0|0:0,0:0:0:0:
244,72,98235,2,0,L|248:148,1,70,2|0,0:0|0:0,0:0:0:0:
156,156,98572,2,0,L|152:252,1,70,0|0,1:0|1:0,0:0:0:0:
324,284,98909,6,0,P|376:232|296:132,1,210,4|0,0:0|0:0,0:0:0:0:
220,132,99584,2,0,L|216:44,1,70,2|0,0:0|0:0,0:0:0:0:
304,40,99921,2,0,L|384:36,1,70,0|2,1:0|0:0,0:0:0:0:
204,116,100258,6,0,L|112:120,2,70,2|0|0,0:0|0:0|1:0,0:0:0:0:
372,180,100932,2,0,L|464:184,2,70,2|0|0,0:0|1:0|1:0,0:0:0:0:
120,280,101606,6,0,P|96:208|200:112,1,210,4|0,0:0|0:0,0:0:0:0:
268,124,102280,2,0,L|192:108,1,70,2|0,0:0|0:0,0:0:0:0:
112,92,102617,1,0,1:0:0:0:
284,52,102786,6,0,L|440:40,2,140,2|2|0,0:0|0:0|0:0,0:0:0:0:
196,64,103628,2,0,L|108:72,2,70,2|0|0,0:0|0:0|1:0,0:0:0:0:
284,84,104134,1,0,1:0:0:0:
456,240,104303,6,0,L|464:96,1,140,4|0,0:0|1:0,0:0:0:0:
372,88,104808,1,2,0:0:0:0:
284,84,104977,2,0,L|136:92,1,140,4|0,0:0|1:0,0:0:0:0:
224,136,105482,1,2,0:0:0:0:
408,208,105651,6,0,L|480:200,2,70,4|0|0,0:0|1:0|1:0,0:0:0:0:
228,244,106325,2,0,L|216:164,1,70,0|2,1:0|0:0,0:0:0:0:
304,244,106662,2,0,L|312:168,1,70,0|0,1:0|1:0,0:0:0:0:
140,156,106999,5,4,1:0:0:0:
