osu file format v14

[General]
AudioFilename: audio.mp3
AudioLeadIn: 0
PreviewTime: 71859
Countdown: 0
SampleSet: Soft
StackLeniency: 0.7
Mode: 2
LetterboxInBreaks: 0
WidescreenStoryboard: 1

[Editor]
DistanceSpacing: 0.9
BeatDivisor: 2
GridSize: 4
TimelineZoom: 1.3

[Metadata]
Title:Precious * Star
TitleUnicode:Precious ☆ Star
Artist:DJ TOTTO feat. Enako
ArtistUnicode:DJ TOTTO feat. えなこ
Creator:Spectator
Version:Cup
Source:REFLEC BEAT VOLZZA 2
Tags:Myle KONAMI yoshihiro tagawa 田川 義浩 kozue
BeatmapID:1669003
BeatmapSetID:776495

[Difficulty]
HPDrainRate:3
CircleSize:2
OverallDifficulty:6
ApproachRate:6
SliderMultiplier:1.2
SliderTickRate:1

[Events]
//Background and Video events
0,0,"y1.jpg",0,0
//Break Periods
//Storyboard Layer 0 (Background)
//Storyboard Layer 1 (Fail)
//Storyboard Layer 2 (Pass)
//Storyboard Layer 3 (Foreground)
//Storyboard Sound Samples

[TimingPoints]
2844,337.078651685393,4,2,1,60,1,0
5540,-100,4,2,1,70,0,0
8237,-111.111111111111,4,2,1,65,0,0
16327,-100,4,2,1,60,0,0
19108,-100,4,2,1,17,0,0
20372,-100,4,2,1,35,0,0
21720,-100,4,2,1,70,0,0
29641,-100,4,2,1,75,0,0
32506,-100,4,2,1,70,0,0
43293,-100,4,2,1,75,0,0
54079,337.078651685393,3,2,1,60,1,0
54079,-111.111111111111,3,2,1,60,0,0
65202,337.078651685393,4,2,1,70,1,0
66550,-100,4,2,1,75,0,0
71943,-100,4,2,1,90,0,1
96213,-100,4,2,1,80,0,0
105651,-100,4,2,1,80,0,0
105988,-100,4,2,1,80,0,0

[Colours]
Combo1 : 106,181,255
Combo2 : 253,123,163
Combo3 : 255,130,98
Combo4 : 124,252,143

[HitObjects]
167,259,2844,6,0,P|105:218|184:188,1,180,2|2,0:0|0:0,0:0:0:0:
345,259,3855,2,0,P|407:218|328:188,1,180,2|2,0:0|0:0,0:0:0:0:
182,186,4866,2,0,L|172:323,1,120,2|2,0:0|0:0,0:0:0:0:
316,302,5540,6,0,P|375:264|297:141,1,240,4|0,0:0|1:0,0:0:0:0:
180,140,6551,1,0,0:0:0:0:
316,139,6888,2,0,P|372:146|434:134,1,120,4|0,0:0|1:0,0:0:0:0:
297,232,7563,1,0,1:0:0:0:
160,236,7900,1,0,1:0:0:0:
51,282,8237,6,0,P|47:216|173:142,1,215.999993408203,2|2,0:0|0:0,0:0:0:0:
277,141,9248,1,0,0:0:0:0:
152,136,9585,2,0,P|100:173|51:161,2,107.999996704102,0|0|2,0:0|0:0|0:0,0:0:0:0:
266,170,10596,1,0,0:0:0:0:
377,142,10933,6,0,L|384:250,1,107.999996704102,2|0,0:0|0:0,0:0:0:0:
277,231,11608,1,2,0:0:0:0:
170,211,11945,1,0,0:0:0:0:
284,244,12282,2,0,P|326:231|400:255,2,107.999996704102,2|2|2,0:0|0:0|0:0,0:0:0:0:
121,286,13630,6,0,P|56:231|131:156,1,215.999993408203,2|0,0:0|0:0,0:0:0:0:
248,192,14641,2,0,L|335:112,2,107.999996704102,2|0|2,0:0|0:0|0:0,0:0:0:0:
109,61,15652,2,0,L|100:169,1,107.999996704102,2|2,0:0|0:0,0:0:0:0:
247,291,16327,6,0,P|300:265|271:158,1,180,2|0,0:0|0:0,0:0:0:0:
189,148,17001,2,0,L|184:7,1,120,2|0,0:0|0:0,0:0:0:0:
316,117,17675,6,0,P|366:108|436:132,1,120,2|0,0:0|0:0,0:0:0:0:
300,236,18349,2,0,P|250:227|180:251,1,120,0|0,0:0|0:0,0:0:0:0:
66,198,19023,1,2,0:0:0:0:
256,192,19360,12,0,21383,0:0:0:0:
261,283,21720,6,0,P|318:246|267:136,1,180,4|2,0:0|0:0,0:0:0:0:
202,117,22394,2,0,L|196:263,1,120,0|0,1:0|1:0,0:0:0:0:
280,215,22900,5,2,0:0:0:0:
137,264,23237,1,2,0:0:0:0:
280,215,23574,1,2,0:0:0:0:
340,230,23742,2,0,P|364:291|352:360,1,120,0|0,1:0|1:0,0:0:0:0:
172,313,24417,6,0,P|96:253|197:172,1,240,4|0,2:0|1:0,0:0:0:0:
306,148,25428,1,0,1:0:0:0:
164,138,25765,6,0,L|161:272,1,120,0|0,1:0|1:0,0:0:0:0:
296,276,26439,1,0,1:0:0:0:
345,229,26608,1,0,1:0:0:0:
296,276,26777,1,0,1:0:0:0:
439,310,27113,6,0,P|479:254|393:178,1,180,4|0,0:0|0:0,0:0:0:0:
330,191,27787,2,0,P|315:140|361:94,1,120,0|0,1:0|1:0,0:0:0:0:
422,94,28293,5,2,0:0:0:0:
297,91,28630,1,2,0:0:0:0:
165,89,28967,1,2,0:0:0:0:
101,113,29136,2,0,L|100:245,1,120,0|0,1:0|1:0,0:0:0:0:
271,234,29810,6,0,P|324:199|342:132,1,120,4|0,0:0|1:0,0:0:0:0:
200,152,30484,2,0,P|147:117|129:50,1,120,4|0,2:0|1:0,0:0:0:0:
263,227,31158,5,4,2:0:0:0:
355,153,31495,1,0,1:0:0:0:
263,227,31832,1,0,1:0:0:0:
167,150,32169,1,0,1:0:0:0:
285,201,32506,6,0,P|344:191|423:229,1,120,4|0,0:0|1:0,0:0:0:0:
293,316,33181,2,0,P|234:306|155:344,1,120,0|0,1:0|1:0,0:0:0:0:
57,320,33855,2,0,P|42:266|82:224,1,120,0|0,1:0|1:0,0:0:0:0:
182,213,34529,2,0,P|220:158|180:116,1,120,0|0,1:0|1:0,0:0:0:0:
303,113,35203,6,0,P|364:110|416:161,1,120,0|0,1:0|1:0,0:0:0:0:
294,219,35877,2,0,P|233:216|181:267,1,120,0|0,1:0|1:0,0:0:0:0:
79,289,36551,2,0,L|76:153,1,120,0|0,1:0|1:0,0:0:0:0:
189,126,37226,1,0,1:0:0:0:
301,84,37563,1,0,1:0:0:0:
182,122,37900,6,0,P|123:109|67:139,2,120,0|0|0,1:0|1:0|1:0,0:0:0:0:
289,162,38911,1,0,1:0:0:0:
163,218,39248,2,0,P|104:205|43:224,2,120,0|0|0,1:0|1:0|1:0,0:0:0:0:
297,262,40259,1,0,1:0:0:0:
172,321,40596,6,0,P|129:269|150:220,1,120,0|0,1:0|1:0,0:0:0:0:
259,191,41270,1,0,1:0:0:0:
374,157,41608,1,0,1:0:0:0:
253,74,41945,1,0,1:0:0:0:
175,149,42282,1,0,1:0:0:0:
155,255,42619,1,0,1:0:0:0:
201,352,42956,1,0,1:0:0:0:
347,350,43293,6,0,L|473:335,1,120,4|0,0:0|1:0,0:0:0:0:
340,247,43967,2,0,L|214:232,1,120,2|0,0:0|1:0,0:0:0:0:
91,244,44641,2,0,P|73:184|118:136,1,120,2|0,2:0|1:0,0:0:0:0:
235,118,45315,1,2,0:0:0:0:
245,224,45652,1,0,1:0:0:0:
370,220,45990,6,0,L|386:353,1,120,2|0,0:0|1:0,0:0:0:0:
241,251,46664,2,0,L|225:384,1,120,2|0,0:0|1:0,0:0:0:0:
364,263,47338,1,2,0:0:0:0:
242,244,47675,1,0,1:0:0:0:
118,211,48012,1,2,0:0:0:0:
240,192,48349,1,0,1:0:0:0:
361,163,48686,6,0,L|371:307,1,120,0|0,1:0|1:0,0:0:0:0:
262,266,49360,1,2,0:0:0:0:
155,246,49697,1,0,1:0:0:0:
316,240,50035,2,0,P|360:197|332:119,1,120,2|0,0:0|1:0,0:0:0:0:
229,150,50709,2,0,P|185:107|213:29,1,120,2|0,0:0|1:0,0:0:0:0:
339,53,51383,6,0,P|389:99|347:135,1,120,2|0,0:0|1:0,0:0:0:0:
274,145,51888,2,0,P|211:196|298:224,1,180,2|0,0:0|1:0,0:0:0:0:
351,242,52563,1,4,1:0:0:0:
140,241,53068,5,2,0:0:0:0:
266,211,53405,2,0,P|305:273|281:320,1,120,0|0,1:0|1:0,0:0:0:0:
149,332,54079,6,0,P|85:315|46:273,2,107.999996704102,4|0|0,0:0|1:0|1:0,0:0:0:0:
272,259,55090,1,4,0:0:0:0:
272,259,55427,1,0,1:0:0:0:
141,325,55764,1,0,3:0:0:0:
288,275,56101,6,0,P|352:258|391:216,2,107.999996704102,4|0|0,0:0|3:0|1:0,0:0:0:0:
165,202,57112,1,4,0:0:0:0:
165,202,57449,1,0,1:0:0:0:
287,154,57786,1,2,0:0:0:0:
138,150,58123,6,0,L|132:284,1,107.999996704102,4|0,0:0|3:0,0:0:0:0:
246,221,58798,1,0,1:0:0:0:
356,168,59135,1,4,0:0:0:0:
229,143,59472,1,0,1:0:0:0:
220,59,59809,1,0,1:0:0:0:
334,113,60146,6,0,L|340:247,1,107.999996704102,4|0,0:0|1:0,0:0:0:0:
455,213,60820,1,6,0:0:0:0:
326,231,61157,1,0,1:0:0:0:
204,215,61494,1,0,1:0:0:0:
326,231,61831,1,0,1:0:0:0:
444,207,62168,6,0,L|460:328,1,107.999996704102,4|0,0:0|1:0,0:0:0:0:
327,325,62843,1,0,1:0:0:0:
215,336,63180,1,4,0:0:0:0:
215,336,63517,1,0,1:0:0:0:
327,325,63854,1,0,1:0:0:0:
174,332,64191,6,0,P|110:315|71:273,2,107.999996704102,4|0|0,0:0|1:0|1:0,0:0:0:0:
264,289,65202,1,0,1:0:0:0:
151,346,65539,1,0,1:0:0:0:
264,289,65876,1,0,1:0:0:0:
151,346,66213,1,0,1:0:0:0:
113,280,66381,1,0,0:0:0:0:
151,346,66550,5,4,2:2:0:0:
264,312,66887,1,0,1:0:0:0:
378,268,67224,2,0,L|398:386,1,120,0|0,1:0|1:0,0:0:0:0:
251,311,67898,2,0,P|191:299|127:318,1,120,0|0,1:0|1:0,0:0:0:0:
261,311,68572,2,0,P|321:299|385:318,1,120,0|0,1:0|1:0,0:0:0:0:
248,343,69246,6,0,P|196:308|209:242,1,120,4|0,1:0|0:0,0:0:0:0:
287,234,69752,2,0,P|351:193|267:166,1,180,0|0,1:0|0:0,0:0:0:0:
206,147,70426,1,0,1:0:0:0:
418,145,70932,6,0,L|421:295,1,120,0|0,0:0|1:0,0:0:0:0:
329,265,71437,1,0,1:0:0:0:
167,274,71943,6,0,L|156:147,1,120,4|0,0:0|1:0,0:0:0:0:
263,171,72617,1,4,0:0:0:0:
369,188,72954,1,0,1:0:0:0:
261,194,73291,2,0,P|202:197|140:231,1,120,4|0,0:0|1:0,0:0:0:0:
274,245,73966,1,0,1:0:0:0:
152,230,74303,1,0,1:0:0:0:
278,279,74640,6,0,L|297:144,1,120,0|0,1:0|1:0,0:0:0:0:
177,129,75314,1,0,1:0:0:0:
292,100,75651,1,0,1:0:0:0:
415,71,75988,1,2,1:2:0:0:
423,172,76325,1,2,1:2:0:0:
292,178,76662,1,2,1:2:0:0:
300,275,76999,1,0,1:0:0:0:
171,332,77336,6,0,P|101:314|53:338,2,120,0|0|0,1:0|1:0|1:0,0:0:0:0:
301,334,78348,2,0,P|371:316|419:340,2,120,0|0|0,1:0|1:0|1:0,0:0:0:0:
172,339,79359,1,0,1:0:0:0:
164,239,79696,1,0,1:0:0:0:
286,198,80033,6,0,L|422:212,1,120,4|0,0:0|1:0,0:0:0:0:
271,312,80707,2,0,L|135:326,1,120,4|0,2:0|1:0,0:0:0:0:
30,288,81381,1,2,1:2:0:0:
22,191,81718,1,0,1:0:0:0:
115,153,82055,1,2,1:2:0:0:
229,190,82393,1,2,1:2:0:0:
345,274,82730,6,0,L|356:147,1,120,4|0,1:2|1:0,0:0:0:0:
249,171,83404,1,4,0:0:0:0:
143,188,83741,1,0,1:0:0:0:
251,194,84078,2,0,P|310:197|372:231,1,120,4|0,2:0|1:0,0:0:0:0:
238,245,84753,1,0,1:0:0:0:
360,230,85090,1,0,1:0:0:0:
234,279,85427,6,0,L|215:144,1,120,0|0,1:0|1:0,0:0:0:0:
335,129,86101,1,0,1:0:0:0:
220,100,86438,1,0,1:0:0:0:
97,71,86775,1,2,1:2:0:0:
89,172,87112,1,2,1:2:0:0:
220,178,87449,1,2,1:2:0:0:
212,275,87786,1,0,1:0:0:0:
341,332,88123,6,0,P|411:314|459:338,2,120,0|0|0,1:0|1:0|1:0,1:0:0:0:
220,323,89134,1,0,1:0:0:0:
151,247,89471,1,0,1:0:0:0:
220,323,89808,1,0,1:0:0:0:
328,321,90145,1,2,1:2:0:0:
220,323,90482,1,2,1:2:0:0:
86,321,90819,6,0,L|63:204,1,120,4|0,0:0|1:0,0:0:0:0:
188,195,91494,2,0,L|211:78,1,120,4|0,0:0|1:0,0:0:0:0:
350,148,92168,2,0,P|408:157|469:126,1,120,4|0,0:0|1:0,0:0:0:0:
296,238,92842,2,0,P|238:247|177:216,1,120,4|0,2:0|1:0,0:0:0:0:
330,242,93516,6,0,P|403:199|310:116,1,240,4|0,0:0|1:0,0:0:0:0:
215,101,94527,1,0,1:0:0:0:
111,94,94864,6,0,P|77:156|130:184,1,120,4|2,0:0|0:0,0:0:0:0:
264,176,95539,2,0,P|298:238|245:266,1,120,4|2,0:0|0:0,0:0:0:0:
129,338,96213,6,0,P|72:301|123:191,1,180,4|0,2:0|0:0,0:0:0:0:
188,172,96887,2,0,L|194:318,1,120,2|0,0:0|1:0,0:0:0:0:
110,270,97393,5,2,0:0:0:0:
253,319,97730,1,2,0:0:0:0:
355,229,98067,1,2,0:0:0:0:
415,244,98235,2,0,P|439:305|427:374,1,120,2|0,0:0|1:0,0:0:0:0:
290,312,98910,6,0,P|214:252|315:171,1,240,4|2,0:0|0:0,0:0:0:0:
406,193,99921,1,0,1:0:0:0:
293,233,100258,6,0,P|248:265|193:240,1,120,2|0,0:0|1:0,0:0:0:0:
303,183,100932,1,2,0:0:0:0:
303,183,101100,1,0,1:0:0:0:
303,183,101269,1,0,1:0:0:0:
155,276,101606,6,0,P|115:220|201:144,1,180,4|0,0:0|0:0,0:0:0:0:
264,157,102280,2,0,P|279:106|233:60,1,120,2|0,0:0|1:0,0:0:0:0:
172,60,102786,5,2,0:0:0:0:
67,126,103123,1,2,0:0:0:0:
187,162,103460,1,0,0:0:0:0:
233,204,103629,2,0,L|371:188,1,120,2|0,0:0|1:0,0:0:0:0:
213,275,104303,6,0,P|160:240|142:173,1,120,4|0,0:0|1:0,0:0:0:0:
256,170,104977,1,4,0:0:0:0:
374,146,105314,1,0,1:0:0:0:
261,257,105651,5,4,0:0:0:0:
313,269,105819,1,0,1:0:0:0:
365,281,105988,1,0,1:0:0:0:
465,186,106325,2,0,L|473:305,1,120,0|0,1:0|1:0,0:0:0:0:
307,329,106999,1,4,1:0:0:0:
