osu file format v14

[General]
AudioFilename: Kanata no Reflesia.mp3
AudioLeadIn: 0
PreviewTime: 79744
Countdown: 0
SampleSet: Normal
StackLeniency: 0.7
Mode: 1
LetterboxInBreaks: 0
WidescreenStoryboard: 0

[Editor]
DistanceSpacing: 0.8
BeatDivisor: 4
GridSize: 8
TimelineZoom: 1.5

[Metadata]
Title:Kanata no Reflesia
TitleUnicode:彼方のリフレシア
Artist:DJ TOTTO feat. Annabel & Hiyama Nao
ArtistUnicode:DJ TOTTO feat. Annabel & 日山尚
Creator:iloveyou4ever
Version:sing's Oni
Source:REFLEC BEAT 悠久のリフレシア
Tags:TCBC #1 Taiko Chinese Beatmap Contest Nardoxyribonucleic -GN Junior Cynplytholowazy Prophecy sing216 mintong89
BeatmapID:1651584
BeatmapSetID:785734

[Difficulty]
HPDrainRate:5.5
CircleSize:5
OverallDifficulty:5
ApproachRate:5
SliderMultiplier:1.4
SliderTickRate:1

[Events]
//Background and Video events
0,0,"kanata.jpg",0,-70
//Break Periods
//Storyboard Layer 0 (Background)
//Storyboard Layer 1 (Fail)
//Storyboard Layer 2 (Pass)
//Storyboard Layer 3 (Foreground)
//Storyboard Layer 4 (Overlay)
//Storyboard Sound Samples

[TimingPoints]
2078,333.333333333333,3,1,0,90,1,0
2078,-111.111111111111,3,1,0,90,0,0
9411,-113.636363636364,3,1,0,90,0,0
9744,-116.279069767442,3,1,0,90,0,0
10077,-117.647058823529,3,1,0,65,0,0
14077,-113.636363636364,3,1,0,75,0,0
16077,-109.89010989011,3,1,0,75,0,0
18077,-109.89010989011,3,1,0,75,0,0
18411,-109.89010989011,3,1,0,65,0,0
20744,-109.89010989011,3,1,0,60,0,0
22077,-100,3,1,0,75,0,0
30077,-100,3,1,0,80,0,0
38161,-100,3,1,0,85,0,0
46161,-102.040816326531,3,1,0,70,0,0
46494,-104.166666666667,3,1,0,70,0,0
46827,-106.382978723404,3,1,0,70,0,0
47161,-108.695652173913,3,1,0,70,0,0
47494,-111.111111111111,3,1,0,70,0,0
50077,-108.695652173913,3,1,0,73,0,0
54077,-106.382978723404,3,1,0,75,0,0
58077,-104.166666666667,3,1,0,77,0,0
59744,-104.166666666667,3,1,0,79,0,0
61994,-104.166666666667,3,1,0,60,0,0
62994,-111.111111111111,3,1,0,70,0,0
63744,-97.0873786407767,3,1,0,80,0,0
64077,-97.0873786407767,3,1,0,85,0,0
72077,-97.0873786407767,3,1,0,85,0,0
77994,-97.0873786407767,3,1,0,85,0,0
78161,-96.1538461538461,3,1,0,85,0,0
78827,-95.2380952380952,3,1,0,85,0,0
80077,-95.2380952380952,3,1,0,90,0,1
91077,-95.2380952380952,3,1,0,90,0,0
92077,-95.2380952380952,3,1,0,90,0,1
96077,-95.2380952380952,3,1,0,90,0,0
96158,-100,3,1,0,75,0,0
98077,-95.2380952380952,3,1,0,85,0,1
100077,-95.2380952380952,3,1,0,75,0,0
100161,-100,3,1,0,75,0,0
102077,-95.2380952380952,3,1,0,85,0,1
104077,-95.2380952380952,3,1,0,75,0,0
104161,-100,3,1,0,75,0,0
106077,-95.2380952380952,3,1,0,85,0,1
108077,-95.2380952380952,3,1,0,75,0,0
108161,-100,3,1,0,75,0,0
110077,-95.2380952380952,3,1,0,85,0,1
112161,-95.2380952380952,3,1,0,90,0,1
114077,-95.2380952380952,3,1,0,90,0,0
114161,-95.2380952380952,3,1,0,80,0,0

[HitObjects]
256,192,2078,5,4,0:0:0:0:
256,192,3077,1,8,0:0:0:0:
256,192,3411,1,0,0:0:0:0:
256,192,3744,1,8,0:0:0:0:
256,192,4077,1,8,0:0:0:0:
256,192,4911,1,8,0:0:0:0:
256,192,4994,1,8,0:0:0:0:
256,192,5077,1,8,0:0:0:0:
256,192,5411,1,0,0:0:0:0:
256,192,5744,1,8,0:0:0:0:
256,192,6077,1,12,0:0:0:0:
256,192,7077,1,8,0:0:0:0:
256,192,7411,1,0,0:0:0:0:
256,192,7744,1,8,0:0:0:0:
256,192,8077,1,0,0:0:0:0:
256,192,8744,1,8,0:0:0:0:
256,192,8911,1,8,0:0:0:0:
256,192,9077,1,8,0:0:0:0:
256,192,9411,1,0,0:0:0:0:
264,192,9744,1,8,0:0:0:0:
256,192,10077,1,8,0:0:0:0:
248,192,10244,1,8,0:0:0:0:
256,192,10411,1,8,0:0:0:0:
256,192,10744,1,0,0:0:0:0:
264,200,10911,1,8,0:0:0:0:
256,192,11077,1,8,0:0:0:0:
256,192,11244,1,0,0:0:0:0:
256,192,11411,1,0,0:0:0:0:
256,192,11744,1,8,0:0:0:0:
256,192,11911,1,0,0:0:0:0:
264,192,12077,1,8,0:0:0:0:
248,192,12244,1,0,0:0:0:0:
256,192,12411,1,0,0:0:0:0:
256,192,12577,1,8,0:0:0:0:
256,192,12911,1,0,0:0:0:0:
256,192,13077,1,0,0:0:0:0:
256,192,13411,1,8,0:0:0:0:
256,192,13744,1,8,0:0:0:0:
256,200,14077,1,4,0:0:0:0:
256,200,14577,1,0,0:0:0:0:
256,200,14744,1,8,0:0:0:0:
256,200,15077,1,0,0:0:0:0:
256,200,15411,1,8,0:0:0:0:
256,200,15577,1,8,0:0:0:0:
256,200,15744,1,0,0:0:0:0:
256,200,16077,1,12,0:0:0:0:
264,200,16577,1,0,0:0:0:0:
264,200,16744,1,8,0:0:0:0:
264,200,17077,1,0,0:0:0:0:
256,208,17411,1,8,0:0:0:0:
256,208,17577,1,0,0:0:0:0:
256,208,17744,1,8,0:0:0:0:
256,208,18077,1,4,0:0:0:0:
256,192,18244,12,0,20077,0:0:0:0:
256,192,20911,5,8,0:0:0:0:
256,192,20994,1,8,0:0:0:0:
256,192,21077,5,8,0:0:0:0:
264,208,22077,1,0,0:0:0:0:
264,208,22411,1,0,0:0:0:0:
256,200,22577,1,8,0:0:0:0:
264,208,22744,1,0,0:0:0:0:
264,208,23077,1,0,0:0:0:0:
264,208,23411,1,0,0:0:0:0:
256,208,23577,1,0,0:0:0:0:
264,208,23744,1,8,0:0:0:0:
248,200,23911,1,0,0:0:0:0:
264,208,24077,1,8,0:0:0:0:
248,200,24411,1,0,0:0:0:0:
256,200,24577,1,8,0:0:0:0:
248,200,24744,1,0,0:0:0:0:
248,200,25077,1,0,0:0:0:0:
240,200,25244,1,0,0:0:0:0:
248,200,25411,1,8,0:0:0:0:
240,200,25577,1,8,0:0:0:0:
240,208,25661,1,8,0:0:0:0:
248,200,25744,1,8,0:0:0:0:
256,192,25911,1,0,0:0:0:0:
248,200,26077,1,8,0:0:0:0:
256,208,26411,1,0,0:0:0:0:
256,200,26577,1,8,0:0:0:0:
256,208,26744,1,0,0:0:0:0:
256,208,27077,1,0,0:0:0:0:
264,200,27244,1,0,0:0:0:0:
256,208,27411,1,8,0:0:0:0:
248,200,27577,1,8,0:0:0:0:
256,208,27744,1,0,0:0:0:0:
256,192,27911,1,8,0:0:0:0:
256,208,28077,1,0,0:0:0:0:
256,208,28244,1,8,0:0:0:0:
256,208,28327,1,0,0:0:0:0:
256,208,28411,1,0,0:0:0:0:
256,208,28577,1,8,0:0:0:0:
256,208,28911,1,0,0:0:0:0:
256,208,29077,1,0,0:0:0:0:
256,200,29244,1,8,0:0:0:0:
256,200,29411,1,0,0:0:0:0:
256,200,29577,1,8,0:0:0:0:
256,200,29661,1,8,0:0:0:0:
256,200,29744,1,8,0:0:0:0:
256,200,29911,1,8,0:0:0:0:
256,200,30077,1,0,0:0:0:0:
256,200,30411,1,0,0:0:0:0:
256,200,30577,1,8,0:0:0:0:
256,200,30911,1,8,0:0:0:0:
264,208,31077,1,0,0:0:0:0:
256,192,31244,1,0,0:0:0:0:
264,208,31411,1,8,0:0:0:0:
256,208,31577,1,0,0:0:0:0:
264,208,31744,1,8,0:0:0:0:
256,208,31827,1,8,0:0:0:0:
256,208,31911,1,0,0:0:0:0:
264,208,32077,1,8,0:0:0:0:
248,200,32411,1,8,0:0:0:0:
256,200,32577,1,0,0:0:0:0:
248,200,32911,1,0,0:0:0:0:
248,200,33077,1,0,0:0:0:0:
240,200,33244,1,8,0:0:0:0:
248,200,33411,1,0,0:0:0:0:
240,200,33577,1,8,0:0:0:0:
240,208,33661,1,8,0:0:0:0:
248,200,33744,1,8,0:0:0:0:
256,192,33911,1,8,0:0:0:0:
248,200,34077,1,0,0:0:0:0:
256,208,34411,1,0,0:0:0:0:
256,200,34577,1,0,0:0:0:0:
256,208,34744,1,8,0:0:0:0:
256,200,34911,1,8,0:0:0:0:
256,208,35077,1,0,0:0:0:0:
264,200,35244,1,0,0:0:0:0:
256,200,35327,1,0,0:0:0:0:
256,208,35411,1,8,0:0:0:0:
256,208,35744,1,8,0:0:0:0:
264,192,35911,1,0,0:0:0:0:
256,208,36077,1,8,0:0:0:0:
256,208,36244,1,0,0:0:0:0:
256,208,36327,1,0,0:0:0:0:
256,208,36411,1,0,0:0:0:0:
256,208,36577,1,8,0:0:0:0:
256,208,36911,1,8,0:0:0:0:
256,208,37077,1,0,0:0:0:0:
256,200,37161,1,0,0:0:0:0:
256,200,37244,1,8,0:0:0:0:
256,200,37411,1,0,0:0:0:0:
256,200,37577,1,8,0:0:0:0:
256,200,37661,1,8,0:0:0:0:
256,200,37744,1,8,0:0:0:0:
256,200,37911,1,0,0:0:0:0:
256,200,38077,1,8,0:0:0:0:
256,200,38411,1,8,0:0:0:0:
256,200,38577,1,0,0:0:0:0:
256,200,38911,1,8,0:0:0:0:
256,200,39077,1,0,0:0:0:0:
248,200,39161,1,0,0:0:0:0:
256,200,39244,1,8,0:0:0:0:
256,200,39411,1,0,0:0:0:0:
256,200,39577,1,8,0:0:0:0:
256,200,39744,1,0,0:0:0:0:
256,200,39911,1,0,0:0:0:0:
256,200,40077,1,8,0:0:0:0:
256,192,40411,1,8,0:0:0:0:
256,200,40577,1,0,0:0:0:0:
256,200,40911,1,0,0:0:0:0:
264,200,41077,1,0,0:0:0:0:
264,200,41244,1,8,0:0:0:0:
272,192,41411,1,0,0:0:0:0:
264,200,41577,1,8,0:0:0:0:
264,200,41661,1,8,0:0:0:0:
264,200,41744,1,8,0:0:0:0:
256,200,41911,1,0,0:0:0:0:
256,200,42077,1,8,0:0:0:0:
256,200,42411,1,8,0:0:0:0:
264,200,42577,1,0,0:0:0:0:
256,200,42911,1,0,0:0:0:0:
264,192,43077,1,0,0:0:0:0:
256,192,43244,1,8,0:0:0:0:
256,192,43411,1,0,0:0:0:0:
256,200,43577,1,0,0:0:0:0:
264,200,43661,1,0,0:0:0:0:
256,192,43744,1,0,0:0:0:0:
256,192,43911,1,8,0:0:0:0:
256,192,44077,1,0,0:0:0:0:
256,200,44244,1,0,0:0:0:0:
256,200,44327,1,0,0:0:0:0:
256,200,44411,1,8,0:0:0:0:
256,200,44577,1,0,0:0:0:0:
256,200,44911,1,0,0:0:0:0:
256,200,45077,1,8,0:0:0:0:
256,200,45244,1,0,0:0:0:0:
256,200,45411,1,0,0:0:0:0:
256,200,45577,1,8,0:0:0:0:
256,200,45744,1,0,0:0:0:0:
256,200,45911,1,0,0:0:0:0:
256,200,45994,1,0,0:0:0:0:
256,200,46077,1,8,0:0:0:0:
264,200,46411,1,8,0:0:0:0:
264,200,46744,1,8,0:0:0:0:
264,200,47077,1,8,0:0:0:0:
264,200,47411,1,8,0:0:0:0:
264,200,47744,1,8,0:0:0:0:
264,192,47911,1,8,0:0:0:0:
264,200,48077,1,0,0:0:0:0:
264,192,48244,1,0,0:0:0:0:
264,192,48411,1,8,0:0:0:0:
264,192,48577,1,0,0:0:0:0:
256,192,48911,1,0,0:0:0:0:
264,192,49077,1,8,0:0:0:0:
264,192,49411,1,8,0:0:0:0:
264,200,49744,1,0,0:0:0:0:
264,200,50077,1,12,0:0:0:0:
256,176,50411,1,8,0:0:0:0:
264,184,50577,1,0,0:0:0:0:
256,176,50911,1,0,0:0:0:0:
256,176,51077,1,8,0:0:0:0:
256,192,51244,1,0,0:0:0:0:
256,176,51411,1,8,0:0:0:0:
256,192,51744,1,8,0:0:0:0:
256,168,51911,1,0,0:0:0:0:
256,176,52077,1,8,0:0:0:0:
256,168,52244,1,8,0:0:0:0:
256,168,52411,1,8,0:0:0:0:
256,168,52577,1,0,0:0:0:0:
248,168,52911,1,0,0:0:0:0:
256,168,53077,1,8,0:0:0:0:
248,176,53244,1,0,0:0:0:0:
256,168,53411,1,8,0:0:0:0:
256,168,53494,1,8,0:0:0:0:
256,168,53577,1,0,0:0:0:0:
256,176,53744,1,8,0:0:0:0:
256,176,54077,1,4,0:0:0:0:
264,200,54411,1,8,0:0:0:0:
248,200,54577,1,0,0:0:0:0:
256,200,54911,1,0,0:0:0:0:
264,200,55077,1,8,0:0:0:0:
256,192,55244,1,0,0:0:0:0:
264,192,55411,1,8,0:0:0:0:
256,208,55744,1,8,0:0:0:0:
264,200,55911,1,0,0:0:0:0:
264,192,56077,1,8,0:0:0:0:
264,192,56244,1,0,0:0:0:0:
264,192,56327,1,0,0:0:0:0:
264,192,56411,1,8,0:0:0:0:
264,192,56577,1,0,0:0:0:0:
256,192,56911,1,0,0:0:0:0:
264,192,57077,1,8,0:0:0:0:
256,200,57244,1,0,0:0:0:0:
264,192,57411,1,8,0:0:0:0:
264,192,57494,1,8,0:0:0:0:
264,192,57577,1,8,0:0:0:0:
264,200,57744,1,0,0:0:0:0:
264,200,58077,1,12,0:0:0:0:
256,200,58411,1,8,0:0:0:0:
256,200,58577,1,0,0:0:0:0:
256,200,58911,1,0,0:0:0:0:
256,200,59077,1,8,0:0:0:0:
256,200,59244,1,8,0:0:0:0:
256,200,59411,1,0,0:0:0:0:
256,200,59577,1,8,0:0:0:0:
256,200,59911,1,0,0:0:0:0:
256,200,60077,1,8,0:0:0:0:
256,192,60161,1,8,0:0:0:0:
248,192,60244,1,8,0:0:0:0:
264,192,60411,1,0,0:0:0:0:
248,192,60577,1,8,0:0:0:0:
248,192,60911,1,8,0:0:0:0:
248,192,61077,1,8,0:0:0:0:
248,192,61244,1,0,0:0:0:0:
248,192,61411,1,8,0:0:0:0:
248,192,61577,1,0,0:0:0:0:
256,200,61661,1,0,0:0:0:0:
248,192,61744,1,8,0:0:0:0:
248,192,61911,1,0,0:0:0:0:
248,192,62077,1,8,0:0:0:0:
256,192,63744,1,0,0:0:0:0:
256,192,63911,1,0,0:0:0:0:
256,192,63994,1,0,0:0:0:0:
256,192,64077,1,8,0:0:0:0:
256,192,64244,1,0,0:0:0:0:
256,192,64411,1,8,0:0:0:0:
256,192,64577,1,0,0:0:0:0:
256,192,64744,1,8,0:0:0:0:
256,192,64827,1,0,0:0:0:0:
256,192,64911,1,8,0:0:0:0:
264,192,64994,1,8,0:0:0:0:
256,192,65077,1,0,0:0:0:0:
264,184,65411,1,8,0:0:0:0:
264,184,65744,1,8,0:0:0:0:
264,184,65911,1,0,0:0:0:0:
256,192,66077,1,8,0:0:0:0:
256,200,66161,1,8,0:0:0:0:
256,200,66244,1,8,0:0:0:0:
256,200,66411,1,0,0:0:0:0:
256,200,66577,1,8,0:0:0:0:
256,200,66744,1,0,0:0:0:0:
256,200,66911,1,0,0:0:0:0:
256,200,66994,1,0,0:0:0:0:
256,200,67077,1,8,0:0:0:0:
256,200,67411,1,0,0:0:0:0:
256,200,67577,1,8,0:0:0:0:
256,200,67744,1,0,0:0:0:0:
256,200,67911,1,0,0:0:0:0:
256,192,67994,1,0,0:0:0:0:
256,200,68077,1,8,0:0:0:0:
264,192,68244,1,0,0:0:0:0:
256,192,68411,1,8,0:0:0:0:
256,192,68577,1,0,0:0:0:0:
256,192,68744,1,8,0:0:0:0:
264,200,68827,1,8,0:0:0:0:
256,192,68911,1,0,0:0:0:0:
256,200,68994,1,0,0:0:0:0:
256,192,69077,1,8,0:0:0:0:
256,192,69411,1,0,0:0:0:0:
256,184,69577,1,8,0:0:0:0:
256,200,69661,1,8,0:0:0:0:
264,184,69744,1,8,0:0:0:0:
264,184,69911,1,0,0:0:0:0:
264,184,70077,1,8,0:0:0:0:
256,184,70244,1,8,0:0:0:0:
256,192,70411,1,0,0:0:0:0:
256,200,70577,1,8,0:0:0:0:
256,200,70911,1,0,0:0:0:0:
256,200,71077,1,8,0:0:0:0:
256,208,71161,1,0,0:0:0:0:
256,200,71244,1,0,0:0:0:0:
256,200,71411,1,8,0:0:0:0:
256,200,71577,1,0,0:0:0:0:
256,200,71744,1,8,0:0:0:0:
256,200,72077,1,12,0:0:0:0:
256,200,72411,1,0,0:0:0:0:
256,200,72577,1,0,0:0:0:0:
256,200,72744,1,8,0:0:0:0:
256,200,72911,1,0,0:0:0:0:
256,200,73077,1,8,0:0:0:0:
248,200,73161,1,8,0:0:0:0:
248,200,73244,1,8,0:0:0:0:
248,192,73411,1,0,0:0:0:0:
248,192,73577,1,8,0:0:0:0:
248,192,73744,1,0,0:0:0:0:
264,184,73827,1,0,0:0:0:0:
264,200,73911,1,8,0:0:0:0:
256,192,74077,1,0,0:0:0:0:
256,192,74411,1,0,0:0:0:0:
256,200,74577,1,0,0:0:0:0:
256,192,74744,1,8,0:0:0:0:
264,192,74911,1,0,0:0:0:0:
256,184,74994,1,0,0:0:0:0:
256,192,75077,1,8,0:0:0:0:
256,192,75244,1,0,0:0:0:0:
264,200,75411,1,8,0:0:0:0:
264,200,75494,1,8,0:0:0:0:
256,192,75577,1,8,0:0:0:0:
256,200,75744,1,0,0:0:0:0:
248,192,76077,1,0,0:0:0:0:
256,200,76244,1,0,0:0:0:0:
264,208,76411,1,8,0:0:0:0:
264,208,76577,1,0,0:0:0:0:
264,200,76661,1,0,0:0:0:0:
264,208,76744,1,0,0:0:0:0:
264,208,76911,1,8,0:0:0:0:
264,208,77077,1,0,0:0:0:0:
264,200,77244,1,8,0:0:0:0:
264,208,77327,1,0,0:0:0:0:
256,200,77411,1,8,0:0:0:0:
264,200,77577,1,8,0:0:0:0:
256,200,77744,1,0,0:0:0:0:
256,200,78077,1,12,0:0:0:0:
264,200,78411,1,0,0:0:0:0:
264,200,78577,1,8,0:0:0:0:
264,200,78911,1,0,0:0:0:0:
264,200,79077,1,8,0:0:0:0:
264,200,79244,1,0,0:0:0:0:
264,200,79411,1,0,0:0:0:0:
272,208,79577,1,8,0:0:0:0:
272,208,79744,1,8,0:0:0:0:
272,208,79911,1,0,0:0:0:0:
272,208,79994,1,0,0:0:0:0:
272,208,80077,1,8,0:0:0:0:
256,192,80244,1,0,0:0:0:0:
264,208,80411,1,0,0:0:0:0:
264,208,80494,1,0,0:0:0:0:
264,208,80577,1,0,0:0:0:0:
264,208,80744,1,8,0:0:0:0:
264,208,80827,1,8,0:0:0:0:
264,208,80911,1,8,0:0:0:0:
264,208,81077,1,0,0:0:0:0:
256,208,81411,1,0,0:0:0:0:
264,200,81577,1,8,0:0:0:0:
272,200,81661,1,8,0:0:0:0:
272,200,81744,1,0,0:0:0:0:
272,200,81911,1,8,0:0:0:0:
272,200,82077,1,0,0:0:0:0:
272,200,82244,1,0,0:0:0:0:
272,200,82327,1,8,0:0:0:0:
272,200,82411,1,0,0:0:0:0:
264,200,82577,1,8,0:0:0:0:
264,192,82744,1,0,0:0:0:0:
264,192,82827,1,0,0:0:0:0:
264,192,82911,1,8,0:0:0:0:
264,192,83077,1,0,0:0:0:0:
264,200,83411,1,8,0:0:0:0:
264,192,83577,1,0,0:0:0:0:
264,192,83744,1,8,0:0:0:0:
264,192,83827,1,8,0:0:0:0:
264,192,83911,1,0,0:0:0:0:
264,192,84077,1,8,0:0:0:0:
264,200,84244,1,0,0:0:0:0:
264,192,84411,1,0,0:0:0:0:
272,192,84494,1,0,0:0:0:0:
272,192,84577,1,8,0:0:0:0:
272,192,84744,1,0,0:0:0:0:
272,192,84827,1,0,0:0:0:0:
272,192,84911,1,8,0:0:0:0:
272,192,85077,1,0,0:0:0:0:
264,192,85411,1,0,0:0:0:0:
264,192,85577,1,8,0:0:0:0:
264,192,85661,1,8,0:0:0:0:
264,192,85744,1,0,0:0:0:0:
264,192,85911,1,8,0:0:0:0:
264,192,86077,1,0,0:0:0:0:
264,192,86244,1,0,0:0:0:0:
264,192,86327,1,0,0:0:0:0:
264,192,86411,1,8,0:0:0:0:
264,192,86577,1,0,0:0:0:0:
264,200,86911,1,0,0:0:0:0:
264,200,87077,1,8,0:0:0:0:
264,200,87161,1,0,0:0:0:0:
264,200,87244,1,0,0:0:0:0:
264,200,87411,1,8,0:0:0:0:
264,200,87577,1,0,0:0:0:0:
264,200,87744,1,8,0:0:0:0:
264,200,87827,1,8,0:0:0:0:
264,200,87911,1,8,0:0:0:0:
264,200,87994,1,8,0:0:0:0:
264,200,88077,1,0,0:0:0:0:
256,200,88411,1,0,0:0:0:0:
256,208,88577,1,0,0:0:0:0:
256,208,88744,1,8,0:0:0:0:
256,208,88911,1,8,0:0:0:0:
256,208,89077,1,0,0:0:0:0:
264,200,89161,1,8,0:0:0:0:
256,208,89244,1,0,0:0:0:0:
256,208,89411,1,0,0:0:0:0:
256,208,89577,1,8,0:0:0:0:
256,208,89744,1,0,0:0:0:0:
256,192,89827,1,0,0:0:0:0:
256,208,89911,1,8,0:0:0:0:
256,208,90077,1,0,0:0:0:0:
264,200,90411,1,8,0:0:0:0:
256,200,90577,1,0,0:0:0:0:
264,200,90744,1,8,0:0:0:0:
264,200,90911,1,8,0:0:0:0:
264,200,91077,1,0,0:0:0:0:
264,200,91244,1,0,0:0:0:0:
256,200,91327,1,0,0:0:0:0:
264,200,91411,1,8,0:0:0:0:
264,200,91577,1,0,0:0:0:0:
264,200,91744,1,8,0:0:0:0:
264,192,91827,1,0,0:0:0:0:
256,192,91911,1,0,0:0:0:0:
264,192,92077,1,12,0:0:0:0:
264,192,92411,1,0,0:0:0:0:
264,200,92577,1,8,0:0:0:0:
264,200,92744,1,0,0:0:0:0:
256,200,92911,1,0,0:0:0:0:
256,200,92994,1,0,0:0:0:0:
256,200,93077,1,8,0:0:0:0:
248,200,93244,1,0,0:0:0:0:
264,200,93411,1,8,0:0:0:0:
264,200,93494,1,8,0:0:0:0:
264,200,93577,1,0,0:0:0:0:
272,192,93661,1,0,0:0:0:0:
264,200,93744,1,8,0:0:0:0:
264,200,93911,1,0,0:0:0:0:
264,200,94077,1,8,0:0:0:0:
256,208,94411,1,8,0:0:0:0:
256,208,94577,1,0,0:0:0:0:
256,208,94744,1,8,0:0:0:0:
272,200,94827,1,8,0:0:0:0:
256,208,94911,1,0,0:0:0:0:
256,208,95077,1,0,0:0:0:0:
256,208,95244,1,8,0:0:0:0:
256,208,95411,1,8,0:0:0:0:
248,192,95577,1,0,0:0:0:0:
240,208,95744,1,8,0:0:0:0:
248,208,95827,1,8,0:0:0:0:
256,208,95911,1,8,0:0:0:0:
256,208,95994,1,8,0:0:0:0:
256,208,96077,1,0,0:0:0:0:
256,208,96577,1,8,0:0:0:0:
256,200,96911,1,0,0:0:0:0:
256,208,97077,1,8,0:0:0:0:
248,208,97411,1,8,0:0:0:0:
256,208,97577,1,0,0:0:0:0:
248,200,97744,1,8,0:0:0:0:
256,200,98077,1,12,0:0:0:0:
256,200,98411,1,0,0:0:0:0:
248,200,98577,1,8,0:0:0:0:
248,200,98744,1,0,0:0:0:0:
248,200,98911,1,8,0:0:0:0:
248,200,98994,1,8,0:0:0:0:
248,200,99077,1,8,0:0:0:0:
248,200,99244,1,0,0:0:0:0:
248,200,99411,1,8,0:0:0:0:
248,200,99494,1,0,0:0:0:0:
248,200,99577,1,0,0:0:0:0:
248,200,99744,1,0,0:0:0:0:
256,192,100077,1,4,0:0:0:0:
256,208,100577,1,8,0:0:0:0:
256,200,100911,1,0,0:0:0:0:
256,208,101077,1,8,0:0:0:0:
248,208,101411,1,8,0:0:0:0:
256,208,101577,1,8,0:0:0:0:
248,200,101744,1,0,0:0:0:0:
256,208,102077,1,12,0:0:0:0:
264,200,102411,1,8,0:0:0:0:
264,200,102577,1,0,0:0:0:0:
264,200,102744,1,8,0:0:0:0:
264,200,102911,1,0,0:0:0:0:
264,192,102994,1,0,0:0:0:0:
264,192,103077,1,0,0:0:0:0:
264,192,103244,1,8,0:0:0:0:
264,192,103411,1,0,0:0:0:0:
264,192,103494,1,0,0:0:0:0:
264,192,103577,1,8,0:0:0:0:
264,192,103744,1,8,0:0:0:0:
264,192,104077,1,4,0:0:0:0:
256,208,104577,1,8,0:0:0:0:
256,200,104911,1,0,0:0:0:0:
256,208,105077,1,8,0:0:0:0:
248,208,105411,1,8,0:0:0:0:
256,208,105577,1,0,0:0:0:0:
248,200,105744,1,8,0:0:0:0:
256,200,106077,1,12,0:0:0:0:
256,200,106411,1,0,0:0:0:0:
248,200,106577,1,8,0:0:0:0:
248,200,106744,1,0,0:0:0:0:
248,200,106911,1,8,0:0:0:0:
248,200,106994,1,8,0:0:0:0:
248,200,107077,1,8,0:0:0:0:
248,200,107244,1,0,0:0:0:0:
248,200,107411,1,8,0:0:0:0:
248,200,107494,1,0,0:0:0:0:
248,200,107577,1,0,0:0:0:0:
248,200,107744,1,0,0:0:0:0:
248,200,108077,1,4,0:0:0:0:
256,208,108577,1,8,0:0:0:0:
256,200,108911,1,0,0:0:0:0:
256,208,109077,1,8,0:0:0:0:
248,208,109411,1,8,0:0:0:0:
256,208,109577,1,8,0:0:0:0:
248,200,109744,1,0,0:0:0:0:
256,208,110077,1,12,0:0:0:0:
264,200,110411,1,8,0:0:0:0:
264,200,110577,1,0,0:0:0:0:
264,200,110744,1,8,0:0:0:0:
264,192,110827,1,8,0:0:0:0:
264,200,110911,1,0,0:0:0:0:
264,192,111077,1,0,0:0:0:0:
264,192,111244,1,8,0:0:0:0:
264,192,111411,1,0,0:0:0:0:
248,208,111494,1,0,0:0:0:0:
264,192,111577,1,8,0:0:0:0:
264,192,111744,1,8,0:0:0:0:
272,192,112077,1,4,0:0:0:0:
264,192,112411,1,0,0:0:0:0:
264,192,112577,1,8,0:0:0:0:
264,192,112661,1,8,0:0:0:0:
264,192,112744,1,0,0:0:0:0:
256,192,112911,1,0,0:0:0:0:
256,192,113077,1,8,0:0:0:0:
256,192,113244,1,0,0:0:0:0:
248,192,113327,1,0,0:0:0:0:
256,192,113411,1,8,0:0:0:0:
272,184,113577,1,0,0:0:0:0:
256,192,113744,1,8,0:0:0:0:
272,192,113827,1,8,0:0:0:0:
256,200,113911,1,0,0:0:0:0:
264,200,114077,1,12,0:0:0:0:
256,200,114411,1,0,0:0:0:0:
256,200,114744,1,0,0:0:0:0:
256,200,114855,1,0,0:0:0:0:
256,200,114966,1,0,0:0:0:0:
256,208,115077,1,0,0:0:0:0:
