osu file format v14

[General]
AudioFilename: Kanata no Reflesia.mp3
AudioLeadIn: 0
PreviewTime: 79744
Countdown: 0
SampleSet: Normal
StackLeniency: 0.7
Mode: 1
LetterboxInBreaks: 0
WidescreenStoryboard: 0

[Editor]
DistanceSpacing: 0.8
BeatDivisor: 4
GridSize: 8
TimelineZoom: 2.599999

[Metadata]
Title:Kanata no Reflesia
TitleUnicode:彼方のリフレシア
Artist:DJ TOTTO feat. Annabel & Hiyama Nao
ArtistUnicode:DJ TOTTO feat. Annabel & 日山尚
Creator:iloveyou4ever
Version:mint's Oni
Source:REFLEC BEAT 悠久のリフレシア
Tags:TCBC #1 Taiko Chinese Beatmap Contest Nardoxyribonucleic -GN Junior Cynplytholowazy Prophecy sing216 mintong89
BeatmapID:1657157
BeatmapSetID:785734

[Difficulty]
HPDrainRate:5.5
CircleSize:5
OverallDifficulty:5
ApproachRate:5
SliderMultiplier:1.4
SliderTickRate:1

[Events]
//Background and Video events
0,0,"kanata.jpg",0,-70
//Break Periods
//Storyboard Layer 0 (Background)
//Storyboard Layer 1 (Fail)
//Storyboard Layer 2 (Pass)
//Storyboard Layer 3 (Foreground)
//Storyboard Layer 4 (Overlay)
//Storyboard Sound Samples

[TimingPoints]
2078,333.333333333333,3,1,0,70,1,0
61994,-100,3,1,0,50,0,0
63077,-100,3,1,0,60,0,0
64077,-133.333333333333,3,1,0,70,0,1
79077,-100,3,1,0,70,0,0
80077,-100,3,1,0,70,0,1
96077,-100,3,1,0,70,0,0
114411,-58.8235294117647,3,1,0,70,0,0
115077,-58.8235294117647,3,1,0,70,0,0

[HitObjects]
216,248,2077,5,4,0:0:0:0:
336,240,3077,1,0,0:0:0:0:
336,240,3411,1,8,0:0:0:0:
336,240,3744,1,8,0:0:0:0:
336,240,4077,1,0,0:0:0:0:
336,240,4911,1,8,0:0:0:0:
336,240,4994,1,8,0:0:0:0:
336,248,5077,1,0,0:0:0:0:
336,248,5744,1,8,0:0:0:0:
128,136,6077,1,4,0:0:0:0:
200,192,7077,1,0,0:0:0:0:
200,192,7411,1,8,0:0:0:0:
200,192,7744,1,0,0:0:0:0:
200,192,8077,1,8,0:0:0:0:
128,152,8744,1,0,0:0:0:0:
128,152,8911,1,0,0:0:0:0:
128,152,9077,1,8,0:0:0:0:
136,152,9411,1,0,0:0:0:0:
128,152,9744,1,8,0:0:0:0:
104,216,10077,1,0,0:0:0:0:
288,176,10244,1,0,0:0:0:0:
288,176,10411,1,8,0:0:0:0:
200,224,10577,1,0,0:0:0:0:
200,224,10744,1,8,0:0:0:0:
200,224,10911,1,8,0:0:0:0:
136,136,11077,1,0,0:0:0:0:
200,88,11411,1,8,0:0:0:0:
200,88,11744,1,8,0:0:0:0:
200,88,12077,1,8,0:0:0:0:
200,88,12244,1,8,0:0:0:0:
200,88,12411,1,0,0:0:0:0:
200,88,12577,1,8,0:0:0:0:
232,168,12744,1,0,0:0:0:0:
232,168,12911,1,8,0:0:0:0:
232,168,13077,1,0,0:0:0:0:
232,168,13411,1,8,0:0:0:0:
232,168,13744,1,8,0:0:0:0:
424,160,13855,1,0,0:0:0:0:
424,160,13966,1,0,0:0:0:0:
424,160,14077,1,8,0:0:0:0:
304,200,14411,1,0,0:0:0:0:
208,168,14744,1,8,0:0:0:0:
208,168,14911,1,8,0:0:0:0:
208,168,15077,1,0,0:0:0:0:
208,168,15411,1,0,0:0:0:0:
208,168,15577,1,8,0:0:0:0:
208,168,15744,1,0,0:0:0:0:
432,104,15855,1,0,0:0:0:0:
432,104,15966,1,0,0:0:0:0:
432,104,16077,1,8,0:0:0:0:
296,144,16411,1,0,0:0:0:0:
296,144,16744,1,8,0:0:0:0:
296,144,16911,1,0,0:0:0:0:
296,144,17077,1,8,0:0:0:0:
264,144,17411,1,0,0:0:0:0:
264,144,17744,1,8,0:0:0:0:
264,152,18077,1,4,0:0:0:0:
280,136,18633,1,8,0:0:0:0:
280,136,18744,1,8,0:0:0:0:
280,136,18855,1,0,0:0:0:0:
232,160,18966,1,8,0:0:0:0:
232,160,19077,1,0,0:0:0:0:
232,160,19189,1,0,0:0:0:0:
232,160,19300,1,8,0:0:0:0:
232,160,19411,1,0,0:0:0:0:
232,160,19522,1,0,0:0:0:0:
232,160,19633,1,8,0:0:0:0:
232,160,19744,1,0,0:0:0:0:
232,160,19855,1,0,0:0:0:0:
232,160,19966,1,0,0:0:0:0:
232,160,20077,1,8,0:0:0:0:
248,192,20411,1,8,0:0:0:0:
248,192,20577,1,0,0:0:0:0:
248,192,20744,1,8,0:0:0:0:
248,192,20911,1,8,0:0:0:0:
248,192,20994,1,8,0:0:0:0:
248,192,21077,1,0,0:0:0:0:
256,168,21411,1,8,0:0:0:0:
256,168,21744,1,0,0:0:0:0:
256,200,22077,1,4,0:0:0:0:
168,208,22411,1,8,0:0:0:0:
168,208,22577,1,0,0:0:0:0:
240,96,22661,1,0,0:0:0:0:
168,208,22744,1,8,0:0:0:0:
168,208,22911,1,0,0:0:0:0:
176,208,23077,1,8,0:0:0:0:
184,184,23244,1,0,0:0:0:0:
184,184,23411,1,8,0:0:0:0:
256,48,23494,1,8,0:0:0:0:
240,216,23577,1,0,0:0:0:0:
240,216,23744,1,8,0:0:0:0:
240,216,23911,1,0,0:0:0:0:
240,216,24077,1,8,0:0:0:0:
184,184,24411,1,8,0:0:0:0:
144,88,24577,1,8,0:0:0:0:
144,88,24661,1,8,0:0:0:0:
144,88,24744,1,0,0:0:0:0:
144,88,24911,1,8,0:0:0:0:
200,152,25077,1,0,0:0:0:0:
200,152,25244,1,8,0:0:0:0:
256,184,25411,1,0,0:0:0:0:
256,184,25522,1,0,0:0:0:0:
256,184,25633,1,0,0:0:0:0:
256,184,25744,1,8,0:0:0:0:
312,280,25911,1,0,0:0:0:0:
312,280,26077,1,8,0:0:0:0:
240,96,26411,1,8,0:0:0:0:
144,184,26577,1,0,0:0:0:0:
144,184,26661,1,0,0:0:0:0:
144,184,26744,1,8,0:0:0:0:
264,152,26911,1,0,0:0:0:0:
264,152,27077,1,8,0:0:0:0:
216,192,27244,1,0,0:0:0:0:
216,192,27411,1,8,0:0:0:0:
216,192,27494,1,8,0:0:0:0:
216,192,27577,1,0,0:0:0:0:
176,184,27744,1,8,0:0:0:0:
176,184,27911,1,0,0:0:0:0:
176,184,28077,1,8,0:0:0:0:
176,184,28244,1,8,0:0:0:0:
176,184,28327,1,0,0:0:0:0:
176,184,28411,1,8,0:0:0:0:
256,176,28577,1,8,0:0:0:0:
256,176,28744,1,0,0:0:0:0:
256,176,28911,1,0,0:0:0:0:
248,176,29077,1,8,0:0:0:0:
248,176,29244,1,0,0:0:0:0:
248,176,29327,1,8,0:0:0:0:
248,176,29411,1,8,0:0:0:0:
224,184,29577,1,8,0:0:0:0:
224,184,29661,1,8,0:0:0:0:
224,184,29744,1,0,0:0:0:0:
264,136,29911,1,8,0:0:0:0:
264,136,30077,1,4,0:0:0:0:
136,160,30244,1,8,0:0:0:0:
200,160,30411,1,0,0:0:0:0:
136,160,30577,1,8,0:0:0:0:
200,160,30911,1,8,0:0:0:0:
200,160,31077,1,0,0:0:0:0:
200,160,31244,1,8,0:0:0:0:
200,160,31411,1,0,0:0:0:0:
200,160,31494,1,0,0:0:0:0:
200,160,31577,1,8,0:0:0:0:
208,72,31744,1,8,0:0:0:0:
208,72,31911,1,0,0:0:0:0:
208,72,32077,1,8,0:0:0:0:
160,112,32411,1,8,0:0:0:0:
160,112,32577,1,0,0:0:0:0:
200,232,32744,1,8,0:0:0:0:
200,232,32827,1,8,0:0:0:0:
200,232,32911,1,0,0:0:0:0:
200,232,33077,1,8,0:0:0:0:
264,208,33244,1,8,0:0:0:0:
496,128,33411,1,8,0:0:0:0:
496,120,33522,1,0,0:0:0:0:
496,120,33633,1,0,0:0:0:0:
304,216,33744,1,8,0:0:0:0:
304,216,33911,1,0,0:0:0:0:
304,216,34077,1,8,0:0:0:0:
216,96,34411,1,8,0:0:0:0:
283,151,34577,1,0,0:0:0:0:
200,112,34744,1,8,0:0:0:0:
200,112,34827,1,8,0:0:0:0:
200,112,34911,1,0,0:0:0:0:
204,164,35077,1,8,0:0:0:0:
199,161,35244,1,0,0:0:0:0:
177,176,35411,1,8,0:0:0:0:
81,157,35494,1,8,0:0:0:0:
184,160,35577,1,8,0:0:0:0:
181,149,35744,1,0,0:0:0:0:
180,149,35911,1,0,0:0:0:0:
109,159,36077,1,8,0:0:0:0:
109,159,36244,1,0,0:0:0:0:
77,189,36327,1,0,0:0:0:0:
110,140,36411,1,0,0:0:0:0:
174,162,36577,1,8,0:0:0:0:
170,122,36744,1,8,0:0:0:0:
170,122,36827,1,0,0:0:0:0:
153,192,36911,1,8,0:0:0:0:
153,192,37077,1,8,0:0:0:0:
203,64,37244,1,0,0:0:0:0:
203,64,37327,1,0,0:0:0:0:
203,64,37411,1,8,0:0:0:0:
196,88,37577,1,0,0:0:0:0:
214,182,37661,1,0,0:0:0:0:
196,88,37744,1,8,0:0:0:0:
214,182,37827,1,8,0:0:0:0:
196,88,37911,1,8,0:0:0:0:
214,182,38077,1,4,0:0:0:0:
249,205,38244,1,8,0:0:0:0:
249,205,38411,1,0,0:0:0:0:
249,205,38577,1,8,0:0:0:0:
77,129,38911,1,8,0:0:0:0:
152,168,39077,1,0,0:0:0:0:
152,168,39161,1,0,0:0:0:0:
152,168,39244,1,8,0:0:0:0:
215,159,39411,1,0,0:0:0:0:
215,159,39577,1,8,0:0:0:0:
134,161,39744,1,0,0:0:0:0:
134,161,39827,1,8,0:0:0:0:
133,161,39911,1,8,0:0:0:0:
174,131,40077,1,8,0:0:0:0:
233,204,40411,1,8,0:0:0:0:
233,204,40577,1,0,0:0:0:0:
233,204,40744,1,0,0:0:0:0:
233,204,40827,1,0,0:0:0:0:
233,204,40911,1,8,0:0:0:0:
233,204,41077,1,0,0:0:0:0:
233,204,41244,1,8,0:0:0:0:
253,105,41411,1,0,0:0:0:0:
253,105,41494,1,0,0:0:0:0:
253,105,41577,1,8,0:0:0:0:
253,105,41661,1,8,0:0:0:0:
253,105,41744,1,8,0:0:0:0:
245,113,41911,1,0,0:0:0:0:
245,113,42077,1,8,0:0:0:0:
304,179,42411,1,8,0:0:0:0:
188,107,42577,1,0,0:0:0:0:
136,160,42744,1,8,0:0:0:0:
136,160,42827,1,8,0:0:0:0:
136,160,42911,1,0,0:0:0:0:
188,107,43077,1,8,0:0:0:0:
188,107,43244,1,8,0:0:0:0:
210,143,43411,1,8,0:0:0:0:
210,143,43494,1,0,0:0:0:0:
210,143,43577,1,8,0:0:0:0:
188,107,43744,1,0,0:0:0:0:
146,189,43911,1,8,0:0:0:0:
204,124,44077,1,8,0:0:0:0:
204,124,44244,1,0,0:0:0:0:
203,124,44411,1,8,0:0:0:0:
208,135,44577,1,0,0:0:0:0:
208,134,44661,1,0,0:0:0:0:
208,134,44744,1,8,0:0:0:0:
167,202,44911,1,0,0:0:0:0:
208,134,45077,1,8,0:0:0:0:
24,160,45244,1,8,0:0:0:0:
24,160,45327,1,8,0:0:0:0:
24,160,45411,1,0,0:0:0:0:
193,117,45577,1,0,0:0:0:0:
193,117,45661,1,0,0:0:0:0:
193,117,45744,1,8,0:0:0:0:
196,125,45827,1,0,0:0:0:0:
196,125,45911,1,8,0:0:0:0:
195,125,46077,1,4,0:0:0:0:
76,76,46244,1,8,0:0:0:0:
76,76,46411,1,8,0:0:0:0:
76,76,46578,1,8,0:0:0:0:
235,205,46911,1,0,0:0:0:0:
235,205,47077,1,8,0:0:0:0:
235,205,47244,1,0,0:0:0:0:
235,205,47411,1,8,0:0:0:0:
243,216,47577,1,0,0:0:0:0:
243,217,47661,1,0,0:0:0:0:
242,217,47744,1,8,0:0:0:0:
283,175,47827,1,8,0:0:0:0:
243,217,47911,1,0,0:0:0:0:
284,170,48077,1,8,0:0:0:0:
283,175,48244,1,8,0:0:0:0:
284,170,48411,1,8,0:0:0:0:
284,170,48577,1,8,0:0:0:0:
179,175,48911,1,0,0:0:0:0:
179,175,49077,1,8,0:0:0:0:
179,175,49161,1,8,0:0:0:0:
179,175,49244,1,0,0:0:0:0:
179,175,49411,1,8,0:0:0:0:
270,82,49522,1,0,0:0:0:0:
270,82,49633,1,0,0:0:0:0:
267,131,49744,1,8,0:0:0:0:
417,89,49911,1,0,0:0:0:0:
81,192,50077,1,8,0:0:0:0:
129,143,50244,1,8,0:0:0:0:
129,143,50411,1,8,0:0:0:0:
129,143,50577,1,8,0:0:0:0:
211,213,50911,1,0,0:0:0:0:
211,213,51077,1,8,0:0:0:0:
211,213,51244,1,0,0:0:0:0:
211,213,51411,1,8,0:0:0:0:
227,150,51577,1,0,0:0:0:0:
227,150,51661,1,0,0:0:0:0:
227,150,51744,1,8,0:0:0:0:
227,150,51911,1,0,0:0:0:0:
227,150,52077,1,8,0:0:0:0:
221,146,52244,1,8,0:0:0:0:
221,146,52411,1,8,0:0:0:0:
221,146,52577,1,8,0:0:0:0:
220,146,52911,1,0,0:0:0:0:
220,146,53077,1,8,0:0:0:0:
89,136,53161,1,8,0:0:0:0:
89,136,53244,1,0,0:0:0:0:
232,150,53411,1,8,0:0:0:0:
232,150,53577,1,0,0:0:0:0:
231,150,53661,1,8,0:0:0:0:
231,150,53744,1,0,0:0:0:0:
231,150,53827,1,8,0:0:0:0:
230,148,53911,1,0,0:0:0:0:
187,108,54077,1,8,0:0:0:0:
187,108,54244,1,8,0:0:0:0:
187,108,54411,1,8,0:0:0:0:
187,108,54577,1,8,0:0:0:0:
174,239,54911,1,0,0:0:0:0:
174,239,55077,1,8,0:0:0:0:
174,239,55244,1,0,0:0:0:0:
289,220,55411,1,8,0:0:0:0:
229,161,55577,1,0,0:0:0:0:
229,161,55661,1,0,0:0:0:0:
229,161,55744,1,8,0:0:0:0:
229,161,55911,1,0,0:0:0:0:
229,161,56077,1,8,0:0:0:0:
229,161,56244,1,8,0:0:0:0:
229,161,56411,1,8,0:0:0:0:
229,161,56577,1,8,0:0:0:0:
229,161,56911,1,0,0:0:0:0:
229,161,57077,1,8,0:0:0:0:
229,161,57244,1,0,0:0:0:0:
229,161,57411,1,8,0:0:0:0:
325,163,57522,1,0,0:0:0:0:
325,163,57633,1,0,0:0:0:0:
414,106,57744,1,8,0:0:0:0:
297,89,57911,1,0,0:0:0:0:
297,89,58077,1,8,0:0:0:0:
297,89,58244,1,8,0:0:0:0:
297,89,58411,1,8,0:0:0:0:
297,89,58577,1,8,0:0:0:0:
297,89,58911,1,0,0:0:0:0:
297,89,59077,1,8,0:0:0:0:
297,89,59244,1,0,0:0:0:0:
297,89,59411,1,8,0:0:0:0:
174,211,59577,1,0,0:0:0:0:
174,211,59661,1,0,0:0:0:0:
174,211,59744,1,8,0:0:0:0:
174,211,59911,1,0,0:0:0:0:
168,203,60077,1,4,0:0:0:0:
168,203,60244,1,4,0:0:0:0:
168,203,60577,1,4,0:0:0:0:
168,203,60911,1,4,0:0:0:0:
168,203,61077,1,6,0:0:0:0:
168,203,61411,1,6,0:0:0:0:
168,203,61744,1,6,0:0:0:0:
168,203,61911,1,6,0:0:0:0:
97,194,62077,1,8,0:0:0:0:
256,192,63077,8,0,63911,0:0:0:0:
188,164,64077,5,4,0:0:0:0:
270,221,64411,1,0,0:0:0:0:
270,221,64577,1,8,0:0:0:0:
270,221,64744,1,0,0:0:0:0:
270,221,64911,1,8,0:0:0:0:
270,221,65077,1,0,0:0:0:0:
295,236,65411,1,8,0:0:0:0:
152,128,65577,1,0,0:0:0:0:
295,236,65744,1,8,0:0:0:0:
248,178,66077,1,0,0:0:0:0:
192,72,66244,1,0,0:0:0:0:
248,178,66411,1,8,0:0:0:0:
220,77,66577,1,0,0:0:0:0:
176,153,66744,1,0,0:0:0:0:
386,192,66911,1,8,0:0:0:0:
248,178,67077,1,8,0:0:0:0:
120,174,67411,1,8,0:0:0:0:
267,174,67577,1,0,0:0:0:0:
267,174,67661,1,0,0:0:0:0:
267,174,67744,1,8,0:0:0:0:
267,174,67911,1,0,0:0:0:0:
267,174,68077,1,8,0:0:0:0:
267,174,68411,1,0,0:0:0:0:
267,174,68577,1,8,0:0:0:0:
267,174,68744,1,8,0:0:0:0:
267,174,68911,1,0,0:0:0:0:
267,174,69077,1,8,0:0:0:0:
243,185,69411,1,8,0:0:0:0:
243,185,69577,1,8,0:0:0:0:
243,185,69744,1,0,0:0:0:0:
243,185,69911,1,0,0:0:0:0:
243,185,70077,1,8,0:0:0:0:
243,185,70411,1,0,0:0:0:0:
243,185,70577,1,8,0:0:0:0:
243,185,70911,1,8,0:0:0:0:
243,185,71077,1,0,0:0:0:0:
243,185,71244,1,8,0:0:0:0:
243,185,71411,1,8,0:0:0:0:
243,185,71577,1,0,0:0:0:0:
243,185,71661,1,0,0:0:0:0:
243,185,71744,1,8,0:0:0:0:
243,185,71911,1,8,0:0:0:0:
243,185,71994,1,8,0:0:0:0:
243,185,72077,1,0,0:0:0:0:
188,148,72411,1,8,0:0:0:0:
188,148,72577,1,0,0:0:0:0:
188,148,72744,1,8,0:0:0:0:
188,148,72911,1,8,0:0:0:0:
188,148,73077,1,0,0:0:0:0:
188,148,73244,1,8,0:0:0:0:
188,148,73411,1,0,0:0:0:0:
188,148,73744,1,8,0:0:0:0:
188,148,74077,1,8,0:0:0:0:
188,148,74411,1,8,0:0:0:0:
188,148,74577,1,0,0:0:0:0:
188,148,74744,1,8,0:0:0:0:
188,148,74911,1,8,0:0:0:0:
188,148,75077,1,0,0:0:0:0:
188,148,75244,1,8,0:0:0:0:
188,148,75411,1,0,0:0:0:0:
139,81,75577,1,8,0:0:0:0:
188,148,75744,1,0,0:0:0:0:
180,179,75827,1,0,0:0:0:0:
188,148,75911,1,0,0:0:0:0:
188,148,76078,1,8,0:0:0:0:
168,152,76411,1,8,0:0:0:0:
247,161,76744,1,0,0:0:0:0:
247,161,76911,1,8,0:0:0:0:
247,161,77077,1,8,0:0:0:0:
180,179,77161,1,8,0:0:0:0:
247,161,77244,1,0,0:0:0:0:
247,161,77411,1,8,0:0:0:0:
180,179,77577,1,0,0:0:0:0:
180,179,77744,1,8,0:0:0:0:
247,161,78077,1,6,0:0:0:0:
247,161,78577,1,6,0:0:0:0:
189,147,79077,1,8,0:0:0:0:
189,147,79244,1,0,0:0:0:0:
189,147,79411,1,0,0:0:0:0:
189,147,79577,1,8,0:0:0:0:
219,58,79744,1,0,0:0:0:0:
219,58,79827,1,0,0:0:0:0:
219,58,79911,1,8,0:0:0:0:
246,116,80077,1,4,0:0:0:0:
144,169,80411,1,8,0:0:0:0:
144,169,80577,1,0,0:0:0:0:
144,169,80744,1,8,0:0:0:0:
234,152,80827,1,8,0:0:0:0:
234,152,80911,1,0,0:0:0:0:
234,152,81077,1,8,0:0:0:0:
194,78,81244,1,0,0:0:0:0:
194,78,81327,1,0,0:0:0:0:
194,78,81411,1,8,0:0:0:0:
216,58,81577,1,8,0:0:0:0:
216,58,81744,1,0,0:0:0:0:
193,85,81911,1,8,0:0:0:0:
193,84,82077,1,0,0:0:0:0:
194,84,82161,1,0,0:0:0:0:
194,84,82244,1,0,0:0:0:0:
194,84,82411,1,8,0:0:0:0:
198,86,82577,1,8,0:0:0:0:
216,58,82744,1,0,0:0:0:0:
216,58,82827,1,0,0:0:0:0:
216,58,82911,1,8,0:0:0:0:
216,58,83077,1,0,0:0:0:0:
280,95,83244,1,0,0:0:0:0:
280,95,83411,1,0,0:0:0:0:
280,95,83577,1,8,0:0:0:0:
119,82,83744,1,0,0:0:0:0:
119,82,83827,1,0,0:0:0:0:
119,82,83911,1,8,0:0:0:0:
119,82,84077,1,8,0:0:0:0:
304,138,84411,1,8,0:0:0:0:
105,136,84577,1,0,0:0:0:0:
105,136,84661,1,8,0:0:0:0:
105,136,84744,1,8,0:0:0:0:
225,131,84911,1,8,0:0:0:0:
225,131,85077,1,8,0:0:0:0:
225,131,85161,1,8,0:0:0:0:
225,131,85244,1,0,0:0:0:0:
225,131,85411,1,8,0:0:0:0:
212,130,85577,1,0,0:0:0:0:
212,130,85744,1,8,0:0:0:0:
212,130,85911,1,8,0:0:0:0:
180,165,86077,1,0,0:0:0:0:
180,165,86161,1,0,0:0:0:0:
180,165,86244,1,0,0:0:0:0:
241,181,86411,1,8,0:0:0:0:
241,181,86577,1,0,0:0:0:0:
236,180,86661,1,0,0:0:0:0:
236,180,86744,1,0,0:0:0:0:
236,180,86911,1,8,0:0:0:0:
236,180,87077,1,0,0:0:0:0:
203,135,87161,1,0,0:0:0:0:
236,180,87244,1,8,0:0:0:0:
234,179,87411,1,0,0:0:0:0:
233,179,87577,1,8,0:0:0:0:
203,135,87744,1,0,0:0:0:0:
203,135,87827,1,0,0:0:0:0:
203,135,87911,1,8,0:0:0:0:
203,135,88077,1,4,0:0:0:0:
266,171,88411,1,8,0:0:0:0:
266,171,88577,1,8,0:0:0:0:
266,171,88744,1,0,0:0:0:0:
221,112,88827,1,0,0:0:0:0:
221,112,88911,1,0,0:0:0:0:
221,112,89077,1,8,0:0:0:0:
221,112,89244,1,8,0:0:0:0:
220,117,89411,1,0,0:0:0:0:
219,117,89494,1,0,0:0:0:0:
218,117,89577,1,8,0:0:0:0:
218,117,89744,1,0,0:0:0:0:
218,117,89911,1,8,0:0:0:0:
218,117,90077,1,0,0:0:0:0:
83,222,90244,1,8,0:0:0:0:
12,148,90411,1,0,0:0:0:0:
12,148,90494,1,8,0:0:0:0:
12,148,90577,1,8,0:0:0:0:
158,185,90744,1,8,0:0:0:0:
179,156,90911,1,0,0:0:0:0:
256,96,91077,1,6,0:0:0:0:
256,96,91411,1,4,0:0:0:0:
256,96,91744,1,6,0:0:0:0:
125,182,92077,1,4,0:0:0:0:
265,128,92411,1,8,0:0:0:0:
80,168,92577,1,8,0:0:0:0:
80,168,92661,1,8,0:0:0:0:
80,168,92744,1,0,0:0:0:0:
156,91,92911,1,0,0:0:0:0:
156,91,93077,1,8,0:0:0:0:
156,91,93244,1,8,0:0:0:0:
156,91,93411,1,0,0:0:0:0:
156,91,93494,1,0,0:0:0:0:
156,91,93577,1,0,0:0:0:0:
143,102,93744,1,8,0:0:0:0:
143,102,93911,1,0,0:0:0:0:
143,102,93994,1,0,0:0:0:0:
143,102,94077,1,8,0:0:0:0:
107,192,94244,1,0,0:0:0:0:
107,192,94411,1,8,0:0:0:0:
146,108,94577,1,0,0:0:0:0:
206,154,94744,1,8,0:0:0:0:
32,184,94911,1,8,0:0:0:0:
32,184,94994,1,8,0:0:0:0:
32,184,95077,1,0,0:0:0:0:
193,154,95244,1,8,0:0:0:0:
193,154,95410,1,8,0:0:0:0:
178,148,95494,1,0,0:0:0:0:
176,148,95577,1,8,0:0:0:0:
179,148,95660,1,0,0:0:0:0:
176,148,95744,1,8,0:0:0:0:
336,208,95911,1,0,0:0:0:0:
169,161,96077,1,4,0:0:0:0:
289,178,98077,1,4,0:0:0:0:
280,180,98411,1,8,0:0:0:0:
280,180,98577,1,0,0:0:0:0:
280,180,98744,1,8,0:0:0:0:
228,171,98911,1,0,0:0:0:0:
228,171,98994,1,0,0:0:0:0:
262,134,99077,1,8,0:0:0:0:
262,134,99244,1,0,0:0:0:0:
219,54,99411,1,8,0:0:0:0:
219,54,99494,1,8,0:0:0:0:
262,134,99577,1,8,0:0:0:0:
262,134,99744,1,0,0:0:0:0:
241,99,99911,1,8,0:0:0:0:
241,99,100077,1,4,0:0:0:0:
268,227,102077,1,4,0:0:0:0:
268,227,102411,1,0,0:0:0:0:
268,227,102577,1,8,0:0:0:0:
268,227,102744,1,8,0:0:0:0:
268,227,102911,1,0,0:0:0:0:
268,227,102994,1,0,0:0:0:0:
262,226,103077,1,8,0:0:0:0:
231,204,103244,1,0,0:0:0:0:
231,204,103410,1,0,0:0:0:0:
128,176,103494,1,0,0:0:0:0:
128,168,103577,1,8,0:0:0:0:
128,176,103660,1,8,0:0:0:0:
231,204,103744,1,0,0:0:0:0:
48,136,103911,1,8,0:0:0:0:
231,204,104077,1,4,0:0:0:0:
283,198,106077,1,4,0:0:0:0:
163,189,106411,1,0,0:0:0:0:
163,189,106577,1,8,0:0:0:0:
163,189,106744,1,8,0:0:0:0:
163,189,106911,1,0,0:0:0:0:
163,189,106994,1,0,0:0:0:0:
163,189,107077,1,8,0:0:0:0:
202,207,107244,1,0,0:0:0:0:
202,207,107411,1,8,0:0:0:0:
201,69,107494,1,8,0:0:0:0:
202,207,107577,1,8,0:0:0:0:
196,206,107744,1,0,0:0:0:0:
196,206,107911,1,8,0:0:0:0:
196,206,108077,1,4,0:0:0:0:
217,51,110077,1,4,0:0:0:0:
217,51,110411,1,8,0:0:0:0:
217,51,110577,1,0,0:0:0:0:
217,51,110661,1,0,0:0:0:0:
217,51,110744,1,8,0:0:0:0:
217,51,110911,1,0,0:0:0:0:
187,120,111077,1,8,0:0:0:0:
240,172,111244,1,8,0:0:0:0:
210,78,111327,1,8,0:0:0:0:
240,172,111411,1,8,0:0:0:0:
210,163,111577,1,8,0:0:0:0:
210,163,111744,1,0,0:0:0:0:
210,163,111827,1,0,0:0:0:0:
210,163,111911,1,8,0:0:0:0:
210,163,112077,1,4,0:0:0:0:
301,145,112411,1,0,0:0:0:0:
301,145,112522,1,0,0:0:0:0:
301,145,112633,1,8,0:0:0:0:
226,80,112744,1,0,0:0:0:0:
226,80,112855,1,8,0:0:0:0:
226,80,112966,1,8,0:0:0:0:
251,92,113077,1,0,0:0:0:0:
251,92,113189,1,0,0:0:0:0:
251,92,113300,1,0,0:0:0:0:
251,92,113411,1,8,0:0:0:0:
251,92,113522,1,8,0:0:0:0:
251,92,113633,1,8,0:0:0:0:
270,165,113744,1,0,0:0:0:0:
270,165,113855,1,0,0:0:0:0:
270,165,113966,1,8,0:0:0:0:
80,184,114077,1,0,0:0:0:0:
427,87,114411,1,0,0:0:0:0:
427,87,114744,1,0,0:0:0:0:
360,149,114855,1,0,0:0:0:0:
360,149,114966,1,0,0:0:0:0:
360,149,115077,1,0,0:0:0:0:
