osu file format v14

[General]
AudioFilename: Kanata no Reflesia.mp3
AudioLeadIn: 0
PreviewTime: 79744
Countdown: 0
SampleSet: Normal
StackLeniency: 0.7
Mode: 1
LetterboxInBreaks: 0
WidescreenStoryboard: 0

[Editor]
DistanceSpacing: 0.8
BeatDivisor: 4
GridSize: 8
TimelineZoom: 2.599999

[Metadata]
Title:Kanata no Reflesia
TitleUnicode:彼方のリフレシア
Artist:DJ TOTTO feat. Annabel & Hiyama Nao
ArtistUnicode:DJ TOTTO feat. Annabel & 日山尚
Creator:iloveyou4ever
Version:Prophecy's Muzukashii
Source:REFLEC BEAT 悠久のリフレシア
Tags:TCBC #1 Taiko Chinese Beatmap Contest Nardoxyribonucleic -GN Junior Cynplytholowazy Prophecy sing216 mintong89
BeatmapID:1658142
BeatmapSetID:785734

[Difficulty]
HPDrainRate:5
CircleSize:2
OverallDifficulty:5
ApproachRate:10
SliderMultiplier:1.4
SliderTickRate:1

[Events]
//Background and Video events
0,0,"kanata.jpg",0,-70
//Break Periods
//Storyboard Layer 0 (Background)
//Storyboard Layer 1 (Fail)
//Storyboard Layer 2 (Pass)
//Storyboard Layer 3 (Foreground)
//Storyboard Layer 4 (Overlay)
//Storyboard Sound Samples

[TimingPoints]
2078,333.333333333333,3,1,0,70,1,0
61994,-100,3,1,0,50,0,0
63077,-100,3,1,0,60,0,0
64077,-133.333333333333,3,1,0,70,0,1
79077,-100,3,1,0,70,0,0
80077,-100,3,1,0,70,0,1
96077,-100,3,1,0,70,0,0

[HitObjects]
256,192,2077,5,4,0:0:0:0:
256,192,3077,1,0,0:0:0:0:
256,192,3411,1,8,0:0:0:0:
256,192,3744,1,8,0:0:0:0:
256,192,4077,1,0,0:0:0:0:
256,192,5077,1,0,0:0:0:0:
256,192,5411,1,0,0:0:0:0:
256,192,5744,1,8,0:0:0:0:
256,192,6077,1,4,0:0:0:0:
256,192,7077,1,0,0:0:0:0:
256,192,7411,1,8,0:0:0:0:
256,192,7744,1,0,0:0:0:0:
256,192,8077,1,8,0:0:0:0:
256,192,8744,1,0,0:0:0:0:
256,192,8911,1,0,0:0:0:0:
256,192,9077,1,8,0:0:0:0:
256,192,9411,1,0,0:0:0:0:
256,192,9744,1,8,0:0:0:0:
256,192,10077,1,0,0:0:0:0:
256,192,10244,1,0,0:0:0:0:
256,192,10411,1,8,0:0:0:0:
256,192,10744,1,8,0:0:0:0:
256,192,10911,1,8,0:0:0:0:
256,192,11077,1,0,0:0:0:0:
256,192,11411,1,8,0:0:0:0:
256,192,11744,1,8,0:0:0:0:
256,192,12077,1,8,0:0:0:0:
256,192,12244,1,8,0:0:0:0:
256,192,12411,1,0,0:0:0:0:
256,192,12744,1,0,0:0:0:0:
256,192,12911,1,8,0:0:0:0:
256,192,13077,1,0,0:0:0:0:
256,192,13411,1,8,0:0:0:0:
256,192,13744,1,0,0:0:0:0:
256,192,14077,1,8,0:0:0:0:
256,192,14744,1,8,0:0:0:0:
256,192,14911,1,8,0:0:0:0:
256,192,15077,1,0,0:0:0:0:
256,192,15411,1,0,0:0:0:0:
256,192,15577,1,8,0:0:0:0:
256,192,15744,1,0,0:0:0:0:
256,192,16077,1,12,0:0:0:0:
256,192,16744,1,8,0:0:0:0:
256,192,16911,1,0,0:0:0:0:
256,192,17077,1,8,0:0:0:0:
256,192,17411,1,0,0:0:0:0:
256,192,17744,1,8,0:0:0:0:
256,192,18077,1,4,0:0:0:0:
256,192,18633,1,8,0:0:0:0:
256,192,18744,1,8,0:0:0:0:
256,192,18966,1,0,0:0:0:0:
256,192,19077,1,0,0:0:0:0:
256,192,19300,1,8,0:0:0:0:
256,192,19411,1,0,0:0:0:0:
256,192,19744,1,8,0:0:0:0:
256,192,19966,1,0,0:0:0:0:
256,192,20077,1,8,0:0:0:0:
256,192,20411,1,8,0:0:0:0:
256,192,20577,1,0,0:0:0:0:
256,192,20744,1,8,0:0:0:0:
256,192,20911,1,8,0:0:0:0:
256,192,20994,1,8,0:0:0:0:
256,192,21077,1,8,0:0:0:0:
256,192,21411,1,8,0:0:0:0:
256,192,22077,1,4,0:0:0:0:
256,192,22577,1,8,0:0:0:0:
256,192,22911,1,0,0:0:0:0:
256,192,23077,1,8,0:0:0:0:
256,192,23411,1,8,0:0:0:0:
256,192,23577,1,0,0:0:0:0:
256,192,23744,1,8,0:0:0:0:
256,192,24077,1,8,0:0:0:0:
256,192,24577,1,8,0:0:0:0:
256,192,25077,1,8,0:0:0:0:
256,192,25244,1,8,0:0:0:0:
256,192,25411,1,0,0:0:0:0:
256,192,25744,1,0,0:0:0:0:
256,192,26077,1,8,0:0:0:0:
256,192,26577,1,8,0:0:0:0:
256,192,26911,1,0,0:0:0:0:
256,192,27077,1,8,0:0:0:0:
256,192,27411,1,8,0:0:0:0:
256,192,27577,1,0,0:0:0:0:
256,192,27744,1,8,0:0:0:0:
256,192,28077,1,8,0:0:0:0:
256,192,28244,1,8,0:0:0:0:
256,192,28327,1,8,0:0:0:0:
256,192,28411,1,8,0:0:0:0:
256,192,28577,1,8,0:0:0:0:
256,192,28911,1,0,0:0:0:0:
256,192,29077,1,8,0:0:0:0:
256,192,29411,1,8,0:0:0:0:
256,192,29744,1,0,0:0:0:0:
256,192,29911,1,8,0:0:0:0:
256,192,30077,1,4,0:0:0:0:
256,192,30411,1,0,0:0:0:0:
256,192,30577,1,8,0:0:0:0:
256,192,30911,1,8,0:0:0:0:
256,192,31244,1,8,0:0:0:0:
256,192,31411,1,0,0:0:0:0:
256,192,31577,1,8,0:0:0:0:
256,192,31744,1,8,0:0:0:0:
256,192,32077,1,8,0:0:0:0:
256,192,32411,1,8,0:0:0:0:
256,192,32577,1,0,0:0:0:0:
256,192,32911,1,0,0:0:0:0:
256,192,33077,1,8,0:0:0:0:
256,192,33244,1,8,0:0:0:0:
256,192,33577,1,0,0:0:0:0:
256,192,33744,1,8,0:0:0:0:
256,192,34077,1,8,0:0:0:0:
256,192,34411,1,8,0:0:0:0:
256,192,34577,1,0,0:0:0:0:
256,192,34744,1,0,0:0:0:0:
256,192,35077,1,8,0:0:0:0:
256,192,35244,1,0,0:0:0:0:
256,192,35411,1,8,0:0:0:0:
256,192,35744,1,0,0:0:0:0:
256,192,36077,1,8,0:0:0:0:
256,192,36244,1,0,0:0:0:0:
256,192,36411,1,0,0:0:0:0:
256,192,36744,1,8,0:0:0:0:
256,192,36911,1,8,0:0:0:0:
256,192,37077,1,0,0:0:0:0:
256,192,37411,1,8,0:0:0:0:
256,192,37577,1,0,0:0:0:0:
256,192,37744,1,8,0:0:0:0:
256,192,37827,1,8,0:0:0:0:
256,192,37911,1,8,0:0:0:0:
256,192,38077,1,4,0:0:0:0:
256,192,38411,1,0,0:0:0:0:
256,192,38577,1,8,0:0:0:0:
256,192,38911,1,8,0:0:0:0:
256,192,39077,1,0,0:0:0:0:
256,192,39244,1,8,0:0:0:0:
256,192,39411,1,0,0:0:0:0:
256,192,39744,1,0,0:0:0:0:
256,192,39911,1,8,0:0:0:0:
256,192,40077,1,8,0:0:0:0:
256,192,40411,1,8,0:0:0:0:
256,192,40577,1,0,0:0:0:0:
256,192,40911,1,8,0:0:0:0:
256,192,41077,1,0,0:0:0:0:
256,192,41244,1,8,0:0:0:0:
256,192,41577,1,8,0:0:0:0:
256,192,41661,1,8,0:0:0:0:
256,192,41744,1,8,0:0:0:0:
256,192,41911,1,0,0:0:0:0:
256,192,42077,1,8,0:0:0:0:
256,192,42411,1,8,0:0:0:0:
256,192,42577,1,0,0:0:0:0:
256,192,42744,1,8,0:0:0:0:
256,192,43077,1,8,0:0:0:0:
256,192,43244,1,8,0:0:0:0:
256,192,43411,1,8,0:0:0:0:
256,192,43744,1,0,0:0:0:0:
256,192,43911,1,8,0:0:0:0:
256,192,44077,1,8,0:0:0:0:
256,192,44244,1,0,0:0:0:0:
256,192,44411,1,8,0:0:0:0:
256,192,44911,1,0,0:0:0:0:
256,192,45077,1,8,0:0:0:0:
256,192,45244,1,8,0:0:0:0:
256,192,45411,1,0,0:0:0:0:
256,192,45744,1,8,0:0:0:0:
256,192,46077,1,4,0:0:0:0:
256,192,46411,1,8,0:0:0:0:
256,192,46578,1,8,0:0:0:0:
256,192,46911,1,0,0:0:0:0:
256,192,47077,1,8,0:0:0:0:
256,192,47411,1,8,0:0:0:0:
256,192,47577,1,0,0:0:0:0:
256,192,47911,1,0,0:0:0:0:
256,192,48077,1,8,0:0:0:0:
256,192,48411,1,8,0:0:0:0:
256,192,48577,1,8,0:0:0:0:
256,192,48911,1,0,0:0:0:0:
256,192,49077,1,8,0:0:0:0:
256,192,49411,1,8,0:0:0:0:
256,192,49744,1,8,0:0:0:0:
256,192,49911,1,0,0:0:0:0:
256,192,50077,1,12,0:0:0:0:
256,192,50411,1,8,0:0:0:0:
256,192,50577,1,8,0:0:0:0:
256,192,50911,1,0,0:0:0:0:
256,192,51077,1,8,0:0:0:0:
256,192,51411,1,8,0:0:0:0:
256,192,51577,1,0,0:0:0:0:
256,192,51744,1,8,0:0:0:0:
256,192,52077,1,12,0:0:0:0:
256,192,52411,1,8,0:0:0:0:
256,192,52577,1,8,0:0:0:0:
256,192,52911,1,0,0:0:0:0:
256,192,53077,1,8,0:0:0:0:
256,192,53411,1,8,0:0:0:0:
256,192,53744,1,0,0:0:0:0:
256,192,53827,1,0,0:0:0:0:
231,150,53911,1,0,0:0:0:0:
256,192,54077,1,8,0:0:0:0:
256,192,54411,1,8,0:0:0:0:
256,192,54577,1,8,0:0:0:0:
256,192,54911,1,0,0:0:0:0:
256,192,55077,1,8,0:0:0:0:
256,192,55411,1,8,0:0:0:0:
256,192,55744,1,8,0:0:0:0:
256,192,55911,1,0,0:0:0:0:
256,192,56077,1,8,0:0:0:0:
256,192,56411,1,8,0:0:0:0:
256,192,56577,1,8,0:0:0:0:
256,192,56911,1,0,0:0:0:0:
256,192,57077,1,8,0:0:0:0:
256,192,57411,1,8,0:0:0:0:
256,192,57577,1,0,0:0:0:0:
256,192,57661,1,0,0:0:0:0:
256,192,57744,1,0,0:0:0:0:
256,192,57911,1,0,0:0:0:0:
256,192,58077,1,12,0:0:0:0:
256,192,58411,1,8,0:0:0:0:
256,192,58577,1,8,0:0:0:0:
256,192,58911,1,0,0:0:0:0:
256,192,59077,1,8,0:0:0:0:
256,192,59411,1,8,0:0:0:0:
256,192,59577,1,0,0:0:0:0:
256,192,59911,1,0,0:0:0:0:
256,192,60077,1,4,0:0:0:0:
256,192,60244,1,4,0:0:0:0:
256,192,60577,1,4,0:0:0:0:
256,192,60911,1,4,0:0:0:0:
256,192,61077,1,6,0:0:0:0:
256,192,61411,1,6,0:0:0:0:
256,192,61744,1,6,0:0:0:0:
256,192,61911,1,6,0:0:0:0:
256,192,62077,1,8,0:0:0:0:
256,192,63077,8,0,63911,0:0:0:0:
256,192,64077,5,4,0:0:0:0:
256,192,64411,1,0,0:0:0:0:
256,192,64744,1,0,0:0:0:0:
256,192,64911,1,8,0:0:0:0:
256,192,65077,1,0,0:0:0:0:
256,192,65411,1,8,0:0:0:0:
256,192,65577,1,0,0:0:0:0:
256,192,65744,1,8,0:0:0:0:
256,192,66077,1,0,0:0:0:0:
256,192,66411,1,8,0:0:0:0:
256,192,66577,1,0,0:0:0:0:
256,192,66744,1,0,0:0:0:0:
256,192,66911,1,8,0:0:0:0:
256,192,67077,1,8,0:0:0:0:
256,192,67411,1,8,0:0:0:0:
256,192,67744,1,8,0:0:0:0:
256,192,67911,1,0,0:0:0:0:
256,192,68077,1,8,0:0:0:0:
256,192,68411,1,0,0:0:0:0:
256,192,68744,1,8,0:0:0:0:
256,192,68911,1,0,0:0:0:0:
256,192,69077,1,8,0:0:0:0:
256,192,69411,1,8,0:0:0:0:
256,192,69577,1,8,0:0:0:0:
256,192,69744,1,0,0:0:0:0:
256,192,69911,1,0,0:0:0:0:
256,192,70077,1,8,0:0:0:0:
256,192,70411,1,0,0:0:0:0:
256,192,70577,1,8,0:0:0:0:
256,192,70911,1,8,0:0:0:0:
256,192,71077,1,0,0:0:0:0:
256,192,71411,1,8,0:0:0:0:
256,192,71577,1,0,0:0:0:0:
256,192,71744,1,8,0:0:0:0:
256,192,71911,1,8,0:0:0:0:
256,192,72077,1,4,0:0:0:0:
256,192,72411,1,8,0:0:0:0:
256,192,72744,1,8,0:0:0:0:
256,192,72911,1,8,0:0:0:0:
256,192,73077,1,0,0:0:0:0:
256,192,73244,1,8,0:0:0:0:
256,192,73411,1,0,0:0:0:0:
256,192,73744,1,8,0:0:0:0:
256,192,74077,1,8,0:0:0:0:
256,192,74411,1,8,0:0:0:0:
256,192,74577,1,0,0:0:0:0:
256,192,74744,1,8,0:0:0:0:
256,192,74911,1,8,0:0:0:0:
256,192,75077,1,0,0:0:0:0:
256,192,75411,1,0,0:0:0:0:
256,192,75577,1,8,0:0:0:0:
256,192,75744,1,0,0:0:0:0:
256,192,75827,1,0,0:0:0:0:
256,192,75911,1,0,0:0:0:0:
256,192,76078,1,8,0:0:0:0:
256,192,76411,1,8,0:0:0:0:
256,192,76744,1,0,0:0:0:0:
256,192,76911,1,8,0:0:0:0:
256,192,77077,1,8,0:0:0:0:
256,192,77161,1,8,0:0:0:0:
256,192,77244,1,8,0:0:0:0:
256,192,77411,1,0,0:0:0:0:
256,192,77577,1,0,0:0:0:0:
256,192,77744,1,8,0:0:0:0:
256,192,78077,1,6,0:0:0:0:
256,192,78577,1,6,0:0:0:0:
256,192,79077,1,8,0:0:0:0:
256,192,79411,1,0,0:0:0:0:
256,192,79744,1,0,0:0:0:0:
256,192,79911,1,8,0:0:0:0:
256,192,80077,1,4,0:0:0:0:
256,192,80411,1,8,0:0:0:0:
256,192,80744,1,8,0:0:0:0:
256,192,80911,1,0,0:0:0:0:
256,192,81077,1,8,0:0:0:0:
256,192,81411,1,8,0:0:0:0:
256,192,81744,1,0,0:0:0:0:
256,192,82077,1,0,0:0:0:0:
256,192,82411,1,8,0:0:0:0:
256,192,82577,1,8,0:0:0:0:
256,192,82744,1,0,0:0:0:0:
256,192,82911,1,8,0:0:0:0:
256,192,83077,1,0,0:0:0:0:
256,192,83411,1,0,0:0:0:0:
256,192,83744,1,0,0:0:0:0:
256,192,83911,1,8,0:0:0:0:
256,192,84077,1,8,0:0:0:0:
256,192,84411,1,8,0:0:0:0:
256,192,84577,1,0,0:0:0:0:
256,192,84744,1,8,0:0:0:0:
256,192,84911,1,8,0:0:0:0:
256,192,85077,1,8,0:0:0:0:
256,192,85411,1,8,0:0:0:0:
256,192,85577,1,0,0:0:0:0:
256,192,85744,1,8,0:0:0:0:
256,192,85911,1,8,0:0:0:0:
256,192,86077,1,0,0:0:0:0:
256,192,86411,1,8,0:0:0:0:
256,192,86577,1,0,0:0:0:0:
256,192,86911,1,8,0:0:0:0:
256,192,87077,1,0,0:0:0:0:
254,191,87411,1,0,0:0:0:0:
256,192,87577,1,8,0:0:0:0:
254,191,87744,1,0,0:0:0:0:
256,192,87911,1,8,0:0:0:0:
254,191,88077,1,4,0:0:0:0:
256,192,88411,1,8,0:0:0:0:
256,192,88577,1,8,0:0:0:0:
256,192,88744,1,0,0:0:0:0:
256,192,88827,1,0,0:0:0:0:
256,192,88911,1,0,0:0:0:0:
256,192,89077,1,8,0:0:0:0:
256,192,89244,1,8,0:0:0:0:
256,192,89411,1,0,0:0:0:0:
256,192,89744,1,0,0:0:0:0:
256,192,90077,1,0,0:0:0:0:
256,192,90411,1,0,0:0:0:0:
256,192,90577,1,8,0:0:0:0:
256,192,90744,1,8,0:0:0:0:
256,192,90911,1,0,0:0:0:0:
256,192,91077,1,6,0:0:0:0:
256,192,91411,1,4,0:0:0:0:
256,192,91744,1,6,0:0:0:0:
256,192,92077,1,4,0:0:0:0:
256,192,92411,1,8,0:0:0:0:
256,192,92577,1,8,0:0:0:0:
256,192,92744,1,0,0:0:0:0:
256,192,92911,1,0,0:0:0:0:
256,192,93077,1,8,0:0:0:0:
256,192,93411,1,0,0:0:0:0:
256,192,93744,1,0,0:0:0:0:
256,192,93910,1,8,0:0:0:0:
256,192,94077,1,8,0:0:0:0:
256,192,94244,1,0,0:0:0:0:
256,192,94577,1,8,0:0:0:0:
256,192,94911,1,8,0:0:0:0:
256,192,95077,1,0,0:0:0:0:
256,192,95411,1,8,0:0:0:0:
256,192,95577,1,8,0:0:0:0:
256,192,95744,1,8,0:0:0:0:
256,192,95911,1,0,0:0:0:0:
256,192,96077,1,4,0:0:0:0:
256,192,98077,1,4,0:0:0:0:
256,192,98411,1,8,0:0:0:0:
256,192,98744,1,8,0:0:0:0:
256,192,98911,1,0,0:0:0:0:
256,192,99077,1,8,0:0:0:0:
256,192,99411,1,8,0:0:0:0:
256,192,99577,1,8,0:0:0:0:
256,192,99744,1,0,0:0:0:0:
256,192,100077,1,4,0:0:0:0:
256,192,102077,1,4,0:0:0:0:
256,192,102411,1,8,0:0:0:0:
256,192,102744,1,8,0:0:0:0:
256,192,102911,1,0,0:0:0:0:
256,192,103077,1,8,0:0:0:0:
256,192,103410,1,0,0:0:0:0:
256,192,103744,1,0,0:0:0:0:
256,192,103911,1,8,0:0:0:0:
256,192,104077,1,4,0:0:0:0:
256,192,106077,1,4,0:0:0:0:
256,192,106411,1,8,0:0:0:0:
256,192,106744,1,8,0:0:0:0:
253,195,106911,1,0,0:0:0:0:
256,192,107077,1,8,0:0:0:0:
256,192,107411,1,8,0:0:0:0:
256,192,107744,1,0,0:0:0:0:
256,192,107911,1,8,0:0:0:0:
256,192,108077,1,4,0:0:0:0:
256,192,110077,1,4,0:0:0:0:
256,192,110411,1,8,0:0:0:0:
256,192,110744,1,8,0:0:0:0:
256,192,111077,1,8,0:0:0:0:
256,192,111244,1,8,0:0:0:0:
256,192,111411,1,8,0:0:0:0:
256,192,111577,1,8,0:0:0:0:
256,192,111744,1,0,0:0:0:0:
256,192,111827,1,0,0:0:0:0:
256,192,111911,1,0,0:0:0:0:
256,192,112077,1,12,0:0:0:0:
256,192,112411,1,0,0:0:0:0:
256,192,112633,1,0,0:0:0:0:
256,192,112744,1,0,0:0:0:0:
256,192,112966,1,8,0:0:0:0:
256,192,113077,1,8,0:0:0:0:
256,192,113300,1,0,0:0:0:0:
256,192,113411,1,0,0:0:0:0:
256,192,113633,1,8,0:0:0:0:
256,192,113744,1,8,0:0:0:0:
256,192,113966,1,0,0:0:0:0:
256,192,114077,1,8,0:0:0:0:
256,192,114411,1,4,0:0:0:0:
256,192,114744,1,0,0:0:0:0:
256,192,114855,1,0,0:0:0:0:
256,192,114966,1,0,0:0:0:0:
256,192,115077,1,0,0:0:0:0:
