osu file format v14

[General]
AudioFilename: Kanata no Reflesia.mp3
AudioLeadIn: 0
PreviewTime: 79744
Countdown: 0
SampleSet: Normal
StackLeniency: 0.7
Mode: 1
LetterboxInBreaks: 0
WidescreenStoryboard: 0

[Editor]
DistanceSpacing: 0.8
BeatDivisor: 4
GridSize: 32
TimelineZoom: 0.5999991

[Metadata]
Title:Kanata no Reflesia
TitleUnicode:彼方のリフレシア
Artist:DJ TOTTO feat. Annabel & Hiyama Nao
ArtistUnicode:DJ TOTTO feat. Annabel & 日山尚
Creator:iloveyou4ever
Version:Nardo's Kantan
Source:REFLEC BEAT 悠久のリフレシア
Tags:TCBC #1 Taiko Chinese Beatmap Contest Nardoxyribonucleic -GN Junior Cynplytholowazy Prophecy sing216 mintong89
BeatmapID:1748910
BeatmapSetID:785734

[Difficulty]
HPDrainRate:7
CircleSize:5
OverallDifficulty:3
ApproachRate:5
SliderMultiplier:1.4
SliderTickRate:1

[Events]
//Background and Video events
0,0,"kanata.jpg",0,-70
//Break Periods
//Storyboard Layer 0 (Background)
//Storyboard Layer 1 (Fail)
//Storyboard Layer 2 (Pass)
//Storyboard Layer 3 (Foreground)
//Storyboard Layer 4 (Overlay)
//Storyboard Sound Samples

[TimingPoints]
2078,333.333333333333,3,1,0,70,1,0
10077,-100,3,1,0,55,0,0
14077,-100,3,1,0,70,0,0
22077,-100,3,1,0,65,0,0
30077,-100,3,1,0,70,0,0
38077,-100,3,1,0,75,0,0
46077,-100,3,1,0,80,0,0
64077,-100,3,1,0,85,0,1
79077,-100,3,1,0,85,0,0
80077,-100,3,1,0,90,0,1
96077,-100,3,1,0,80,0,0
112077,-100,3,1,0,85,0,0

[HitObjects]
256,192,2077,5,4,0:0:0:0:
256,192,4077,1,8,0:0:0:0:
256,192,5077,1,8,0:0:0:0:
256,192,6077,1,4,0:0:0:0:
256,192,8077,1,8,0:0:0:0:
256,192,9077,1,0,0:0:0:0:
256,192,10077,1,0,0:0:0:0:
256,192,10744,1,8,0:0:0:0:
256,192,11077,1,8,0:0:0:0:
256,192,12077,1,8,0:0:0:0:
256,192,12744,1,0,0:0:0:0:
256,192,13077,1,0,0:0:0:0:
256,192,14077,1,4,0:0:0:0:
256,192,15077,1,0,0:0:0:0:
256,192,15744,1,0,0:0:0:0:
256,192,16077,1,12,0:0:0:0:
256,192,17077,1,8,0:0:0:0:
256,192,17744,1,8,0:0:0:0:
256,192,18077,1,4,0:0:0:0:
256,192,18244,12,0,20077,0:0:0:0:
256,192,22077,5,4,0:0:0:0:
256,192,23077,1,0,0:0:0:0:
256,192,23411,1,8,0:0:0:0:
256,192,24077,1,0,0:0:0:0:
256,192,24577,1,8,0:0:0:0:
256,192,25077,1,0,0:0:0:0:
256,192,26077,1,0,0:0:0:0:
256,192,27077,1,0,0:0:0:0:
256,192,27411,1,8,0:0:0:0:
256,192,28077,1,0,0:0:0:0:
256,192,28577,1,8,0:0:0:0:
256,192,29077,1,8,0:0:0:0:
256,192,30077,1,4,0:0:0:0:
256,192,31077,1,8,0:0:0:0:
256,192,31744,1,0,0:0:0:0:
256,192,32077,1,8,0:0:0:0:
256,192,32577,1,0,0:0:0:0:
256,192,33077,1,8,0:0:0:0:
256,192,34077,1,0,0:0:0:0:
256,192,35077,1,8,0:0:0:0:
256,192,35744,1,0,0:0:0:0:
256,192,36077,1,8,0:0:0:0:
256,192,36411,1,8,0:0:0:0:
256,192,36744,1,0,0:0:0:0:
256,192,37077,1,8,0:0:0:0:
256,192,38077,1,4,0:0:0:0:
256,192,39077,1,8,0:0:0:0:
256,192,39744,1,0,0:0:0:0:
256,192,40077,1,8,0:0:0:0:
256,192,40577,1,0,0:0:0:0:
256,192,41077,1,8,0:0:0:0:
256,192,42077,1,0,0:0:0:0:
256,192,43077,1,8,0:0:0:0:
256,192,43744,1,0,0:0:0:0:
256,192,44077,1,8,0:0:0:0:
256,192,44411,1,8,0:0:0:0:
256,192,45077,1,0,0:0:0:0:
256,192,45744,1,8,0:0:0:0:
256,192,46077,1,4,0:0:0:0:
256,192,47744,1,0,0:0:0:0:
256,192,48077,1,4,0:0:0:0:
256,192,49411,1,8,0:0:0:0:
256,192,49744,1,0,0:0:0:0:
256,192,50077,1,12,0:0:0:0:
256,192,51411,1,8,0:0:0:0:
256,192,51744,1,8,0:0:0:0:
256,192,52077,1,4,0:0:0:0:
256,192,53744,1,0,0:0:0:0:
256,192,54077,1,12,0:0:0:0:
256,192,55744,1,8,0:0:0:0:
256,192,56077,1,12,0:0:0:0:
256,192,57411,1,8,0:0:0:0:
256,192,57744,1,0,0:0:0:0:
256,192,58077,1,4,0:0:0:0:
256,192,60077,1,8,0:0:0:0:
256,192,60577,1,8,0:0:0:0:
256,192,61077,1,0,0:0:0:0:
256,192,61411,1,0,0:0:0:0:
256,192,61744,1,0,0:0:0:0:
256,192,62077,1,8,0:0:0:0:
256,192,64077,1,12,0:0:0:0:
256,192,65411,1,8,0:0:0:0:
256,192,65744,1,0,0:0:0:0:
256,192,66077,1,8,0:0:0:0:
256,192,66744,1,0,0:0:0:0:
256,192,67077,1,0,0:0:0:0:
256,192,67744,1,0,0:0:0:0:
256,192,68077,1,8,0:0:0:0:
327,194,69411,1,8,0:0:0:0:
256,192,69744,1,0,0:0:0:0:
256,192,70077,1,8,0:0:0:0:
256,192,70411,1,8,0:0:0:0:
256,192,71077,1,0,0:0:0:0:
256,192,71744,1,8,0:0:0:0:
256,192,72077,1,4,0:0:0:0:
256,192,73077,1,8,0:0:0:0:
256,192,73744,1,0,0:0:0:0:
256,192,74077,1,8,0:0:0:0:
256,192,74744,1,8,0:0:0:0:
256,192,75077,1,0,0:0:0:0:
256,192,75744,1,0,0:0:0:0:
256,192,76077,1,8,0:0:0:0:
256,192,76411,1,0,0:0:0:0:
256,192,77077,1,8,0:0:0:0:
256,192,77744,1,0,0:0:0:0:
256,192,78077,1,8,0:0:0:0:
256,192,78577,1,0,0:0:0:0:
256,192,79077,1,8,0:0:0:0:
256,192,80077,1,12,0:0:0:0:
256,192,81411,1,8,0:0:0:0:
256,192,81744,1,0,0:0:0:0:
256,192,82077,1,8,0:0:0:0:
256,192,82411,1,8,0:0:0:0:
256,192,82744,1,0,0:0:0:0:
256,192,83077,1,0,0:0:0:0:
256,192,83744,1,8,0:0:0:0:
256,192,84077,1,0,0:0:0:0:
256,192,85411,1,0,0:0:0:0:
256,192,85744,1,0,0:0:0:0:
256,192,86077,1,8,0:0:0:0:
256,192,86411,1,8,0:0:0:0:
256,192,87077,1,0,0:0:0:0:
256,192,87411,1,0,0:0:0:0:
256,192,87744,1,8,0:0:0:0:
256,192,88077,1,4,0:0:0:0:
256,192,89077,1,8,0:0:0:0:
256,192,89744,1,0,0:0:0:0:
256,192,90077,1,8,0:0:0:0:
256,192,90744,1,0,0:0:0:0:
256,192,91077,1,8,0:0:0:0:
256,192,91411,1,0,0:0:0:0:
256,192,91744,1,8,0:0:0:0:
256,192,92077,1,4,0:0:0:0:
256,192,92744,1,8,0:0:0:0:
256,192,93077,1,8,0:0:0:0:
256,192,94077,1,0,0:0:0:0:
256,192,95077,1,8,0:0:0:0:
256,192,95411,1,8,0:0:0:0:
256,192,95744,1,0,0:0:0:0:
256,192,96077,1,4,0:0:0:0:
256,192,98077,1,12,0:0:0:0:
256,192,99077,1,8,0:0:0:0:
256,192,99411,1,0,0:0:0:0:
256,192,99744,1,8,0:0:0:0:
256,192,100077,1,4,0:0:0:0:
256,192,102077,1,12,0:0:0:0:
256,192,103077,1,0,0:0:0:0:
256,192,103744,1,8,0:0:0:0:
256,192,104077,1,4,0:0:0:0:
256,192,106077,1,12,0:0:0:0:
256,192,107077,1,8,0:0:0:0:
256,192,107411,1,0,0:0:0:0:
256,192,107744,1,8,0:0:0:0:
256,192,108077,1,4,0:0:0:0:
256,192,110077,1,12,0:0:0:0:
256,192,111077,1,8,0:0:0:0:
256,192,111744,1,0,0:0:0:0:
256,192,112077,1,12,0:0:0:0:
256,192,113077,1,0,0:0:0:0:
256,192,113411,1,8,0:0:0:0:
256,192,113744,1,0,0:0:0:0:
256,192,114077,1,12,0:0:0:0:
256,192,114744,1,0,0:0:0:0:
256,192,115077,1,0,0:0:0:0:
