osu file format v14

[General]
AudioFilename: Kanata no Reflesia.mp3
AudioLeadIn: 0
PreviewTime: 79744
Countdown: 0
SampleSet: Normal
StackLeniency: 0.7
Mode: 1
LetterboxInBreaks: 0
WidescreenStoryboard: 0

[Editor]
DistanceSpacing: 1
BeatDivisor: 2
GridSize: 32
TimelineZoom: 1.4

[Metadata]
Title:Kanata no Reflesia
TitleUnicode:彼方のリフレシア
Artist:DJ TOTTO feat. Annabel & Hiyama Nao
ArtistUnicode:DJ TOTTO feat. Annabel & 日山尚
Creator:iloveyou4ever
Version:-GN Jr.'s Futsuu
Source:REFLEC BEAT 悠久のリフレシア
Tags:TCBC #1 Taiko Chinese Beatmap Contest Nardoxyribonucleic -GN Junior Cynplytholowazy Prophecy sing216 mintong89
BeatmapID:1759429
BeatmapSetID:785734

[Difficulty]
HPDrainRate:6
CircleSize:7
OverallDifficulty:4
ApproachRate:10
SliderMultiplier:1.4
SliderTickRate:1

[Events]
//Background and Video events
0,0,"kanata.jpg",0,-70
//Break Periods
//Storyboard Layer 0 (Background)
//Storyboard Layer 1 (Fail)
//Storyboard Layer 2 (Pass)
//Storyboard Layer 3 (Foreground)
//Storyboard Layer 4 (Overlay)
//Storyboard Sound Samples

[TimingPoints]
2078,333.333333333333,3,1,0,70,1,0
61994,-100,3,1,0,50,0,0
63077,-100,3,1,0,60,0,0
64077,-100,3,1,0,70,0,1
79077,-100,3,1,0,70,0,0
80077,-100,3,1,0,70,0,1
96077,-100,3,1,0,70,0,0
98077,-100,3,1,0,70,0,1
100077,-100,3,1,0,70,0,0
102077,-100,3,1,0,70,0,1
104077,-100,3,1,0,70,0,0
106077,-100,3,1,0,70,0,1
108077,-100,3,1,0,70,0,0
110077,-100,3,1,0,70,0,1
114077,-100,3,1,0,70,0,0

[HitObjects]
256,192,2077,5,4,0:0:0:0:
256,192,3077,1,8,0:0:0:0:
256,192,3411,1,0,0:0:0:0:
256,192,3744,1,0,0:0:0:0:
256,192,4077,1,8,0:0:0:0:
256,192,5077,1,0,0:0:0:0:
256,192,5411,1,8,0:0:0:0:
256,192,5744,1,8,0:0:0:0:
256,192,6077,1,4,0:0:0:0:
256,192,7077,1,8,0:0:0:0:
256,192,7411,1,0,0:0:0:0:
256,192,7744,1,8,0:0:0:0:
256,192,8077,1,8,0:0:0:0:
256,192,8744,1,8,0:0:0:0:
256,192,9077,1,0,0:0:0:0:
256,192,9411,1,8,0:0:0:0:
256,192,9744,1,8,0:0:0:0:
256,192,10077,1,0,0:0:0:0:
256,192,10744,1,0,0:0:0:0:
256,192,11077,1,8,0:0:0:0:
256,192,11411,1,0,0:0:0:0:
256,192,12077,1,0,0:0:0:0:
256,192,12411,1,0,0:0:0:0:
256,192,13077,1,0,0:0:0:0:
256,192,13411,1,0,0:0:0:0:
256,192,13744,1,8,0:0:0:0:
256,192,14077,1,12,0:0:0:0:
256,192,14744,1,0,0:0:0:0:
256,192,15077,1,8,0:0:0:0:
256,192,15411,1,0,0:0:0:0:
256,192,15744,1,0,0:0:0:0:
256,192,16077,1,12,0:0:0:0:
256,192,16744,1,8,0:0:0:0:
256,192,17077,1,0,0:0:0:0:
256,192,17411,1,0,0:0:0:0:
256,192,17744,1,8,0:0:0:0:
256,192,18077,1,12,0:0:0:0:
256,192,18661,12,0,19744,0:0:0:0:
256,192,20077,5,8,0:0:0:0:
256,192,20411,12,0,21744,0:0:0:0:
256,192,22077,5,8,0:0:0:0:
256,192,22411,1,0,0:0:0:0:
256,192,22744,1,0,0:0:0:0:
256,192,23077,1,8,0:0:0:0:
256,192,23744,1,8,0:0:0:0:
256,192,24077,1,8,0:0:0:0:
256,192,24411,1,0,0:0:0:0:
256,192,24744,1,8,0:0:0:0:
256,192,25077,1,8,0:0:0:0:
256,192,25411,1,8,0:0:0:0:
256,192,25744,1,8,0:0:0:0:
256,192,26077,1,0,0:0:0:0:
256,192,26577,1,0,0:0:0:0:
256,192,27077,1,0,0:0:0:0:
256,192,27411,1,8,0:0:0:0:
256,192,27744,1,0,0:0:0:0:
256,192,28077,1,0,0:0:0:0:
256,192,29077,1,0,0:0:0:0:
256,192,29411,1,8,0:0:0:0:
256,192,29744,1,8,0:0:0:0:
256,192,30077,5,0,0:0:0:0:
256,192,30577,1,8,0:0:0:0:
256,192,31077,1,0,0:0:0:0:
256,192,31411,1,8,0:0:0:0:
256,192,31744,1,0,0:0:0:0:
256,192,32077,1,8,0:0:0:0:
256,192,32577,1,0,0:0:0:0:
256,192,33077,1,8,0:0:0:0:
256,192,33744,1,0,0:0:0:0:
256,192,34077,1,8,0:0:0:0:
256,192,34411,1,0,0:0:0:0:
256,192,34744,1,8,0:0:0:0:
256,192,35077,1,0,0:0:0:0:
256,192,35411,1,0,0:0:0:0:
256,192,35744,1,0,0:0:0:0:
256,192,36077,1,8,0:0:0:0:
256,192,36411,1,0,0:0:0:0:
256,192,36744,1,0,0:0:0:0:
256,192,37077,1,8,0:0:0:0:
256,192,37744,1,0,0:0:0:0:
256,192,38077,5,8,0:0:0:0:
256,192,38577,1,0,0:0:0:0:
256,192,39077,1,0,0:0:0:0:
256,192,39411,1,8,0:0:0:0:
256,192,39744,1,0,0:0:0:0:
256,192,40077,1,8,0:0:0:0:
256,192,40577,1,0,0:0:0:0:
256,192,41077,1,0,0:0:0:0:
256,192,41744,1,8,0:0:0:0:
256,192,42077,1,8,0:0:0:0:
256,192,42411,1,0,0:0:0:0:
256,192,42744,1,0,0:0:0:0:
256,192,43077,1,8,0:0:0:0:
256,192,43411,1,0,0:0:0:0:
256,192,43744,1,0,0:0:0:0:
256,192,44077,1,8,0:0:0:0:
256,192,44744,1,0,0:0:0:0:
256,192,45077,1,8,0:0:0:0:
256,192,45744,1,0,0:0:0:0:
256,192,46077,5,8,0:0:0:0:
256,192,46577,1,0,0:0:0:0:
256,192,47077,1,8,0:0:0:0:
256,192,47577,1,8,0:0:0:0:
256,192,48077,1,8,0:0:0:0:
256,192,48577,1,8,0:0:0:0:
256,192,49077,1,8,0:0:0:0:
256,192,49411,1,0,0:0:0:0:
256,192,49744,1,8,0:0:0:0:
256,192,50077,1,8,0:0:0:0:
256,192,50577,1,8,0:0:0:0:
256,192,51077,1,8,0:0:0:0:
256,192,51411,1,8,0:0:0:0:
256,192,51744,1,0,0:0:0:0:
256,192,52077,1,0,0:0:0:0:
256,192,52577,1,8,0:0:0:0:
256,192,53077,1,8,0:0:0:0:
256,192,53744,1,0,0:0:0:0:
256,192,54077,5,8,0:0:0:0:
256,192,54577,1,8,0:0:0:0:
256,192,55077,1,8,0:0:0:0:
256,192,55744,1,0,0:0:0:0:
256,192,56077,1,8,0:0:0:0:
256,192,56577,1,8,0:0:0:0:
256,192,57077,1,8,0:0:0:0:
256,192,57411,1,0,0:0:0:0:
256,192,57744,1,0,0:0:0:0:
256,192,58077,1,0,0:0:0:0:
256,192,58577,1,8,0:0:0:0:
256,192,59077,1,8,0:0:0:0:
256,192,59577,1,8,0:0:0:0:
256,192,60244,1,8,0:0:0:0:
256,192,60577,1,0,0:0:0:0:
256,192,60911,1,0,0:0:0:0:
256,192,61077,1,8,0:0:0:0:
256,192,61411,1,0,0:0:0:0:
256,192,62077,5,0,0:0:0:0:
256,192,63077,1,8,0:0:0:0:
256,192,64077,5,12,0:0:0:0:
256,192,64744,1,0,0:0:0:0:
256,192,65077,1,0,0:0:0:0:
256,192,65411,1,8,0:0:0:0:
256,192,65744,1,0,0:0:0:0:
256,192,66244,1,8,0:0:0:0:
256,192,66411,1,8,0:0:0:0:
256,192,66744,1,0,0:0:0:0:
256,192,67077,1,8,0:0:0:0:
256,192,67411,1,8,0:0:0:0:
256,192,67744,1,0,0:0:0:0:
256,192,68077,1,8,0:0:0:0:
256,192,68744,1,0,0:0:0:0:
256,192,69077,1,0,0:0:0:0:
256,192,69411,1,8,0:0:0:0:
256,192,69744,1,0,0:0:0:0:
256,192,70077,1,8,0:0:0:0:
256,192,70411,1,8,0:0:0:0:
256,192,70577,1,0,0:0:0:0:
256,192,70911,1,0,0:0:0:0:
256,192,71077,1,8,0:0:0:0:
256,192,71411,1,0,0:0:0:0:
256,192,72077,5,4,0:0:0:0:
256,192,72411,1,0,0:0:0:0:
256,192,72744,1,8,0:0:0:0:
256,192,73077,1,8,0:0:0:0:
256,192,73411,1,0,0:0:0:0:
256,192,73744,1,0,0:0:0:0:
256,192,74077,1,8,0:0:0:0:
256,192,74744,1,8,0:0:0:0:
256,192,75077,1,0,0:0:0:0:
256,192,75577,1,0,0:0:0:0:
256,192,75744,1,8,0:0:0:0:
256,192,76077,1,0,0:0:0:0:
256,192,76411,1,0,0:0:0:0:
256,192,76911,1,8,0:0:0:0:
256,192,77077,1,8,0:0:0:0:
256,192,77411,1,0,0:0:0:0:
256,192,77744,1,0,0:0:0:0:
256,192,78077,1,12,0:0:0:0:
256,192,78577,1,4,0:0:0:0:
256,192,79077,1,12,0:0:0:0:
256,192,79411,1,0,0:0:0:0:
256,192,79744,1,8,0:0:0:0:
256,192,80077,5,12,0:0:0:0:
256,192,80744,1,0,0:0:0:0:
256,192,81077,1,0,0:0:0:0:
256,192,81411,1,8,0:0:0:0:
256,192,81744,1,0,0:0:0:0:
256,192,82077,1,0,0:0:0:0:
256,192,82244,1,8,0:0:0:0:
256,192,82411,1,8,0:0:0:0:
256,192,82744,1,0,0:0:0:0:
256,192,83077,1,0,0:0:0:0:
256,192,83411,1,0,0:0:0:0:
256,192,83744,1,8,0:0:0:0:
256,192,84077,1,8,0:0:0:0:
256,192,84744,1,0,0:0:0:0:
256,192,85077,1,0,0:0:0:0:
256,192,85411,1,8,0:0:0:0:
256,192,85744,1,8,0:0:0:0:
256,192,86077,1,8,0:0:0:0:
256,192,86411,1,8,0:0:0:0:
256,192,86577,1,0,0:0:0:0:
256,192,86911,1,0,0:0:0:0:
256,192,87077,1,8,0:0:0:0:
256,192,87411,1,0,0:0:0:0:
256,192,88077,5,4,0:0:0:0:
256,192,88411,1,8,0:0:0:0:
256,192,88577,1,8,0:0:0:0:
256,192,88744,1,8,0:0:0:0:
256,192,89077,1,8,0:0:0:0:
256,192,89411,1,0,0:0:0:0:
256,192,89744,1,0,0:0:0:0:
256,192,90077,1,8,0:0:0:0:
256,192,90744,1,0,0:0:0:0:
256,192,90911,1,0,0:0:0:0:
256,192,91077,1,8,0:0:0:0:
256,192,91411,1,8,0:0:0:0:
256,192,91744,1,8,0:0:0:0:
256,192,92077,1,12,0:0:0:0:
256,192,92411,1,8,0:0:0:0:
256,192,92577,1,8,0:0:0:0:
256,192,92744,1,0,0:0:0:0:
256,192,93077,1,8,0:0:0:0:
256,192,93411,1,8,0:0:0:0:
256,192,93911,1,0,0:0:0:0:
256,192,94077,1,8,0:0:0:0:
256,192,94244,1,8,0:0:0:0:
256,192,94577,1,0,0:0:0:0:
256,192,94911,1,8,0:0:0:0:
256,192,95077,1,0,0:0:0:0:
256,192,95411,1,0,0:0:0:0:
256,192,95744,1,0,0:0:0:0:
256,192,96077,1,12,0:0:0:0:
256,192,98077,1,12,0:0:0:0:
256,192,98411,1,0,0:0:0:0:
256,192,98744,1,0,0:0:0:0:
256,192,99077,1,8,0:0:0:0:
256,192,99411,1,8,0:0:0:0:
256,192,99744,1,0,0:0:0:0:
256,192,100077,1,12,0:0:0:0:
256,192,102077,1,12,0:0:0:0:
256,192,102411,1,0,0:0:0:0:
256,192,102744,1,8,0:0:0:0:
256,192,103077,1,0,0:0:0:0:
256,192,103411,1,0,0:0:0:0:
256,192,103744,1,8,0:0:0:0:
256,192,104077,1,12,0:0:0:0:
256,192,106077,1,12,0:0:0:0:
256,192,106411,1,0,0:0:0:0:
256,192,106744,1,0,0:0:0:0:
256,192,107077,1,8,0:0:0:0:
256,192,107411,1,8,0:0:0:0:
256,192,107744,1,0,0:0:0:0:
256,192,108077,1,12,0:0:0:0:
256,192,110077,1,12,0:0:0:0:
256,192,110411,1,0,0:0:0:0:
256,192,110744,1,8,0:0:0:0:
256,192,111077,1,12,0:0:0:0:
256,192,111411,1,8,0:0:0:0:
256,192,111744,1,8,0:0:0:0:
256,192,112077,1,12,0:0:0:0:
256,192,112411,2,0,B|256:0|256:0|256:384|256:384|256:352,1,560
256,192,114077,1,12,0:0:0:0:
256,192,114411,1,0,0:0:0:0:
256,192,114744,1,0,0:0:0:0:
256,192,114966,1,0,0:0:0:0:
256,192,115077,1,0,0:0:0:0:
