osu file format v14

[General]
AudioFilename: audio.mp3
AudioLeadIn: 0
PreviewTime: 80148
Countdown: 0
SampleSet: Normal
StackLeniency: 0.2
Mode: 1
LetterboxInBreaks: 0
WidescreenStoryboard: 1

[Editor]
Bookmarks: 2649,10649,14649,18649,22649,30649,38649,46649,62649,64649,78648,80648,96648,98648,100648,102648,104648,106648,108648,110648,112648,113648,114648,115648
DistanceSpacing: 0.5
BeatDivisor: 4
GridSize: 32
TimelineZoom: 2.5

[Metadata]
Title:Kanata no Reflesia
TitleUnicode:彼方のリフレシア
Artist:DJ TOTTO feat. Annabel & Hiyama Nao
ArtistUnicode:DJ TOTTO feat. Annabel & 日山尚
Creator:Remus
Version:Oni
Source:REFLEC BEAT 悠久のリフレシア
Tags:Ayyri eiri- -Rmdy KONAMI BEMANI 悠久のリフレシア+VOLZZA ORIGINAL SOUNDTRACK OST The 6th KONAMI Arcade Championship KAC
BeatmapID:1731518
BeatmapSetID:824938

[Difficulty]
HPDrainRate:6
CircleSize:2
OverallDifficulty:6
ApproachRate:10
SliderMultiplier:1.4
SliderTickRate:1

[Events]
//Background and Video events
0,0,"bg.jpg",0,-50
//Break Periods
//Storyboard Layer 0 (Background)
//Storyboard Layer 1 (Fail)
//Storyboard Layer 2 (Pass)
//Storyboard Layer 3 (Foreground)
//Storyboard Sound Samples

[TimingPoints]
649,333.333333333333,3,1,0,60,1,8
649,-125,3,1,0,60,0,0
10648,-125,3,1,0,50,0,0
14648,-125,3,1,0,60,0,0
21982,-121.951219512195,3,1,0,60,0,0
22148,-119.047619047619,3,1,0,60,0,0
22315,-116.279069767442,3,1,0,60,0,0
22648,-111.111111111111,3,1,0,65,0,0
29982,-108.695652173913,3,1,0,65,0,0
30065,-107.52688172043,3,1,0,65,0,0
30148,-106.382978723404,3,1,0,65,0,0
30232,-105.263157894737,3,1,0,65,0,0
30315,-104.166666666667,3,1,0,65,0,0
30482,-102.040816326531,3,1,0,65,0,0
30648,-100,3,1,0,70,0,0
46648,-100,3,1,0,60,0,0
60648,-100,3,1,0,65,0,0
63648,-96.1538461538461,3,1,0,65,0,0
64315,-92.5925925925926,3,1,0,65,0,0
64482,-91.743119266055,3,1,0,65,0,0
64648,-90.9090909090909,3,1,0,70,0,0
78648,-90.9090909090909,3,1,0,75,0,0
78982,-89.2857142857143,3,1,0,75,0,0
79148,-88.4955752212389,3,1,0,75,0,0
79482,-86.9565217391304,3,1,0,75,0,0
79648,-86.2068965517241,3,1,0,80,0,0
79732,-85.8369098712446,3,1,0,80,0,0
79815,-85.4700854700855,3,1,0,80,0,0
79982,-84.7457627118644,3,1,0,80,0,0
80065,-84.0336134453781,3,1,0,80,0,0
80148,-84.0336134453781,3,1,0,80,0,0
80315,-83.3333333333333,3,1,0,80,0,0
80482,-81.9672131147541,3,1,0,80,0,0
80648,-80.6451612903226,3,1,0,85,0,1
88482,-81.9672131147541,3,1,0,85,0,1
88565,-82.6446280991736,3,1,0,85,0,1
88648,-83.3333333333333,3,1,0,85,0,1
95982,-84.7457627118644,3,1,0,85,0,1
96148,-86.2068965517241,3,1,0,85,0,1
96232,-86.9565217391304,3,1,0,85,0,1
96315,-87.719298245614,3,1,0,85,0,1
96482,-89.2857142857143,3,1,0,85,0,1
96648,-90.9090909090909,3,1,0,85,0,0

[Colours]
Combo1 : 244,250,37
Combo2 : 170,85,0

[HitObjects]
256,192,2315,5,0,0:0:0:0:
256,192,2648,5,12,0:0:0:0:
256,192,2815,1,0,0:0:0:0:
256,192,2982,1,0,0:0:0:0:
256,192,3148,1,8,0:0:0:0:
256,192,3315,1,0,0:0:0:0:
256,192,3482,1,0,0:0:0:0:
256,192,3648,1,8,0:0:0:0:
256,192,3982,1,0,0:0:0:0:
256,192,4315,1,0,0:0:0:0:
256,192,4648,1,8,0:0:0:0:
256,192,5482,1,0,0:0:0:0:
256,192,5565,1,0,0:0:0:0:
256,192,5648,1,8,0:0:0:0:
256,192,5982,1,0,0:0:0:0:
256,192,6315,1,0,0:0:0:0:
256,192,6648,1,12,0:0:0:0:
256,192,6815,1,0,0:0:0:0:
256,192,6982,1,0,0:0:0:0:
256,192,7148,1,8,0:0:0:0:
256,192,7315,1,0,0:0:0:0:
256,192,7482,1,0,0:0:0:0:
256,192,7648,1,8,0:0:0:0:
256,192,7982,1,0,0:0:0:0:
256,192,8315,1,8,0:0:0:0:
256,192,8648,1,8,0:0:0:0:
256,192,8982,1,0,0:0:0:0:
256,192,9315,1,0,0:0:0:0:
256,192,9482,1,0,0:0:0:0:
256,192,9648,1,8,0:0:0:0:
256,192,9982,1,0,0:0:0:0:
256,192,10315,1,0,0:0:0:0:
256,192,10648,1,8,0:0:0:0:
256,192,10815,1,0,0:0:0:0:
256,192,10982,1,0,0:0:0:0:
256,192,11315,1,0,0:0:0:0:
256,192,11482,1,0,0:0:0:0:
256,192,11648,1,8,0:0:0:0:
256,192,11815,1,0,0:0:0:0:
256,192,11982,1,0,0:0:0:0:
256,192,12315,1,0,0:0:0:0:
256,192,12648,1,8,0:0:0:0:
256,192,12815,1,0,0:0:0:0:
256,192,12898,1,0,0:0:0:0:
256,192,12982,1,0,0:0:0:0:
256,192,13148,1,8,0:0:0:0:
256,192,13315,1,0,0:0:0:0:
256,192,13398,1,0,0:0:0:0:
288,192,13482,1,0,0:0:0:0:
256,192,13648,1,8,0:0:0:0:
256,192,13982,1,0,0:0:0:0:
256,192,14315,1,0,0:0:0:0:
256,192,14648,1,12,0:0:0:0:
256,192,15315,1,8,0:0:0:0:
256,192,15481,1,0,0:0:0:0:
256,192,15648,1,8,0:0:0:0:
256,192,15982,1,8,0:0:0:0:
256,192,16148,1,8,0:0:0:0:
256,192,16315,1,0,0:0:0:0:
256,192,16648,1,12,0:0:0:0:
256,192,17315,1,0,0:0:0:0:
256,192,17482,1,0,0:0:0:0:
256,192,17648,1,8,0:0:0:0:
256,192,17982,1,0,0:0:0:0:
256,192,18315,1,8,0:0:0:0:
256,192,18648,1,12,0:0:0:0:
256,192,19204,1,0,0:0:0:0:
256,192,19315,1,8,0:0:0:0:
256,192,19426,1,8,0:0:0:0:
256,192,19537,1,0,0:0:0:0:
256,192,19648,1,8,0:0:0:0:
256,192,19871,1,0,0:0:0:0:
256,192,19982,1,8,0:0:0:0:
256,192,20093,1,0,0:0:0:0:
256,192,20204,1,0,0:0:0:0:
256,192,20315,1,8,0:0:0:0:
256,192,20537,1,0,0:0:0:0:
256,192,20648,1,8,0:0:0:0:
256,192,20982,1,8,0:0:0:0:
256,192,21148,1,0,0:0:0:0:
256,192,21315,1,8,0:0:0:0:
256,192,21482,1,8,0:0:0:0:
256,192,21565,1,8,0:0:0:0:
256,192,21648,1,0,0:0:0:0:
256,192,21982,1,8,0:0:0:0:
256,192,22148,1,0,0:0:0:0:
256,192,22315,1,8,0:0:0:0:
256,192,22648,1,4,0:0:0:0:
256,192,22982,1,0,0:0:0:0:
256,192,23148,1,8,0:0:0:0:
256,192,23482,1,0,0:0:0:0:
256,192,23648,1,0,0:0:0:0:
256,192,23982,1,8,0:0:0:0:
256,192,24148,1,0,0:0:0:0:
256,192,24315,1,8,0:0:0:0:
256,192,24482,1,0,0:0:0:0:
256,192,24648,1,0,0:0:0:0:
256,192,24982,1,0,0:0:0:0:
256,192,25148,1,8,0:0:0:0:
256,192,25482,1,0,0:0:0:0:
256,192,25648,1,8,0:0:0:0:
256,192,25815,1,0,0:0:0:0:
256,192,25982,1,8,0:0:0:0:
256,192,26065,1,8,0:0:0:0:
256,192,26148,1,0,0:0:0:0:
256,192,26232,1,0,0:0:0:0:
256,192,26315,1,8,0:0:0:0:
256,192,26482,1,8,0:0:0:0:
256,192,26648,1,0,0:0:0:0:
256,192,26982,1,0,0:0:0:0:
256,192,27148,1,8,0:0:0:0:
256,192,27315,1,0,0:0:0:0:
256,192,27648,1,8,0:0:0:0:
256,192,27815,1,0,0:0:0:0:
256,192,27982,1,8,0:0:0:0:
256,192,28148,1,0,0:0:0:0:
256,192,28315,1,8,0:0:0:0:
256,192,28482,1,0,0:0:0:0:
256,192,28648,1,8,0:0:0:0:
256,192,28815,1,0,0:0:0:0:
256,192,28898,1,0,0:0:0:0:
256,192,28982,1,8,0:0:0:0:
256,192,29148,1,8,0:0:0:0:
256,192,29315,1,0,0:0:0:0:
256,192,29482,1,8,0:0:0:0:
256,192,29648,1,8,0:0:0:0:
256,192,29732,1,8,0:0:0:0:
256,192,29815,1,0,0:0:0:0:
256,192,29982,1,8,0:0:0:0:
256,192,30065,1,8,0:0:0:0:
256,192,30148,1,8,0:0:0:0:
256,192,30232,1,0,0:0:0:0:
256,192,30315,1,0,0:0:0:0:
256,192,30482,1,0,0:0:0:0:
256,192,30648,1,12,0:0:0:0:
256,192,30815,1,0,0:0:0:0:
256,192,30898,1,0,0:0:0:0:
256,192,30982,1,0,0:0:0:0:
256,192,31148,1,8,0:0:0:0:
256,192,31482,1,0,0:0:0:0:
256,192,31648,1,8,0:0:0:0:
256,192,31815,1,0,0:0:0:0:
256,192,31982,1,8,0:0:0:0:
256,192,32065,1,0,0:0:0:0:
256,192,32148,1,8,0:0:0:0:
256,192,32315,1,0,0:0:0:0:
256,192,32648,1,8,0:0:0:0:
256,192,32815,1,0,0:0:0:0:
256,192,32898,1,0,0:0:0:0:
256,192,32982,1,0,0:0:0:0:
256,192,33148,1,8,0:0:0:0:
256,192,33315,1,0,0:0:0:0:
256,192,33482,1,0,0:0:0:0:
256,192,33648,1,8,0:0:0:0:
256,192,33815,1,8,0:0:0:0:
256,192,33982,1,0,0:0:0:0:
256,192,34065,1,0,0:0:0:0:
256,192,34148,1,8,0:0:0:0:
256,192,34315,1,8,0:0:0:0:
256,192,34648,1,0,0:0:0:0:
256,192,34982,1,8,0:0:0:0:
256,192,35148,1,0,0:0:0:0:
256,192,35232,1,0,0:0:0:0:
256,192,35315,1,8,0:0:0:0:
256,192,35482,1,0,0:0:0:0:
256,192,35648,1,8,0:0:0:0:
256,192,35815,1,0,0:0:0:0:
256,192,35982,1,0,0:0:0:0:
256,192,36315,1,0,0:0:0:0:
256,192,36648,1,8,0:0:0:0:
256,192,36815,1,0,0:0:0:0:
256,192,36898,1,0,0:0:0:0:
256,192,36982,1,0,0:0:0:0:
256,192,37148,1,8,0:0:0:0:
256,192,37315,1,0,0:0:0:0:
256,192,37482,1,0,0:0:0:0:
256,192,37648,1,8,0:0:0:0:
256,192,37815,1,8,0:0:0:0:
256,192,37898,1,0,0:0:0:0:
256,192,37982,1,8,0:0:0:0:
256,192,38148,1,0,0:0:0:0:
256,192,38232,1,0,0:0:0:0:
256,192,38315,1,8,0:0:0:0:
256,192,38482,1,8,0:0:0:0:
256,192,38565,1,8,0:0:0:0:
256,192,38648,1,0,0:0:0:0:
256,192,38982,1,0,0:0:0:0:
256,192,39148,1,8,0:0:0:0:
256,192,39482,1,0,0:0:0:0:
256,192,39648,1,8,0:0:0:0:
256,192,39815,1,0,0:0:0:0:
256,192,39982,1,8,0:0:0:0:
256,192,40148,1,8,0:0:0:0:
256,192,40315,1,8,0:0:0:0:
256,192,40398,1,8,0:0:0:0:
256,192,40482,1,0,0:0:0:0:
256,192,40648,1,8,0:0:0:0:
256,192,40982,1,0,0:0:0:0:
256,192,41148,1,8,0:0:0:0:
256,192,41482,1,0,0:0:0:0:
256,192,41648,1,8,0:0:0:0:
256,192,41815,1,8,0:0:0:0:
256,192,41982,1,0,0:0:0:0:
256,192,42065,1,0,0:0:0:0:
256,192,42148,1,8,0:0:0:0:
256,192,42315,1,8,0:0:0:0:
256,192,42482,1,0,0:0:0:0:
256,192,42648,1,0,0:0:0:0:
256,192,42982,1,0,0:0:0:0:
256,192,43148,1,8,0:0:0:0:
256,192,43315,1,8,0:0:0:0:
256,192,43482,1,0,0:0:0:0:
256,192,43648,1,8,0:0:0:0:
256,192,43815,1,0,0:0:0:0:
256,192,43982,1,8,0:0:0:0:
256,192,44065,1,0,0:0:0:0:
256,192,44148,1,8,0:0:0:0:
256,192,44315,1,8,0:0:0:0:
256,192,44482,1,0,0:0:0:0:
256,192,44648,1,8,0:0:0:0:
256,192,44815,1,8,0:0:0:0:
256,192,44982,1,0,0:0:0:0:
256,192,45148,1,8,0:0:0:0:
256,192,45482,1,0,0:0:0:0:
256,192,45648,1,8,0:0:0:0:
256,192,45815,1,8,0:0:0:0:
256,192,45898,1,8,0:0:0:0:
256,192,45982,1,0,0:0:0:0:
256,192,46148,1,8,0:0:0:0:
256,192,46315,1,0,0:0:0:0:
256,192,46648,1,8,0:0:0:0:
256,192,46815,1,8,0:0:0:0:
256,192,46898,1,0,0:0:0:0:
256,192,46982,1,0,0:0:0:0:
256,192,47148,1,8,0:0:0:0:
256,192,47482,1,0,0:0:0:0:
256,192,47648,1,8,0:0:0:0:
256,192,47815,1,8,0:0:0:0:
256,192,47982,1,0,0:0:0:0:
256,192,48315,1,0,0:0:0:0:
256,192,48482,1,0,0:0:0:0:
256,192,48648,1,8,0:0:0:0:
256,192,48815,1,8,0:0:0:0:
256,192,48898,1,0,0:0:0:0:
256,192,48982,1,0,0:0:0:0:
256,192,49148,1,8,0:0:0:0:
256,192,49482,1,0,0:0:0:0:
256,192,49648,1,8,0:0:0:0:
256,192,49815,1,8,0:0:0:0:
256,192,49982,1,0,0:0:0:0:
256,192,50065,1,0,0:0:0:0:
256,192,50148,1,8,0:0:0:0:
256,192,50315,1,8,0:0:0:0:
256,192,50482,1,0,0:0:0:0:
256,192,50648,1,8,0:0:0:0:
256,192,50815,1,8,0:0:0:0:
256,192,50898,1,0,0:0:0:0:
256,192,50982,1,0,0:0:0:0:
256,192,51148,1,8,0:0:0:0:
256,192,51482,1,0,0:0:0:0:
256,192,51648,1,8,0:0:0:0:
256,192,51815,1,8,0:0:0:0:
256,192,51982,1,0,0:0:0:0:
256,192,52148,1,8,0:0:0:0:
256,192,52315,1,0,0:0:0:0:
256,192,52482,1,8,0:0:0:0:
256,192,52648,1,0,0:0:0:0:
256,192,52815,1,0,0:0:0:0:
256,192,52898,1,0,0:0:0:0:
256,192,52982,1,8,0:0:0:0:
256,192,53148,1,0,0:0:0:0:
256,192,53482,1,0,0:0:0:0:
256,192,53648,1,8,0:0:0:0:
256,192,53815,1,8,0:0:0:0:
256,192,53982,1,0,0:0:0:0:
256,192,54315,1,0,0:0:0:0:
256,192,54482,1,0,0:0:0:0:
256,192,54648,1,8,0:0:0:0:
256,192,54815,1,8,0:0:0:0:
256,192,54898,1,0,0:0:0:0:
256,192,54982,1,0,0:0:0:0:
256,192,55148,1,8,0:0:0:0:
256,192,55482,1,0,0:0:0:0:
256,192,55648,1,8,0:0:0:0:
256,192,55815,1,8,0:0:0:0:
256,192,55982,1,0,0:0:0:0:
256,192,56315,1,8,0:0:0:0:
256,192,56482,1,0,0:0:0:0:
256,192,56648,1,8,0:0:0:0:
256,192,56815,1,8,0:0:0:0:
256,192,56898,1,0,0:0:0:0:
256,192,56982,1,0,0:0:0:0:
256,192,57148,1,8,0:0:0:0:
256,192,57482,1,0,0:0:0:0:
256,192,57648,1,8,0:0:0:0:
256,192,57815,1,8,0:0:0:0:
256,192,57982,1,0,0:0:0:0:
256,192,58065,1,0,0:0:0:0:
256,192,58148,1,8,0:0:0:0:
256,192,58315,1,8,0:0:0:0:
256,192,58482,1,0,0:0:0:0:
256,192,58648,1,8,0:0:0:0:
256,192,58815,1,8,0:0:0:0:
256,192,58898,1,8,0:0:0:0:
256,192,58982,1,0,0:0:0:0:
256,192,59148,1,8,0:0:0:0:
256,192,59482,1,0,0:0:0:0:
256,192,59648,1,8,0:0:0:0:
256,192,59815,1,8,0:0:0:0:
256,192,59982,1,0,0:0:0:0:
256,192,60148,1,0,0:0:0:0:
256,192,60482,1,0,0:0:0:0:
256,192,60648,1,12,0:0:0:0:
256,192,60815,1,8,0:0:0:0:
256,192,60898,1,0,0:0:0:0:
256,192,60982,1,0,0:0:0:0:
256,192,61148,1,12,0:0:0:0:
256,192,61482,1,0,0:0:0:0:
256,192,61648,1,12,0:0:0:0:
256,192,61815,1,8,0:0:0:0:
256,192,61898,1,0,0:0:0:0:
256,192,61982,1,8,0:0:0:0:
256,192,62148,1,0,0:0:0:0:
256,192,62315,1,8,0:0:0:0:
256,192,62482,1,0,0:0:0:0:
256,192,62648,1,8,0:0:0:0:
256,192,63648,1,4,0:0:0:0:
256,192,64315,1,0,0:0:0:0:
256,192,64482,1,0,0:0:0:0:
256,192,64648,1,12,0:0:0:0:
256,192,64815,1,0,0:0:0:0:
256,192,64898,1,0,0:0:0:0:
256,192,64982,1,0,0:0:0:0:
256,192,65148,1,8,0:0:0:0:
256,192,65315,1,0,0:0:0:0:
256,192,65482,1,8,0:0:0:0:
256,192,65648,1,0,0:0:0:0:
256,192,65815,1,0,0:0:0:0:
256,192,65982,1,8,0:0:0:0:
256,192,66148,1,8,0:0:0:0:
256,192,66315,1,0,0:0:0:0:
256,192,66648,1,8,0:0:0:0:
256,192,66815,1,0,0:0:0:0:
256,192,66898,1,0,0:0:0:0:
256,192,66982,1,0,0:0:0:0:
256,192,67148,1,8,0:0:0:0:
256,192,67315,1,0,0:0:0:0:
256,192,67482,1,8,0:0:0:0:
256,192,67648,1,0,0:0:0:0:
256,192,67982,1,8,0:0:0:0:
256,192,68148,1,8,0:0:0:0:
256,192,68315,1,8,0:0:0:0:
256,192,68482,1,0,0:0:0:0:
256,192,68648,1,12,0:0:0:0:
256,192,68815,1,0,0:0:0:0:
256,192,68898,1,0,0:0:0:0:
256,192,68982,1,0,0:0:0:0:
256,192,69148,1,8,0:0:0:0:
256,192,69315,1,0,0:0:0:0:
256,192,69482,1,8,0:0:0:0:
256,192,69648,1,0,0:0:0:0:
256,192,69982,1,8,0:0:0:0:
256,192,70148,1,8,0:0:0:0:
256,192,70315,1,0,0:0:0:0:
256,192,70482,1,0,0:0:0:0:
256,192,70648,1,8,0:0:0:0:
256,192,70815,1,0,0:0:0:0:
256,192,70898,1,0,0:0:0:0:
256,192,70982,1,8,0:0:0:0:
256,192,71148,1,0,0:0:0:0:
256,192,71315,1,0,0:0:0:0:
256,192,71482,1,8,0:0:0:0:
256,192,71648,1,0,0:0:0:0:
256,192,71982,1,0,0:0:0:0:
256,192,72148,1,0,0:0:0:0:
256,192,72232,1,0,0:0:0:0:
256,192,72315,1,8,0:0:0:0:
256,192,72482,1,0,0:0:0:0:
256,192,72648,1,4,0:0:0:0:
256,192,72982,1,0,0:0:0:0:
256,192,73148,1,8,0:0:0:0:
256,192,73315,1,0,0:0:0:0:
256,192,73482,1,8,0:0:0:0:
256,192,73648,1,0,0:0:0:0:
256,192,73815,1,0,0:0:0:0:
256,192,73982,1,8,0:0:0:0:
256,192,74315,1,8,0:0:0:0:
256,192,74648,1,8,0:0:0:0:
256,192,74815,1,0,0:0:0:0:
256,192,74898,1,0,0:0:0:0:
256,192,74982,1,0,0:0:0:0:
256,192,75148,1,8,0:0:0:0:
256,192,75315,1,0,0:0:0:0:
256,192,75482,1,8,0:0:0:0:
256,192,75648,1,8,0:0:0:0:
256,192,75982,1,8,0:0:0:0:
256,192,76148,1,0,0:0:0:0:
256,192,76315,1,8,0:0:0:0:
256,192,76482,1,0,0:0:0:0:
256,192,76565,1,0,0:0:0:0:
256,192,76648,1,8,0:0:0:0:
256,192,76815,1,0,0:0:0:0:
256,192,76982,1,8,0:0:0:0:
256,192,77148,1,0,0:0:0:0:
256,192,77482,1,0,0:0:0:0:
256,192,77648,1,8,0:0:0:0:
256,192,77815,1,8,0:0:0:0:
256,192,77898,1,8,0:0:0:0:
256,192,77982,1,0,0:0:0:0:
256,192,78148,1,0,0:0:0:0:
256,192,78315,1,8,0:0:0:0:
256,192,78482,1,0,0:0:0:0:
256,192,78648,1,12,0:0:0:0:
256,192,78982,1,8,0:0:0:0:
256,192,79148,1,4,0:0:0:0:
256,192,79482,1,8,0:0:0:0:
256,192,79648,1,0,0:0:0:0:
256,192,79732,1,0,0:0:0:0:
256,192,79815,1,8,0:0:0:0:
256,192,79982,1,0,0:0:0:0:
256,192,80065,1,0,0:0:0:0:
256,192,80148,1,0,0:0:0:0:
256,192,80315,1,8,0:0:0:0:
256,192,80482,1,8,0:0:0:0:
256,192,80648,1,8,0:0:0:0:
256,192,80732,1,8,0:0:0:0:
256,192,80815,1,0,0:0:0:0:
256,192,80898,1,0,0:0:0:0:
256,192,80982,1,8,0:0:0:0:
256,192,81148,1,0,0:0:0:0:
256,192,81232,1,0,0:0:0:0:
256,192,81315,1,8,0:0:0:0:
256,192,81398,1,8,0:0:0:0:
256,192,81482,1,0,0:0:0:0:
256,192,81565,1,0,0:0:0:0:
256,192,81648,1,8,0:0:0:0:
256,192,81815,1,0,0:0:0:0:
256,192,81982,1,8,0:0:0:0:
256,192,82065,1,8,0:0:0:0:
256,192,82148,1,0,0:0:0:0:
256,192,82315,1,8,0:0:0:0:
256,192,82648,1,8,0:0:0:0:
256,192,82815,1,0,0:0:0:0:
256,192,82898,1,0,0:0:0:0:
256,192,82982,1,8,0:0:0:0:
256,192,83148,1,0,0:0:0:0:
256,192,83232,1,0,0:0:0:0:
256,192,83315,1,8,0:0:0:0:
256,192,83398,1,8,0:0:0:0:
256,192,83482,1,0,0:0:0:0:
256,192,83648,1,8,0:0:0:0:
256,192,83732,1,0,0:0:0:0:
256,192,83815,1,8,0:0:0:0:
256,192,83898,1,0,0:0:0:0:
256,192,83982,1,8,0:0:0:0:
256,192,84148,1,0,0:0:0:0:
256,192,84315,1,8,0:0:0:0:
256,192,84482,1,0,0:0:0:0:
256,192,84648,1,8,0:0:0:0:
256,192,84732,1,8,0:0:0:0:
256,192,84815,1,0,0:0:0:0:
256,192,84898,1,0,0:0:0:0:
256,192,84982,1,8,0:0:0:0:
256,192,85148,1,0,0:0:0:0:
256,192,85232,1,0,0:0:0:0:
256,192,85315,1,8,0:0:0:0:
256,192,85398,1,8,0:0:0:0:
256,192,85482,1,0,0:0:0:0:
256,192,85565,1,0,0:0:0:0:
256,192,85648,1,8,0:0:0:0:
256,192,85815,1,0,0:0:0:0:
256,192,85982,1,8,0:0:0:0:
256,192,86065,1,0,0:0:0:0:
256,192,86148,1,0,0:0:0:0:
256,192,86315,1,8,0:0:0:0:
256,192,86482,1,0,0:0:0:0:
256,192,86648,1,8,0:0:0:0:
256,192,86815,1,0,0:0:0:0:
256,192,86898,1,0,0:0:0:0:
256,192,86982,1,8,0:0:0:0:
256,192,87148,1,0,0:0:0:0:
256,192,87315,1,8,0:0:0:0:
256,192,87482,1,8,0:0:0:0:
256,192,87648,1,0,0:0:0:0:
256,192,87732,1,0,0:0:0:0:
256,192,87815,1,8,0:0:0:0:
256,192,87898,1,0,0:0:0:0:
256,192,87982,1,8,0:0:0:0:
256,192,88148,1,0,0:0:0:0:
256,192,88315,1,8,0:0:0:0:
256,192,88482,1,0,0:0:0:0:
256,192,88565,1,0,0:0:0:0:
256,192,88648,1,8,0:0:0:0:
256,192,88982,1,8,0:0:0:0:
256,192,89148,1,0,0:0:0:0:
256,192,89232,1,0,0:0:0:0:
256,192,89315,1,8,0:0:0:0:
256,192,89482,1,0,0:0:0:0:
256,192,89648,1,8,0:0:0:0:
256,192,89815,1,0,0:0:0:0:
256,192,89982,1,8,0:0:0:0:
256,192,90148,1,8,0:0:0:0:
256,192,90315,1,0,0:0:0:0:
256,192,90398,1,8,0:0:0:0:
256,192,90482,1,0,0:0:0:0:
256,192,90648,1,8,0:0:0:0:
256,192,90982,1,8,0:0:0:0:
256,192,91148,1,0,0:0:0:0:
256,192,91232,1,0,0:0:0:0:
256,192,91315,1,8,0:0:0:0:
256,192,91482,1,8,0:0:0:0:
256,192,91648,1,4,0:0:0:0:
256,192,91982,1,4,0:0:0:0:
256,192,92315,1,4,0:0:0:0:
256,192,92648,1,12,0:0:0:0:
256,192,92815,1,0,0:0:0:0:
256,192,92898,1,0,0:0:0:0:
256,192,92982,1,8,0:0:0:0:
256,192,93148,1,0,0:0:0:0:
256,192,93315,1,8,0:0:0:0:
256,192,93398,1,0,0:0:0:0:
256,192,93482,1,8,0:0:0:0:
256,192,93565,1,0,0:0:0:0:
256,192,93648,1,8,0:0:0:0:
256,192,93815,1,0,0:0:0:0:
256,192,93982,1,8,0:0:0:0:
256,192,94148,1,8,0:0:0:0:
256,192,94315,1,0,0:0:0:0:
256,192,94482,1,0,0:0:0:0:
256,192,94648,1,8,0:0:0:0:
256,192,94815,1,8,0:0:0:0:
256,192,94899,1,8,0:0:0:0:
256,192,94982,1,0,0:0:0:0:
256,192,95148,1,8,0:0:0:0:
256,192,95315,1,0,0:0:0:0:
256,192,95482,1,8,0:0:0:0:
256,192,95648,1,8,0:0:0:0:
256,192,95732,1,0,0:0:0:0:
256,192,95815,1,0,0:0:0:0:
256,192,95982,1,8,0:0:0:0:
256,192,96148,1,0,0:0:0:0:
256,192,96232,1,0,0:0:0:0:
256,192,96315,1,8,0:0:0:0:
256,192,96482,1,0,0:0:0:0:
256,192,96648,1,8,0:0:0:0:
256,192,96815,1,0,0:0:0:0:
256,192,96898,1,0,0:0:0:0:
256,192,96982,1,8,0:0:0:0:
256,192,97148,1,0,0:0:0:0:
256,192,97315,1,8,0:0:0:0:
256,192,97398,1,8,0:0:0:0:
256,192,97482,1,0,0:0:0:0:
256,192,97565,1,0,0:0:0:0:
256,192,97648,1,8,0:0:0:0:
256,192,97815,1,0,0:0:0:0:
256,192,97982,1,8,0:0:0:0:
256,192,98315,1,0,0:0:0:0:
256,192,98648,1,12,0:0:0:0:
256,192,98815,1,0,0:0:0:0:
256,192,98898,1,0,0:0:0:0:
256,192,98982,1,0,0:0:0:0:
256,192,99148,1,8,0:0:0:0:
256,192,99315,1,0,0:0:0:0:
256,192,99398,1,0,0:0:0:0:
256,192,99482,1,8,0:0:0:0:
256,192,99648,1,8,0:0:0:0:
256,192,99815,1,0,0:0:0:0:
256,192,99982,1,8,0:0:0:0:
256,192,100148,1,0,0:0:0:0:
256,192,100315,1,8,0:0:0:0:
256,192,100482,1,0,0:0:0:0:
256,192,100648,1,12,0:0:0:0:
256,192,100815,1,0,0:0:0:0:
256,192,100898,1,0,0:0:0:0:
256,192,100982,1,8,0:0:0:0:
256,192,101148,1,0,0:0:0:0:
256,192,101315,1,8,0:0:0:0:
256,192,101398,1,8,0:0:0:0:
256,192,101482,1,0,0:0:0:0:
256,192,101565,1,0,0:0:0:0:
256,192,101648,1,8,0:0:0:0:
256,192,101815,1,0,0:0:0:0:
256,192,101982,1,8,0:0:0:0:
256,192,102315,1,8,0:0:0:0:
256,192,102648,1,12,0:0:0:0:
256,192,102815,1,0,0:0:0:0:
256,192,102898,1,8,0:0:0:0:
256,192,102982,1,0,0:0:0:0:
256,192,103148,1,8,0:0:0:0:
256,192,103232,1,0,0:0:0:0:
256,192,103315,1,8,0:0:0:0:
256,192,103482,1,8,0:0:0:0:
256,192,103648,1,0,0:0:0:0:
256,192,103732,1,0,0:0:0:0:
256,192,103815,1,8,0:0:0:0:
256,192,103982,1,8,0:0:0:0:
256,192,104148,1,0,0:0:0:0:
256,192,104315,1,8,0:0:0:0:
256,192,104482,1,0,0:0:0:0:
256,192,104648,1,12,0:0:0:0:
256,192,104815,1,0,0:0:0:0:
256,192,104898,1,0,0:0:0:0:
256,192,104982,1,8,0:0:0:0:
256,192,105148,1,0,0:0:0:0:
256,192,105315,1,8,0:0:0:0:
256,192,105398,1,8,0:0:0:0:
256,192,105482,1,0,0:0:0:0:
256,192,105565,1,0,0:0:0:0:
256,192,105648,1,8,0:0:0:0:
256,192,105815,1,0,0:0:0:0:
256,192,105982,1,8,0:0:0:0:
256,192,106315,1,0,0:0:0:0:
256,192,106648,1,12,0:0:0:0:
256,192,106815,1,0,0:0:0:0:
256,192,106898,1,0,0:0:0:0:
256,192,106982,1,0,0:0:0:0:
256,192,107148,1,8,0:0:0:0:
256,192,107315,1,0,0:0:0:0:
256,192,107398,1,0,0:0:0:0:
256,192,107482,1,8,0:0:0:0:
256,192,107648,1,8,0:0:0:0:
256,192,107815,1,0,0:0:0:0:
256,192,107982,1,8,0:0:0:0:
256,192,108148,1,0,0:0:0:0:
256,192,108315,1,8,0:0:0:0:
256,192,108482,1,0,0:0:0:0:
256,192,108648,1,12,0:0:0:0:
256,192,108815,1,0,0:0:0:0:
256,192,108898,1,0,0:0:0:0:
256,192,108982,1,8,0:0:0:0:
256,192,109148,1,0,0:0:0:0:
256,192,109315,1,8,0:0:0:0:
256,192,109398,1,8,0:0:0:0:
256,192,109482,1,0,0:0:0:0:
256,192,109565,1,0,0:0:0:0:
256,192,109648,1,8,0:0:0:0:
256,192,109815,1,0,0:0:0:0:
256,192,109982,1,8,0:0:0:0:
256,192,110315,1,8,0:0:0:0:
256,192,110648,1,12,0:0:0:0:
256,192,110815,1,0,0:0:0:0:
256,192,110898,1,8,0:0:0:0:
256,192,110982,1,0,0:0:0:0:
256,192,111148,1,8,0:0:0:0:
256,192,111232,1,0,0:0:0:0:
256,192,111315,1,8,0:0:0:0:
256,192,111482,1,8,0:0:0:0:
256,192,111648,1,0,0:0:0:0:
256,192,111732,1,0,0:0:0:0:
256,192,111815,1,8,0:0:0:0:
256,192,111982,1,8,0:0:0:0:
256,192,112148,1,8,0:0:0:0:
256,192,112315,1,0,0:0:0:0:
256,192,112482,1,0,0:0:0:0:
256,192,112648,1,12,0:0:0:0:
256,192,112982,1,8,0:0:0:0:
256,192,113148,1,0,0:0:0:0:
256,192,113232,1,0,0:0:0:0:
256,192,113315,1,8,0:0:0:0:
256,192,113482,1,0,0:0:0:0:
256,192,113648,1,8,0:0:0:0:
256,192,113760,1,0,0:0:0:0:
256,192,113871,1,0,0:0:0:0:
256,192,113982,1,8,0:0:0:0:
256,192,114148,1,0,0:0:0:0:
256,192,114315,1,8,0:0:0:0:
256,192,114426,1,8,0:0:0:0:
256,192,114537,1,8,0:0:0:0:
256,192,114648,1,0,0:0:0:0:
256,192,114982,1,0,0:0:0:0:
256,192,115315,1,0,0:0:0:0:
256,192,115426,1,0,0:0:0:0:
256,192,115537,1,0,0:0:0:0:
256,192,115648,1,0,0:0:0:0:
