osu file format v14

[General]
AudioFilename: audio.mp3
AudioLeadIn: 0
PreviewTime: 78075
Countdown: 0
SampleSet: Soft
StackLeniency: 0.7
Mode: 3
LetterboxInBreaks: 0
SpecialStyle: 1
WidescreenStoryboard: 0

[Editor]
Bookmarks: 23971,35070,46168,57266,68364
DistanceSpacing: 1.2
BeatDivisor: 4
GridSize: 32
TimelineZoom: 2.3

[Metadata]
Title:Vajra
TitleUnicode:伐折羅-vajra-
Artist:DJ TOTTO VS TOTTO
ArtistUnicode:DJ TOTTO VS 兎々
Creator:biemote
Version:Emiria's 8K Leggendaria
Source:REFLEC BEAT groovin'!! Upper
Tags:victorica_db [emiria]
BeatmapID:933883
BeatmapSetID:432015

[Difficulty]
HPDrainRate:9
CircleSize:8
OverallDifficulty:8
ApproachRate:5
SliderMultiplier:1.4
SliderTickRate:1

[Events]
//Background and Video events
0,0,"BG.jpg",0,0
//Break Periods
//Storyboard Layer 0 (Background)
//Storyboard Layer 1 (Fail)
//Storyboard Layer 2 (Pass)
//Storyboard Layer 3 (Foreground)
//Storyboard Sound Samples

[TimingPoints]
388,346.820809248555,4,2,1,30,1,0
79463,-100,4,2,1,30,0,1
89694,-100,4,2,1,30,0,0
90561,-100,4,2,1,30,0,1
112757,-100,4,2,1,30,0,0

[HitObjects]
32,192,388,5,0,0:0:0:70:crash.wav
96,192,388,1,0,0:0:0:70:kick.wav
224,192,388,1,0,0:0:0:0:
480,192,388,1,0,0:0:0:0:
96,192,734,1,0,0:0:0:70:kick.wav
224,192,1775,1,0,0:0:0:70:kick.wav
96,192,2122,1,0,0:0:0:70:kick.wav
224,192,3162,1,0,0:0:0:70:kick.wav
32,192,3162,1,0,0:0:0:70:crash.wav
96,192,3509,1,0,0:0:0:70:kick.wav
224,192,4549,1,0,0:0:0:70:kick.wav
96,192,4896,1,0,0:0:0:70:kick.wav
224,192,5937,1,0,0:0:0:70:kick.wav
32,192,5937,1,0,0:0:0:70:crash.wav
96,192,6283,1,0,0:0:0:70:kick.wav
224,192,7324,1,0,0:0:0:70:kick.wav
96,192,7671,1,0,0:0:0:70:kick.wav
224,192,8711,1,0,0:0:0:70:kick.wav
32,192,8711,1,0,0:0:0:70:crash.wav
96,192,9058,1,0,0:0:0:70:kick.wav
224,192,10098,1,0,0:0:0:70:kick.wav
96,192,10445,1,0,0:0:0:70:kick.wav
32,192,10792,1,0,0:0:0:0:
96,192,11486,1,0,0:0:0:70:kick.wav
352,192,11486,1,0,0:0:0:0:
96,192,11833,1,0,0:0:0:70:kick.wav
224,192,11833,1,0,0:0:0:0:
224,192,12179,1,0,0:0:0:0:
352,192,12266,1,0,0:0:0:0:
160,192,12353,1,0,0:0:0:0:
416,192,12440,1,0,0:0:0:0:
288,192,12526,1,0,0:0:0:0:
160,192,12613,1,0,0:0:0:0:
352,192,12700,1,0,0:0:0:0:
224,192,12786,1,0,0:0:0:0:
96,192,12873,1,0,0:0:0:70:kick.wav
352,192,12873,1,0,0:0:0:0:
480,192,12873,1,0,0:0:0:0:
224,192,13220,1,0,0:0:0:0:
96,192,13220,1,0,0:0:0:70:kick.wav
416,192,13567,1,0,0:0:0:0:
160,192,13653,1,0,0:0:0:0:
352,192,13740,1,0,0:0:0:0:
96,192,13827,1,0,0:0:0:0:
288,192,13914,1,0,0:0:0:0:
160,192,14000,1,0,0:0:0:0:
416,192,14087,1,0,0:0:0:0:
288,192,14174,1,0,0:0:0:0:
32,192,14260,1,0,0:0:0:70:crash.wav
160,192,14260,1,0,0:0:0:70:kick.wav
352,192,14260,1,0,0:0:0:0:
480,192,14260,1,0,0:0:0:0:
96,192,14607,1,0,0:0:0:70:kick.wav
224,192,14607,1,0,0:0:0:0:
288,192,14954,1,0,0:0:0:0:
416,192,15041,1,0,0:0:0:0:
160,192,15127,1,0,0:0:0:0:
288,192,15214,1,0,0:0:0:0:
416,192,15301,1,0,0:0:0:0:
352,192,15388,1,0,0:0:0:0:
224,192,15474,1,0,0:0:0:0:
96,192,15561,1,0,0:0:0:0:
224,192,15648,1,0,0:0:0:70:kick.wav
352,192,15648,1,0,0:0:0:0:
480,192,15648,1,0,0:0:0:0:
224,192,15994,1,0,0:0:0:70:kick.wav
96,192,15994,1,0,0:0:0:0:
160,192,16341,1,0,0:0:0:0:
352,192,16428,1,0,0:0:0:0:
224,192,16515,1,0,0:0:0:0:
416,192,16601,1,0,0:0:0:0:
288,192,16688,1,0,0:0:0:0:
160,192,16775,1,0,0:0:0:0:
480,192,16861,1,0,0:0:0:0:
352,192,16948,1,0,0:0:0:0:
224,192,17035,1,0,0:0:0:0:
32,192,17035,1,0,0:0:0:70:crash.wav
96,192,17035,1,0,0:0:0:70:kick.wav
480,192,17035,1,0,0:0:0:0:
96,192,17382,1,0,0:0:0:70:kick.wav
224,192,17382,1,0,0:0:0:0:
224,192,17729,1,0,0:0:0:0:
416,192,17815,1,0,0:0:0:0:
160,192,17902,1,0,0:0:0:0:
352,192,17989,1,0,0:0:0:0:
224,192,18075,1,0,0:0:0:0:
416,192,18162,1,0,0:0:0:0:
288,192,18249,1,0,0:0:0:0:
160,192,18335,1,0,0:0:0:0:
32,192,18422,1,0,0:0:0:70:crash.wav
96,192,18422,1,0,0:0:0:70:kick.wav
352,192,18422,1,0,0:0:0:0:
480,192,18422,1,0,0:0:0:0:
224,192,18769,1,0,0:0:0:0:
96,192,18769,1,0,0:0:0:70:kick.wav
288,192,19116,1,0,0:0:0:0:
416,192,19203,1,0,0:0:0:0:
160,192,19289,1,0,0:0:0:0:
352,192,19376,1,0,0:0:0:0:
224,192,19463,1,0,0:0:0:0:
416,192,19549,1,0,0:0:0:0:
480,192,19636,1,0,0:0:0:0:
224,192,19636,1,0,0:0:0:0:
416,192,19723,1,0,0:0:0:0:
160,192,19723,1,0,0:0:0:0:
32,192,19809,1,0,0:0:0:70:crash.wav
352,192,19809,1,0,0:0:0:0:
96,192,19809,1,0,0:0:0:70:kick.wav
480,192,19809,1,0,0:0:0:0:
32,192,19983,1,0,0:0:0:70:crash.wav
160,192,19983,1,0,0:0:0:70:kick.wav
288,192,19983,1,0,0:0:0:0:
416,192,19983,1,0,0:0:0:0:
352,192,20330,1,0,0:0:0:0:
224,192,20330,1,0,0:0:0:70:kick.wav
32,192,20330,1,0,0:0:0:70:crash.wav
480,192,20330,1,0,0:0:0:0:
32,192,20503,1,0,0:0:0:70:crash.wav
160,192,20503,1,0,0:0:0:70:kick.wav
288,192,20503,1,0,0:0:0:0:
416,192,20503,1,0,0:0:0:0:
224,192,20590,1,0,0:0:0:0:
352,192,20677,1,0,0:0:0:0:
160,192,20763,1,0,0:0:0:0:
32,192,20850,1,0,0:0:0:70:crash.wav
288,192,20850,1,0,0:0:0:0:
480,192,20850,1,0,0:0:0:70:kick.wav
96,192,20850,1,0,0:0:0:0:
224,192,20937,1,0,0:0:0:0:
32,192,21023,1,0,0:0:0:70:crash.wav
352,192,21023,1,0,0:0:0:0:
160,192,21023,1,0,0:0:0:0:
480,192,21023,1,0,0:0:0:70:kick.wav
96,192,21110,1,0,0:0:0:0:
32,192,21370,1,0,0:0:0:70:crash.wav
96,192,21370,1,0,0:0:0:0:
224,192,21370,1,0,0:0:0:0:
416,192,21370,1,0,0:0:0:70:kick.wav
32,192,21544,1,0,0:0:0:70:crash.wav
96,192,21544,1,0,0:0:0:0:
224,192,21544,1,0,0:0:0:0:
416,192,21544,1,0,0:0:0:70:kick.wav
224,192,21717,1,0,0:0:0:70:kick.wav
288,192,21760,1,0,0:0:0:70:kick.wav
352,192,21804,1,0,0:0:0:70:kick.wav
416,192,21847,1,0,0:0:0:70:kick.wav
32,192,21890,1,0,0:0:0:70:crash.wav
96,192,21890,1,0,0:0:0:0:
224,192,21890,1,0,0:0:0:0:
480,192,21890,1,0,0:0:0:70:kick.wav
288,192,21890,1,0,0:0:0:0:
160,192,21977,1,0,0:0:0:0:
352,192,22064,1,0,0:0:0:0:
480,192,22064,1,0,0:0:0:70:kick.wav
224,192,22151,1,0,0:0:0:0:
32,192,22237,1,0,0:0:0:70:crash.wav
96,192,22237,1,0,0:0:0:0:
288,192,22237,1,0,0:0:0:0:
480,192,22237,1,0,0:0:0:70:kick.wav
352,192,22324,1,0,0:0:0:0:
224,192,22411,1,0,0:0:0:0:
416,192,22411,1,0,0:0:0:70:kick.wav
160,192,22497,1,0,0:0:0:0:
32,192,22584,1,0,0:0:0:70:crash.wav
96,192,22584,1,0,0:0:0:70:kick.wav
288,192,22584,1,0,0:0:0:0:
480,192,22584,1,0,0:0:0:0:
480,192,22931,1,0,0:0:0:0:
224,192,23104,1,0,0:0:0:0:
96,192,23278,1,0,0:0:0:0:
480,192,23278,1,0,0:0:0:0:
160,192,23364,1,0,0:0:0:0:
224,192,23451,1,0,0:0:0:0:
416,192,23451,1,0,0:0:0:0:
288,192,23538,1,0,0:0:0:0:
224,192,23624,1,0,0:0:0:0:
480,192,23624,1,0,0:0:0:0:
288,192,23711,1,0,0:0:0:0:
352,192,23798,1,0,0:0:0:0:
160,192,23798,1,0,0:0:0:0:
416,192,23885,1,0,0:0:0:0:
480,192,23971,1,0,0:0:0:0:
96,192,23971,1,0,0:0:0:70:kick.wav
224,192,23971,1,0,0:0:0:0:
32,192,23971,1,0,0:0:0:70:crash.wav
288,192,24087,1,0,0:0:0:0:
160,192,24145,1,0,0:0:0:70:hihat.wav
224,192,24145,1,0,0:0:0:0:
416,192,24231,1,0,0:0:0:0:
96,192,24318,1,0,0:0:0:70:kick.wav
224,192,24318,1,0,0:0:0:0:
480,192,24318,1,0,0:0:0:0:
160,192,24492,1,0,0:0:0:70:hihat.wav
416,192,24492,1,0,0:0:0:0:
352,192,24578,1,0,0:0:0:0:
96,192,24665,1,0,0:0:0:70:kick.wav
224,192,24665,1,0,0:0:0:0:
480,192,24665,1,0,0:0:0:0:
416,192,24752,1,0,0:0:0:0:
160,192,24752,1,0,0:0:0:0:
96,192,24838,1,0,0:0:0:0:
352,192,24838,1,0,0:0:0:70:hihat.wav
160,192,24925,1,0,0:0:0:0:
416,192,24925,1,0,0:0:0:0:
480,192,25012,1,0,0:0:0:0:
224,192,25012,1,0,0:0:0:70:kick.wav
416,192,25098,1,0,0:0:0:0:
352,192,25185,1,0,0:0:0:0:
160,192,25185,1,0,0:0:0:70:hihat.wav
224,192,25272,1,0,0:0:0:0:
416,192,25272,1,0,0:0:0:0:
96,192,25359,1,0,0:0:0:70:kick.wav
480,192,25359,1,0,0:0:0:0:
288,192,25359,1,0,0:0:0:0:
32,192,25359,1,0,0:0:0:70:crash.wav
416,192,25474,1,0,0:0:0:0:
352,192,25532,1,0,0:0:0:0:
224,192,25532,1,0,0:0:0:70:hihat.wav
160,192,25619,1,0,0:0:0:0:
96,192,25705,1,0,0:0:0:70:kick.wav
480,192,25705,1,0,0:0:0:0:
352,192,25705,1,0,0:0:0:0:
224,192,25879,1,0,0:0:0:70:hihat.wav
416,192,25879,1,0,0:0:0:0:
96,192,26052,1,0,0:0:0:70:kick.wav
352,192,26052,1,0,0:0:0:0:
480,192,26052,1,0,0:0:0:0:
416,192,26139,1,0,0:0:0:0:
288,192,26139,1,0,0:0:0:0:
160,192,26226,1,0,0:0:0:70:hihat.wav
352,192,26226,1,0,0:0:0:0:
224,192,26312,1,0,0:0:0:0:
416,192,26312,1,0,0:0:0:0:
288,192,26399,1,0,0:0:0:0:
480,192,26399,1,0,0:0:0:0:
96,192,26399,1,0,0:0:0:70:kick.wav
224,192,26486,1,0,0:0:0:0:
416,192,26486,1,0,0:0:0:0:
352,192,26572,1,0,0:0:0:0:
160,192,26572,1,0,0:0:0:70:hihat.wav
224,192,26659,1,0,0:0:0:0:
416,192,26659,1,0,0:0:0:0:
480,192,26746,1,0,0:0:0:0:
288,192,26746,1,0,0:0:0:0:
96,192,26746,1,0,0:0:0:70:kick.wav
32,192,26746,1,0,0:0:0:70:crash.wav
160,192,26861,1,0,0:0:0:0:
288,192,26919,1,0,0:0:0:70:hihat.wav
416,192,26919,1,0,0:0:0:0:
224,192,27006,1,0,0:0:0:0:
160,192,27093,1,0,0:0:0:0:
96,192,27093,1,0,0:0:0:70:kick.wav
480,192,27093,1,0,0:0:0:0:
224,192,27266,1,0,0:0:0:0:
416,192,27266,1,0,0:0:0:70:hihat.wav
288,192,27353,1,0,0:0:0:0:
96,192,27440,1,0,0:0:0:70:kick.wav
224,192,27440,1,0,0:0:0:0:
480,192,27440,1,0,0:0:0:0:
288,192,27526,1,0,0:0:0:0:
416,192,27526,1,0,0:0:0:0:
224,192,27613,1,0,0:0:0:70:hihat.wav
96,192,27613,1,0,0:0:0:0:
352,192,27700,1,0,0:0:0:0:
480,192,27700,1,0,0:0:0:0:
160,192,27786,1,0,0:0:0:70:kick.wav
416,192,27786,1,0,0:0:0:0:
224,192,27873,1,0,0:0:0:0:
288,192,27960,1,0,0:0:0:70:hihat.wav
480,192,27960,1,0,0:0:0:0:
224,192,28046,1,0,0:0:0:0:
96,192,28133,1,0,0:0:0:70:kick.wav
288,192,28133,1,0,0:0:0:0:
416,192,28133,1,0,0:0:0:0:
32,192,28133,1,0,0:0:0:70:crash.wav
288,192,28249,1,0,0:0:0:0:
416,192,28249,1,0,0:0:0:0:
160,192,28307,1,0,0:0:0:70:hihat.wav
352,192,28307,1,0,0:0:0:0:
96,192,28480,1,0,0:0:0:70:kick.wav
224,192,28480,1,0,0:0:0:0:
480,192,28480,1,0,0:0:0:0:
160,192,28567,1,0,0:0:0:0:
288,192,28567,1,0,0:0:0:0:
224,192,28653,1,0,0:0:0:70:hihat.wav
352,192,28653,1,0,0:0:0:0:
288,192,28740,1,0,0:0:0:0:
416,192,28740,1,0,0:0:0:0:
352,192,28827,1,0,0:0:0:0:
480,192,28827,1,0,0:0:0:0:
96,192,28827,1,0,0:0:0:70:kick.wav
224,192,28827,1,0,0:0:0:0:
32,192,28827,1,0,0:0:0:0:
288,192,28914,1,0,0:0:0:0:
416,192,28914,1,0,0:0:0:0:
160,192,29000,1,0,0:0:0:70:kick.wav
352,192,29000,1,0,0:0:0:70:hihat.wav
480,192,29000,1,0,0:0:0:0:
96,192,29174,1,0,0:0:0:70:kick.wav
224,192,29174,1,0,0:0:0:0:
352,192,29174,1,0,0:0:0:0:
160,192,29347,1,0,0:0:0:70:kick.wav
288,192,29347,1,0,0:0:0:70:hihat.wav
416,192,29347,1,0,0:0:0:0:
32,192,29520,1,0,0:0:0:70:crash.wav
96,192,29520,1,0,0:0:0:70:kick.wav
480,192,29520,1,0,0:0:0:0:
352,192,29520,1,0,0:0:0:0:
288,192,29636,1,0,0:0:0:0:
160,192,29636,1,0,0:0:0:0:
416,192,29694,1,0,0:0:0:70:hihat.wav
96,192,29694,1,0,0:0:0:0:
288,192,29781,1,0,0:0:0:0:
160,192,29781,1,0,0:0:0:0:
96,192,29867,1,0,0:0:0:70:kick.wav
224,192,29867,1,0,0:0:0:0:
416,192,29867,1,0,0:0:0:0:
160,192,30041,1,0,0:0:0:0:
352,192,30041,1,0,0:0:0:70:hihat.wav
224,192,30127,1,0,0:0:0:0:
96,192,30214,1,0,0:0:0:70:kick.wav
288,192,30214,1,0,0:0:0:0:
480,192,30214,1,0,0:0:0:0:
224,192,30301,1,0,0:0:0:0:
352,192,30301,1,0,0:0:0:0:
160,192,30388,1,0,0:0:0:0:
416,192,30388,1,0,0:0:0:70:hihat.wav
352,192,30474,1,0,0:0:0:0:
224,192,30474,1,0,0:0:0:0:
96,192,30561,1,0,0:0:0:70:kick.wav
480,192,30561,1,0,0:0:0:0:
288,192,30561,1,0,0:0:0:0:
160,192,30648,1,0,0:0:0:0:
416,192,30648,1,0,0:0:0:0:
224,192,30734,1,0,0:0:0:70:hihat.wav
480,192,30734,1,0,0:0:0:0:
160,192,30821,1,0,0:0:0:0:
416,192,30821,1,0,0:0:0:0:
96,192,30908,1,0,0:0:0:70:kick.wav
288,192,30908,1,0,0:0:0:0:
480,192,30908,1,0,0:0:0:0:
32,192,30908,1,0,0:0:0:70:crash.wav
160,192,31023,1,0,0:0:0:0:
352,192,31023,1,0,0:0:0:0:
416,192,31081,1,0,0:0:0:70:hihat.wav
96,192,31081,1,0,0:0:0:0:
352,192,31168,1,0,0:0:0:0:
160,192,31168,1,0,0:0:0:0:
96,192,31255,1,0,0:0:0:70:kick.wav
288,192,31255,1,0,0:0:0:0:
480,192,31255,1,0,0:0:0:0:
160,192,31428,1,0,0:0:0:0:
352,192,31428,1,0,0:0:0:70:hihat.wav
288,192,31515,1,0,0:0:0:0:
96,192,31601,1,0,0:0:0:70:kick.wav
224,192,31601,1,0,0:0:0:0:
480,192,31601,1,0,0:0:0:0:
288,192,31688,1,0,0:0:0:0:
416,192,31688,1,0,0:0:0:0:
160,192,31775,1,0,0:0:0:70:hihat.wav
224,192,31775,1,0,0:0:0:0:
352,192,31861,1,0,0:0:0:0:
480,192,31861,1,0,0:0:0:0:
96,192,31948,1,0,0:0:0:70:kick.wav
224,192,31948,1,0,0:0:0:0:
416,192,31948,1,0,0:0:0:0:
160,192,32035,1,0,0:0:0:0:
352,192,32035,1,0,0:0:0:0:
288,192,32122,1,0,0:0:0:70:hihat.wav
480,192,32122,1,0,0:0:0:0:
96,192,32122,1,0,0:0:0:70:kick.wav
416,192,32208,1,0,0:0:0:0:
224,192,32208,1,0,0:0:0:0:
160,192,32295,1,0,0:0:0:0:
352,192,32295,1,0,0:0:0:0:
480,192,32295,1,0,0:0:0:70:kick.wav
32,192,32295,1,0,0:0:0:70:crash.wav
96,192,32411,1,0,0:0:0:0:
288,192,32411,1,0,0:0:0:0:
160,192,32468,1,0,0:0:0:70:hihat.wav
352,192,32468,1,0,0:0:0:0:
96,192,32555,1,0,0:0:0:0:
288,192,32555,1,0,0:0:0:0:
480,192,32642,1,0,0:0:0:70:kick.wav
160,192,32642,1,0,0:0:0:0:
352,192,32642,1,0,0:0:0:0:
224,192,32815,1,0,0:0:0:70:hihat.wav
352,192,32815,1,0,0:0:0:0:
160,192,32902,1,0,0:0:0:0:
96,192,32989,1,0,0:0:0:0:
352,192,32989,1,0,0:0:0:0:
480,192,32989,1,0,0:0:0:70:kick.wav
32,192,32989,1,0,0:0:0:70:crash.wav
160,192,33075,1,0,0:0:0:0:
416,192,33075,1,0,0:0:0:0:
480,192,33162,1,0,0:0:0:0:
224,192,33162,1,0,0:0:0:70:hihat.wav
416,192,33249,1,0,0:0:0:0:
160,192,33249,1,0,0:0:0:0:
352,192,33335,1,0,0:0:0:0:
96,192,33335,1,0,0:0:0:70:kick.wav
480,192,33335,1,0,0:0:0:0:
160,192,33422,1,0,0:0:0:0:
416,192,33422,1,0,0:0:0:0:
480,192,33509,1,0,0:0:0:0:
224,192,33509,1,0,0:0:0:70:hihat.wav
416,192,33596,1,0,0:0:0:0:
288,192,33596,1,0,0:0:0:0:
352,192,33682,1,0,0:0:0:0:
224,192,33682,1,0,0:0:0:0:
32,192,33682,1,0,0:0:0:70:crash.wav
96,192,33682,1,0,0:0:0:70:kick.wav
32,192,33856,1,0,0:0:0:70:crash.wav
160,192,33856,1,0,0:0:0:70:kick.wav
288,192,33856,1,0,0:0:0:0:
416,192,33856,1,0,0:0:0:0:
32,192,34029,1,0,0:0:0:70:crash.wav
224,192,34029,1,0,0:0:0:70:kick.wav
352,192,34029,1,0,0:0:0:0:
480,192,34029,1,0,0:0:0:0:
32,192,34289,1,0,0:0:0:70:crash.wav
352,192,34289,1,0,0:0:0:0:
480,192,34289,1,0,0:0:0:0:
160,192,34289,1,0,0:0:0:70:kick.wav
32,192,34463,1,0,0:0:0:70:crash.wav
96,192,34463,1,0,0:0:0:70:kick.wav
224,192,34463,1,0,0:0:0:0:
416,192,34463,1,0,0:0:0:0:
32,192,34723,1,0,0:0:0:70:crash.wav
96,192,34723,1,0,0:0:0:70:kick.wav
224,192,34723,1,0,0:0:0:0:
416,192,34723,1,0,0:0:0:0:
160,192,34896,1,0,0:0:0:70:kick.wav
288,192,34896,1,0,0:0:0:0:
480,192,34896,1,0,0:0:0:0:
32,192,34896,1,0,0:0:0:70:crash.wav
416,192,35070,1,0,0:0:0:0:
224,192,35070,1,0,0:0:0:0:
96,192,35070,1,0,0:0:0:70:kick.wav
32,192,35070,1,0,0:0:0:70:crash.wav
480,192,35185,1,0,0:0:0:0:
352,192,35185,1,0,0:0:0:0:
288,192,35243,1,0,0:0:0:0:
160,192,35243,1,0,0:0:0:70:hihat.wav
224,192,35330,1,0,0:0:0:0:
352,192,35330,1,0,0:0:0:0:
416,192,35416,1,0,0:0:0:0:
288,192,35416,1,0,0:0:0:0:
96,192,35416,1,0,0:0:0:70:kick.wav
224,192,35590,1,0,0:0:0:70:hihat.wav
416,192,35590,1,0,0:0:0:0:
352,192,35677,1,0,0:0:0:0:
224,192,35763,1,0,0:0:0:0:
96,192,35763,1,0,0:0:0:70:kick.wav
416,192,35763,1,0,0:0:0:0:
160,192,35850,1,0,0:0:0:0:
352,192,35850,1,0,0:0:0:0:
224,192,35937,1,0,0:0:0:70:hihat.wav
416,192,35937,1,0,0:0:0:0:
160,192,36023,1,0,0:0:0:0:
480,192,36023,1,0,0:0:0:0:
416,192,36110,1,0,0:0:0:0:
96,192,36110,1,0,0:0:0:70:kick.wav
160,192,36197,1,0,0:0:0:0:
224,192,36283,1,0,0:0:0:70:hihat.wav
352,192,36283,1,0,0:0:0:0:
288,192,36370,1,0,0:0:0:0:
96,192,36457,1,0,0:0:0:70:kick.wav
352,192,36457,1,0,0:0:0:0:
480,192,36457,1,0,0:0:0:0:
416,192,36572,1,0,0:0:0:0:
288,192,36572,1,0,0:0:0:0:
160,192,36630,1,0,0:0:0:70:hihat.wav
224,192,36630,1,0,0:0:0:0:
352,192,36717,1,0,0:0:0:0:
480,192,36717,1,0,0:0:0:0:
96,192,36804,1,0,0:0:0:70:kick.wav
224,192,36804,1,0,0:0:0:0:
416,192,36804,1,0,0:0:0:0:
160,192,36977,1,0,0:0:0:70:hihat.wav
288,192,36977,1,0,0:0:0:0:
352,192,37064,1,0,0:0:0:0:
96,192,37151,1,0,0:0:0:70:kick.wav
224,192,37151,1,0,0:0:0:0:
480,192,37151,1,0,0:0:0:0:
416,192,37237,1,0,0:0:0:0:
160,192,37237,1,0,0:0:0:0:
224,192,37324,1,0,0:0:0:70:hihat.wav
480,192,37324,1,0,0:0:0:0:
160,192,37411,1,0,0:0:0:0:
416,192,37411,1,0,0:0:0:0:
480,192,37497,1,0,0:0:0:0:
96,192,37497,1,0,0:0:0:70:kick.wav
224,192,37497,1,0,0:0:0:0:
416,192,37584,1,0,0:0:0:0:
160,192,37671,1,0,0:0:0:70:hihat.wav
352,192,37671,1,0,0:0:0:0:
288,192,37757,1,0,0:0:0:0:
96,192,37844,1,0,0:0:0:70:kick.wav
224,192,37844,1,0,0:0:0:0:
480,192,37844,1,0,0:0:0:0:
288,192,37960,1,0,0:0:0:0:
416,192,37960,1,0,0:0:0:0:
224,192,38018,1,0,0:0:0:70:hihat.wav
480,192,38018,1,0,0:0:0:0:
416,192,38104,1,0,0:0:0:0:
160,192,38104,1,0,0:0:0:0:
352,192,38191,1,0,0:0:0:0:
96,192,38191,1,0,0:0:0:70:kick.wav
224,192,38191,1,0,0:0:0:0:
224,192,38364,1,0,0:0:0:0:
416,192,38364,1,0,0:0:0:0:
96,192,38538,1,0,0:0:0:70:kick.wav
480,192,38538,1,0,0:0:0:0:
352,192,38538,1,0,0:0:0:0:
160,192,38624,1,0,0:0:0:70:hihat.wav
288,192,38624,1,0,0:0:0:0:
96,192,38711,1,0,0:0:0:0:
352,192,38711,1,0,0:0:0:0:
160,192,38798,1,0,0:0:0:0:
416,192,38798,1,0,0:0:0:0:
480,192,38885,1,0,0:0:0:0:
224,192,38885,1,0,0:0:0:70:kick.wav
352,192,38971,1,0,0:0:0:0:
96,192,39058,1,0,0:0:0:0:
288,192,39058,1,0,0:0:0:70:hihat.wav
160,192,39145,1,0,0:0:0:0:
352,192,39145,1,0,0:0:0:0:
224,192,39231,1,0,0:0:0:0:
416,192,39231,1,0,0:0:0:0:
32,192,39231,1,0,0:0:0:70:crash.wav
96,192,39231,1,0,0:0:0:70:kick.wav
352,192,39347,1,0,0:0:0:0:
160,192,39405,1,0,0:0:0:70:hihat.wav
480,192,39405,1,0,0:0:0:0:
32,192,39578,1,0,0:0:0:70:crash.wav
96,192,39578,1,0,0:0:0:70:kick.wav
480,192,39578,1,0,0:0:0:0:
352,192,39578,1,0,0:0:0:0:
288,192,39665,1,0,0:0:0:0:
416,192,39665,1,0,0:0:0:0:
352,192,39752,1,0,0:0:0:0:
224,192,39752,1,0,0:0:0:70:hihat.wav
288,192,39838,1,0,0:0:0:0:
160,192,39838,1,0,0:0:0:0:
32,192,39925,1,0,0:0:0:70:crash.wav
96,192,39925,1,0,0:0:0:70:kick.wav
224,192,39925,1,0,0:0:0:0:
480,192,39925,1,0,0:0:0:0:
352,192,39925,1,0,0:0:0:0:
288,192,40012,1,0,0:0:0:0:
416,192,40012,1,0,0:0:0:0:
224,192,40098,1,0,0:0:0:70:hihat.wav
96,192,40098,1,0,0:0:0:0:
352,192,40185,1,0,0:0:0:70:kick.wav
32,192,40272,1,0,0:0:0:70:crash.wav
96,192,40272,1,0,0:0:0:0:
288,192,40272,1,0,0:0:0:0:
480,192,40272,1,0,0:0:0:0:
224,192,40445,1,0,0:0:0:70:hihat.wav
352,192,40445,1,0,0:0:0:70:kick.wav
32,192,40619,1,0,0:0:0:70:crash.wav
96,192,40619,1,0,0:0:0:70:kick.wav
480,192,40619,1,0,0:0:0:0:
224,192,40619,1,0,0:0:0:0:
160,192,40734,1,0,0:0:0:0:
416,192,40734,1,0,0:0:0:0:
480,192,40792,1,0,0:0:0:0:
224,192,40792,1,0,0:0:0:70:hihat.wav
416,192,40879,1,0,0:0:0:0:
160,192,40879,1,0,0:0:0:0:
96,192,40966,1,0,0:0:0:70:kick.wav
352,192,40966,1,0,0:0:0:0:
480,192,40966,1,0,0:0:0:0:
352,192,41139,1,0,0:0:0:0:
160,192,41139,1,0,0:0:0:70:hihat.wav
288,192,41226,1,0,0:0:0:0:
416,192,41226,1,0,0:0:0:0:
96,192,41312,1,0,0:0:0:70:kick.wav
224,192,41312,1,0,0:0:0:0:
480,192,41312,1,0,0:0:0:0:
416,192,41399,1,0,0:0:0:0:
160,192,41399,1,0,0:0:0:0:
224,192,41486,1,0,0:0:0:70:hihat.wav
352,192,41486,1,0,0:0:0:0:
160,192,41572,1,0,0:0:0:0:
288,192,41572,1,0,0:0:0:0:
96,192,41659,1,0,0:0:0:70:kick.wav
224,192,41659,1,0,0:0:0:0:
480,192,41659,1,0,0:0:0:0:
288,192,41746,1,0,0:0:0:0:
416,192,41746,1,0,0:0:0:0:
352,192,41833,1,0,0:0:0:0:
224,192,41833,1,0,0:0:0:70:hihat.wav
160,192,41919,1,0,0:0:0:0:
416,192,41919,1,0,0:0:0:0:
480,192,42006,1,0,0:0:0:0:
96,192,42006,1,0,0:0:0:70:kick.wav
288,192,42006,1,0,0:0:0:0:
32,192,42006,1,0,0:0:0:70:crash.wav
224,192,42122,1,0,0:0:0:0:
352,192,42122,1,0,0:0:0:0:
96,192,42179,1,0,0:0:0:70:hihat.wav
480,192,42179,1,0,0:0:0:0:
160,192,42266,1,0,0:0:0:0:
416,192,42266,1,0,0:0:0:0:
224,192,42353,1,0,0:0:0:70:kick.wav
352,192,42353,1,0,0:0:0:0:
480,192,42353,1,0,0:0:0:0:
96,192,42526,1,0,0:0:0:70:hihat.wav
416,192,42526,1,0,0:0:0:0:
352,192,42613,1,0,0:0:0:0:
160,192,42613,1,0,0:0:0:0:
288,192,42700,1,0,0:0:0:0:
96,192,42700,1,0,0:0:0:0:
480,192,42700,1,0,0:0:0:70:kick.wav
352,192,42786,1,0,0:0:0:0:
160,192,42786,1,0,0:0:0:0:
416,192,42873,1,0,0:0:0:0:
224,192,42873,1,0,0:0:0:70:hihat.wav
160,192,42960,1,0,0:0:0:0:
352,192,42960,1,0,0:0:0:0:
96,192,43046,1,0,0:0:0:0:
288,192,43046,1,0,0:0:0:0:
480,192,43046,1,0,0:0:0:70:kick.wav
224,192,43133,1,0,0:0:0:0:
416,192,43133,1,0,0:0:0:0:
480,192,43220,1,0,0:0:0:70:kick.wav
160,192,43220,1,0,0:0:0:70:hihat.wav
352,192,43220,1,0,0:0:0:0:
224,192,43307,1,0,0:0:0:0:
416,192,43307,1,0,0:0:0:0:
480,192,43393,1,0,0:0:0:70:kick.wav
96,192,43393,1,0,0:0:0:0:
288,192,43393,1,0,0:0:0:0:
32,192,43393,1,0,0:0:0:70:crash.wav
416,192,43480,1,0,0:0:0:0:
224,192,43480,1,0,0:0:0:0:
160,192,43567,1,0,0:0:0:70:hihat.wav
288,192,43567,1,0,0:0:0:0:
480,192,43567,1,0,0:0:0:70:kick.wav
224,192,43653,1,0,0:0:0:0:
352,192,43653,1,0,0:0:0:0:
480,192,43740,1,0,0:0:0:70:kick.wav
96,192,43740,1,0,0:0:0:0:
288,192,43740,1,0,0:0:0:0:
224,192,43827,1,0,0:0:0:0:
352,192,43914,1,0,0:0:0:70:kick.wav
160,192,43914,1,0,0:0:0:70:hihat.wav
416,192,44000,1,0,0:0:0:0:
96,192,44087,1,0,0:0:0:0:
224,192,44087,1,0,0:0:0:0:
480,192,44087,1,0,0:0:0:70:kick.wav
416,192,44130,1,0,0:0:0:70:kick.wav
352,192,44174,1,0,0:0:0:70:kick.wav
288,192,44217,1,0,0:0:0:70:kick.wav
224,192,44260,1,0,0:0:0:70:kick.wav
96,192,44260,1,0,0:0:0:70:hihat.wav
288,192,44347,5,0,0:0:0:70:kick.wav
32,192,44434,1,0,0:0:0:70:crash.wav
96,192,44434,1,0,0:0:0:0:
352,192,44434,1,0,0:0:0:70:kick.wav
480,192,44434,1,0,0:0:0:0:
224,192,44520,1,0,0:0:0:70:kick.wav
288,192,44607,1,0,0:0:0:70:hihat.wav
416,192,44607,1,0,0:0:0:0:
160,192,44607,1,0,0:0:0:70:kick.wav
352,192,44694,1,0,0:0:0:70:kick.wav
480,192,44781,1,0,0:0:0:0:
224,192,44781,1,0,0:0:0:0:
32,192,44781,1,0,0:0:0:70:crash.wav
96,192,44781,1,0,0:0:0:70:kick.wav
160,192,44954,1,0,0:0:0:70:kick.wav
288,192,44954,1,0,0:0:0:70:hihat.wav
416,192,44954,1,0,0:0:0:0:
32,192,45127,1,0,0:0:0:70:crash.wav
96,192,45127,1,0,0:0:0:70:kick.wav
224,192,45127,1,0,0:0:0:0:
352,192,45127,1,0,0:0:0:0:
160,192,45301,1,0,0:0:0:70:kick.wav
288,192,45301,1,0,0:0:0:70:hihat.wav
416,192,45301,1,0,0:0:0:0:
32,192,45474,128,0,46168:0:0:0:0:
96,192,45474,1,0,0:0:0:70:kick.wav
480,192,45474,1,0,0:0:0:0:
352,192,45474,1,0,0:0:0:0:
96,192,46168,1,0,0:0:0:70:kick.wav
224,192,46168,1,0,0:0:0:0:
480,192,46168,1,0,0:0:0:0:
160,192,46283,1,0,0:0:0:0:
288,192,46399,1,0,0:0:0:0:
352,192,46515,1,0,0:0:0:0:
96,192,46515,1,0,0:0:0:70:kick.wav
480,192,46630,1,0,0:0:0:0:
288,192,46746,1,0,0:0:0:0:
416,192,46861,1,0,0:0:0:0:
480,192,46977,1,0,0:0:0:0:
352,192,47093,1,0,0:0:0:0:
416,192,47208,1,0,0:0:0:0:
288,192,47324,1,0,0:0:0:0:
96,192,47440,1,0,0:0:0:0:
160,192,47555,1,0,0:0:0:70:kick.wav
288,192,47555,1,0,0:0:0:0:
416,192,47555,1,0,0:0:0:0:
352,192,47671,1,0,0:0:0:0:
224,192,47786,1,0,0:0:0:0:
96,192,47902,1,0,0:0:0:70:kick.wav
480,192,47902,1,0,0:0:0:0:
224,192,48018,1,0,0:0:0:0:
352,192,48133,1,0,0:0:0:0:
352,192,48249,1,0,0:0:0:0:
32,192,48249,1,0,0:0:0:0:
224,192,48364,1,0,0:0:0:0:
96,192,48480,1,0,0:0:0:0:
416,192,48596,1,0,0:0:0:0:
288,192,48711,1,0,0:0:0:0:
160,192,48827,1,0,0:0:0:0:
96,192,48942,1,0,0:0:0:70:kick.wav
352,192,48942,1,0,0:0:0:0:
480,192,48942,1,0,0:0:0:0:
32,192,48942,1,0,0:0:0:70:crash.wav
160,192,49058,1,0,0:0:0:0:
224,192,49174,1,0,0:0:0:0:
288,192,49289,1,0,0:0:0:0:
96,192,49289,1,0,0:0:0:70:kick.wav
352,192,49405,1,0,0:0:0:0:
480,192,49520,1,0,0:0:0:0:
480,192,49636,1,0,0:0:0:0:
352,192,49752,1,0,0:0:0:0:
224,192,49867,1,0,0:0:0:0:
160,192,49983,1,0,0:0:0:0:
288,192,50098,1,0,0:0:0:0:
96,192,50214,1,0,0:0:0:0:
160,192,50330,1,0,0:0:0:0:
352,192,50330,1,0,0:0:0:0:
480,192,50330,1,0,0:0:0:70:kick.wav
288,192,50445,1,0,0:0:0:0:
416,192,50561,1,0,0:0:0:0:
96,192,50677,1,0,0:0:0:0:
288,192,50677,1,0,0:0:0:0:
480,192,50677,1,0,0:0:0:70:kick.wav
416,192,50792,1,0,0:0:0:0:
352,192,50908,1,0,0:0:0:0:
288,192,51023,1,0,0:0:0:0:
96,192,51023,1,0,0:0:0:0:
480,192,51023,1,0,0:0:0:0:
32,192,51023,1,0,0:0:0:0:
416,192,51139,1,0,0:0:0:0:
288,192,51255,1,0,0:0:0:0:
224,192,51370,1,0,0:0:0:0:
160,192,51486,1,0,0:0:0:0:
96,192,51601,1,0,0:0:0:0:
32,192,51717,1,0,0:0:0:70:crash.wav
224,192,51717,1,0,0:0:0:0:
352,192,51717,1,0,0:0:0:0:
480,192,51717,1,0,0:0:0:70:kick.wav
160,192,51833,1,0,0:0:0:0:
288,192,51948,1,0,0:0:0:0:
352,192,52064,1,0,0:0:0:0:
96,192,52064,1,0,0:0:0:70:kick.wav
224,192,52179,1,0,0:0:0:0:
288,192,52295,1,0,0:0:0:0:
416,192,52411,1,0,0:0:0:0:
288,192,52526,1,0,0:0:0:0:
416,192,52642,1,0,0:0:0:0:
288,192,52757,1,0,0:0:0:0:
224,192,52873,1,0,0:0:0:0:
160,192,52989,1,0,0:0:0:0:
96,192,53104,1,0,0:0:0:70:kick.wav
352,192,53104,1,0,0:0:0:0:
480,192,53104,1,0,0:0:0:0:
160,192,53220,1,0,0:0:0:0:
224,192,53335,1,0,0:0:0:0:
160,192,53451,1,0,0:0:0:0:
416,192,53451,1,0,0:0:0:70:kick.wav
224,192,53567,1,0,0:0:0:0:
288,192,53682,1,0,0:0:0:0:
352,192,53798,1,0,0:0:0:0:
480,192,53798,1,0,0:0:0:0:
32,192,53798,1,0,0:0:0:0:
416,192,53914,1,0,0:0:0:0:
352,192,54029,1,0,0:0:0:0:
224,192,54145,1,0,0:0:0:0:
352,192,54260,1,0,0:0:0:0:
224,192,54376,1,0,0:0:0:0:
96,192,54492,1,0,0:0:0:70:kick.wav
32,192,54492,1,0,0:0:0:70:crash.wav
352,192,54492,1,0,0:0:0:0:
480,192,54492,1,0,0:0:0:0:
288,192,54607,1,0,0:0:0:0:
160,192,54723,1,0,0:0:0:0:
224,192,54838,1,0,0:0:0:0:
416,192,54838,1,0,0:0:0:70:kick.wav
288,192,54954,1,0,0:0:0:0:
480,192,55070,1,0,0:0:0:0:
480,192,55185,1,0,0:0:0:0:
352,192,55301,1,0,0:0:0:0:
480,192,55416,1,0,0:0:0:0:
416,192,55532,1,0,0:0:0:0:
352,192,55648,1,0,0:0:0:0:
288,192,55763,1,0,0:0:0:0:
224,192,55879,1,0,0:0:0:0:
96,192,55879,1,0,0:0:0:70:kick.wav
480,192,55879,1,0,0:0:0:0:
416,192,55994,1,0,0:0:0:0:
288,192,56110,1,0,0:0:0:0:
160,192,56226,1,0,0:0:0:70:kick.wav
416,192,56226,1,0,0:0:0:0:
288,192,56341,1,0,0:0:0:0:
160,192,56457,1,0,0:0:0:0:
352,192,56572,1,0,0:0:0:0:
96,192,56572,1,0,0:0:0:0:
480,192,56572,1,0,0:0:0:0:
32,192,56572,1,0,0:0:0:0:
224,192,56688,1,0,0:0:0:0:
96,192,56804,1,0,0:0:0:0:
288,192,56919,1,0,0:0:0:0:
32,192,57266,1,0,0:0:0:70:crash.wav
96,192,57266,1,0,0:0:0:70:kick.wav
416,192,57266,1,0,0:0:0:0:
224,192,57266,1,0,0:0:0:0:
352,192,57382,1,0,0:0:0:0:
224,192,57497,1,0,0:0:0:0:
416,192,57613,1,0,0:0:0:0:
96,192,57613,1,0,0:0:0:70:kick.wav
224,192,57729,1,0,0:0:0:0:
352,192,57844,1,0,0:0:0:0:
480,192,57960,1,0,0:0:0:0:
96,192,57960,1,0,0:0:0:0:
32,192,57960,1,0,0:0:0:0:
416,192,58075,1,0,0:0:0:0:
288,192,58191,1,0,0:0:0:0:
352,192,58307,1,0,0:0:0:0:
224,192,58422,1,0,0:0:0:0:
288,192,58538,1,0,0:0:0:0:
160,192,58653,1,0,0:0:0:0:
32,192,58653,1,0,0:0:0:0:
480,192,58653,1,0,0:0:0:70:kick.wav
416,192,58769,1,0,0:0:0:0:
288,192,58885,1,0,0:0:0:0:
224,192,59000,1,0,0:0:0:0:
480,192,59000,1,0,0:0:0:70:kick.wav
96,192,59116,1,0,0:0:0:0:
224,192,59231,1,0,0:0:0:0:
288,192,59347,1,0,0:0:0:0:
96,192,59347,1,0,0:0:0:0:
32,192,59347,1,0,0:0:0:0:
416,192,59463,1,0,0:0:0:0:
480,192,59578,1,0,0:0:0:0:
416,192,59694,1,0,0:0:0:0:
160,192,59809,1,0,0:0:0:0:
288,192,59925,1,0,0:0:0:0:
32,192,60041,1,0,0:0:0:70:crash.wav
96,192,60041,1,0,0:0:0:70:kick.wav
352,192,60041,1,0,0:0:0:0:
480,192,60041,1,0,0:0:0:0:
288,192,60156,1,0,0:0:0:0:
224,192,60272,1,0,0:0:0:0:
96,192,60388,1,0,0:0:0:70:kick.wav
352,192,60388,1,0,0:0:0:0:
416,192,60503,1,0,0:0:0:0:
480,192,60619,1,0,0:0:0:0:
32,192,60734,1,0,0:0:0:0:
96,192,60734,1,0,0:0:0:0:
416,192,60734,1,0,0:0:0:0:
224,192,60850,1,0,0:0:0:0:
160,192,60966,1,0,0:0:0:0:
416,192,61081,1,0,0:0:0:0:
288,192,61197,1,0,0:0:0:0:
224,192,61312,1,0,0:0:0:0:
96,192,61428,1,0,0:0:0:70:kick.wav
32,192,61428,1,0,0:0:0:70:crash.wav
288,192,61428,1,0,0:0:0:0:
480,192,61428,1,0,0:0:0:0:
160,192,61544,1,0,0:0:0:0:
288,192,61659,1,0,0:0:0:0:
416,192,61775,1,0,0:0:0:0:
96,192,61775,1,0,0:0:0:70:kick.wav
288,192,61890,1,0,0:0:0:0:
416,192,62006,1,0,0:0:0:0:
480,192,62122,1,0,0:0:0:0:
32,192,62122,1,0,0:0:0:70:crash.wav
96,192,62122,1,0,0:0:0:0:
224,192,62122,1,0,0:0:0:0:
416,192,62237,1,0,0:0:0:0:
352,192,62353,1,0,0:0:0:0:
288,192,62468,1,0,0:0:0:0:
224,192,62584,1,0,0:0:0:0:
352,192,62700,1,0,0:0:0:0:
416,192,62815,1,0,0:0:0:0:
160,192,62815,1,0,0:0:0:70:kick.wav
32,192,62815,1,0,0:0:0:70:crash.wav
288,192,62815,1,0,0:0:0:0:
352,192,62931,1,0,0:0:0:0:
288,192,63046,1,0,0:0:0:0:
224,192,63162,1,0,0:0:0:0:
96,192,63162,1,0,0:0:0:70:kick.wav
288,192,63278,1,0,0:0:0:0:
224,192,63393,1,0,0:0:0:0:
160,192,63509,1,0,0:0:0:0:
32,192,63509,1,0,0:0:0:0:
416,192,63509,1,0,0:0:0:0:
288,192,63624,1,0,0:0:0:0:
416,192,63740,1,0,0:0:0:0:
416,192,63856,1,0,0:0:0:0:
352,192,63971,1,0,0:0:0:0:
224,192,64087,1,0,0:0:0:0:
32,192,64203,1,0,0:0:0:70:crash.wav
96,192,64203,1,0,0:0:0:70:kick.wav
288,192,64203,1,0,0:0:0:0:
416,192,64203,1,0,0:0:0:0:
160,192,64318,1,0,0:0:0:0:
288,192,64434,1,0,0:0:0:0:
96,192,64549,1,0,0:0:0:70:kick.wav
480,192,64549,1,0,0:0:0:0:
288,192,64665,1,0,0:0:0:0:
160,192,64781,1,0,0:0:0:0:
480,192,64896,1,0,0:0:0:0:
32,192,64896,1,0,0:0:0:0:
224,192,64896,1,0,0:0:0:0:
288,192,65012,1,0,0:0:0:0:
416,192,65127,1,0,0:0:0:0:
416,192,65243,1,0,0:0:0:0:
288,192,65359,1,0,0:0:0:0:
160,192,65474,1,0,0:0:0:0:
96,192,65590,1,0,0:0:0:70:kick.wav
32,192,65590,1,0,0:0:0:70:crash.wav
480,192,65590,1,0,0:0:0:0:
352,192,65590,1,0,0:0:0:0:
416,192,65705,1,0,0:0:0:0:
224,192,65821,1,0,0:0:0:0:
352,192,65937,1,0,0:0:0:0:
96,192,65937,1,0,0:0:0:70:kick.wav
224,192,66052,1,0,0:0:0:0:
416,192,66168,1,0,0:0:0:0:
32,192,66283,1,0,0:0:0:0:
160,192,66283,1,0,0:0:0:0:
352,192,66283,1,0,0:0:0:0:
224,192,66399,1,0,0:0:0:0:
96,192,66515,1,0,0:0:0:0:
416,192,66630,1,0,0:0:0:0:
288,192,66746,1,0,0:0:0:0:
160,192,66861,1,0,0:0:0:0:
352,192,66977,1,0,0:0:0:0:
224,192,67093,1,0,0:0:0:0:
96,192,67208,1,0,0:0:0:0:
96,192,67324,1,0,0:0:0:0:
224,192,67440,1,0,0:0:0:0:
352,192,67555,1,0,0:0:0:0:
160,192,67671,1,0,0:0:0:0:
480,192,67671,1,0,0:0:0:0:
32,192,67671,1,0,0:0:0:0:
416,192,67786,1,0,0:0:0:0:
288,192,67902,1,0,0:0:0:0:
352,192,68018,1,0,0:0:0:0:
288,192,68133,1,0,0:0:0:0:
224,192,68249,1,0,0:0:0:0:
160,192,68364,1,0,0:0:0:70:kick.wav
352,192,68364,1,0,0:0:0:0:
480,192,68364,1,0,0:0:0:0:
32,192,68364,1,0,0:0:0:70:crash.wav
288,192,68538,1,0,0:0:0:0:
96,192,68711,1,0,0:0:0:0:
416,192,68885,1,0,0:0:0:0:
160,192,69231,1,0,0:0:0:0:
288,192,69405,1,0,0:0:0:0:
480,192,69578,1,0,0:0:0:0:
416,192,71139,1,0,0:0:0:0:
32,192,71139,1,0,0:0:0:0:
96,192,71139,1,0,0:0:0:0:
224,192,71312,1,0,0:0:0:0:
96,192,71486,1,0,0:0:0:0:
352,192,71659,1,0,0:0:0:0:
224,192,72006,1,0,0:0:0:0:
352,192,72179,1,0,0:0:0:0:
480,192,72353,1,0,0:0:0:0:
96,192,72700,1,0,0:0:0:70:kick.wav
352,192,72786,1,0,0:0:0:70:kick.wav
224,192,72873,1,0,0:0:0:70:kick.wav
416,192,72960,1,0,0:0:0:70:kick.wav
160,192,73046,1,0,0:0:0:70:kick.wav
352,192,73133,1,0,0:0:0:70:kick.wav
96,192,73220,1,0,0:0:0:70:kick.wav
480,192,73307,1,0,0:0:0:70:kick.wav
160,192,73393,1,0,0:0:0:70:kick.wav
416,192,73480,1,0,0:0:0:70:kick.wav
288,192,73567,1,0,0:0:0:70:kick.wav
96,192,73653,1,0,0:0:0:70:kick.wav
416,192,73740,1,0,0:0:0:70:kick.wav
160,192,73827,1,0,0:0:0:70:kick.wav
352,192,73914,1,0,0:0:0:70:kick.wav
32,192,73914,1,0,0:0:0:0:
480,192,73914,1,0,0:0:0:0:
224,192,74000,1,0,0:0:0:70:kick.wav
288,192,74087,1,0,0:0:0:70:kick.wav
416,192,74087,1,0,0:0:0:0:
96,192,74174,1,0,0:0:0:70:kick.wav
352,192,74260,1,0,0:0:0:70:kick.wav
480,192,74260,1,0,0:0:0:0:
224,192,74347,1,0,0:0:0:70:kick.wav
96,192,74434,1,0,0:0:0:70:kick.wav
352,192,74434,1,0,0:0:0:0:
160,192,74520,1,0,0:0:0:70:kick.wav
416,192,74607,1,0,0:0:0:70:kick.wav
160,192,74694,1,0,0:0:0:70:kick.wav
224,192,74781,1,0,0:0:0:70:kick.wav
352,192,74781,1,0,0:0:0:0:
96,192,74867,1,0,0:0:0:70:kick.wav
288,192,74954,1,0,0:0:0:70:kick.wav
480,192,74954,1,0,0:0:0:0:
224,192,75041,1,0,0:0:0:70:kick.wav
96,192,75127,1,0,0:0:0:70:kick.wav
416,192,75127,1,0,0:0:0:0:
160,192,75214,1,0,0:0:0:70:kick.wav
352,192,75301,1,0,0:0:0:70:kick.wav
96,192,75359,1,0,0:0:0:70:kick.wav
416,192,75416,1,0,0:0:0:70:kick.wav
160,192,75474,1,0,0:0:0:70:kick.wav
352,192,75561,1,0,0:0:0:70:kick.wav
96,192,75648,1,0,0:0:0:70:kick.wav
480,192,75734,1,0,0:0:0:70:kick.wav
288,192,75821,1,0,0:0:0:70:kick.wav
160,192,75908,1,0,0:0:0:70:kick.wav
480,192,75994,1,0,0:0:0:70:kick.wav
96,192,76052,1,0,0:0:0:70:kick.wav
416,192,76110,1,0,0:0:0:70:kick.wav
160,192,76168,1,0,0:0:0:70:kick.wav
352,192,76255,1,0,0:0:0:70:kick.wav
96,192,76341,1,0,0:0:0:70:kick.wav
480,192,76341,1,0,0:0:0:0:
160,192,76399,1,0,0:0:0:70:kick.wav
416,192,76428,1,0,0:0:0:0:
224,192,76457,1,0,0:0:0:70:kick.wav
96,192,76515,1,0,0:0:0:70:kick.wav
352,192,76515,1,0,0:0:0:0:
160,192,76572,1,0,0:0:0:70:kick.wav
416,192,76601,1,0,0:0:0:0:
224,192,76630,1,0,0:0:0:70:kick.wav
32,192,76688,1,0,0:0:0:70:crash.wav
288,192,76688,1,0,0:0:0:0:
352,192,76688,1,0,0:0:0:0:
480,192,76688,1,0,0:0:0:0:
96,192,76688,1,0,0:0:0:70:kick.wav
224,192,76775,1,0,0:0:0:0:
288,192,76861,1,0,0:0:0:0:
224,192,76948,1,0,0:0:0:0:
96,192,76992,1,0,0:0:0:0:
480,192,77035,1,0,0:0:0:0:
416,192,77122,1,0,0:0:0:0:
352,192,77208,1,0,0:0:0:0:
288,192,77295,1,0,0:0:0:0:
96,192,77382,1,0,0:0:0:0:
160,192,77468,1,0,0:0:0:0:
224,192,77555,1,0,0:0:0:0:
288,192,77642,1,0,0:0:0:0:
416,192,77729,1,0,0:0:0:0:
352,192,77815,1,0,0:0:0:0:
288,192,77902,1,0,0:0:0:0:
224,192,77989,1,0,0:0:0:0:
160,192,78075,128,0,78769:0:0:0:0:
480,192,78075,1,0,0:0:0:0:
352,192,78162,1,0,0:0:0:0:
416,192,78249,1,0,0:0:0:0:
288,192,78335,1,0,0:0:0:0:
352,192,78422,1,0,0:0:0:0:
224,192,78509,1,0,0:0:0:0:
288,192,78596,1,0,0:0:0:0:
352,192,78682,1,0,0:0:0:0:
416,192,78769,1,0,0:0:0:0:
288,192,78769,128,0,79376:0:0:0:0:
352,192,78856,1,0,0:0:0:0:
224,192,78942,1,0,0:0:0:0:
416,192,79029,1,0,0:0:0:0:
96,192,79116,1,0,0:0:0:0:
224,192,79203,1,0,0:0:0:0:
160,192,79289,1,0,0:0:0:0:
416,192,79376,1,0,0:0:0:0:
224,192,79376,1,0,0:0:0:0:
352,192,79463,128,0,80156:0:0:0:0:
480,192,79463,1,0,0:0:0:0:
96,192,79463,1,0,0:0:0:70:kick.wav
160,192,79463,1,0,0:0:0:0:
32,192,79463,1,0,0:0:0:70:crash.wav
224,192,79636,1,0,0:0:0:70:hihat.wav
96,192,79809,1,0,0:0:0:70:kick.wav
288,192,79809,1,0,0:0:0:0:
480,192,79809,1,0,0:0:0:0:
224,192,79983,1,0,0:0:0:70:hihat.wav
96,192,80156,1,0,0:0:0:70:kick.wav
288,192,80156,1,0,0:0:0:0:
224,192,80330,1,0,0:0:0:70:hihat.wav
96,192,80503,1,0,0:0:0:70:kick.wav
352,192,80503,1,0,0:0:0:0:
480,192,80503,1,0,0:0:0:0:
288,192,80677,1,0,0:0:0:70:hihat.wav
224,192,80763,1,0,0:0:0:0:
160,192,80807,1,0,0:0:0:0:
96,192,80850,128,0,81544:0:0:0:0:
480,192,80850,1,0,0:0:0:70:kick.wav
352,192,80850,1,0,0:0:0:0:
416,192,80937,1,0,0:0:0:0:
352,192,81023,1,0,0:0:0:70:hihat.wav
288,192,81110,1,0,0:0:0:0:
160,192,81197,1,0,0:0:0:0:
352,192,81197,1,0,0:0:0:0:
480,192,81197,1,0,0:0:0:70:kick.wav
224,192,81283,1,0,0:0:0:0:
416,192,81370,1,0,0:0:0:70:hihat.wav
288,192,81457,1,0,0:0:0:0:
224,192,81544,1,0,0:0:0:0:
480,192,81544,1,0,0:0:0:70:kick.wav
352,192,81717,1,0,0:0:0:70:hihat.wav
96,192,81890,1,0,0:0:0:0:
480,192,81890,1,0,0:0:0:70:kick.wav
224,192,81890,1,0,0:0:0:0:
160,192,82064,1,0,0:0:0:70:hihat.wav
288,192,82151,1,0,0:0:0:0:
352,192,82194,1,0,0:0:0:0:
416,192,82237,128,0,82671:0:0:0:0:
96,192,82237,1,0,0:0:0:70:kick.wav
224,192,82237,1,0,0:0:0:0:
288,192,82411,1,0,0:0:0:70:hihat.wav
96,192,82584,1,0,0:0:0:70:kick.wav
224,192,82584,1,0,0:0:0:0:
352,192,82584,1,0,0:0:0:0:
416,192,82757,1,0,0:0:0:0:
160,192,82757,1,0,0:0:0:70:hihat.wav
96,192,82931,1,0,0:0:0:70:kick.wav
480,192,82931,1,0,0:0:0:0:
352,192,82931,1,0,0:0:0:0:
160,192,83018,1,0,0:0:0:0:
416,192,83104,1,0,0:0:0:0:
288,192,83104,1,0,0:0:0:70:hihat.wav
160,192,83191,1,0,0:0:0:0:
96,192,83278,1,0,0:0:0:70:kick.wav
224,192,83278,1,0,0:0:0:0:
352,192,83278,1,0,0:0:0:0:
288,192,83364,1,0,0:0:0:0:
160,192,83451,1,0,0:0:0:70:hihat.wav
352,192,83451,1,0,0:0:0:0:
224,192,83538,1,0,0:0:0:0:
416,192,83538,1,0,0:0:0:0:
480,192,83624,1,0,0:0:0:0:
288,192,83624,1,0,0:0:0:0:
96,192,83624,1,0,0:0:0:70:kick.wav
224,192,83798,1,0,0:0:0:70:hihat.wav
416,192,83798,1,0,0:0:0:0:
352,192,83885,1,0,0:0:0:0:
96,192,83971,1,0,0:0:0:70:kick.wav
288,192,83971,1,0,0:0:0:0:
480,192,83971,128,0,84145:0:0:0:0:
160,192,84145,1,0,0:0:0:70:hihat.wav
96,192,84318,1,0,0:0:0:70:kick.wav
416,192,84318,1,0,0:0:0:0:
288,192,84405,1,0,0:0:0:0:
160,192,84492,1,0,0:0:0:70:hihat.wav
416,192,84492,1,0,0:0:0:0:
96,192,84665,1,0,0:0:0:70:kick.wav
224,192,84665,1,0,0:0:0:0:
352,192,84665,1,0,0:0:0:0:
160,192,84838,1,0,0:0:0:70:kick.wav
288,192,84838,1,0,0:0:0:70:hihat.wav
416,192,84838,1,0,0:0:0:0:
224,192,85012,1,0,0:0:0:0:
352,192,85012,1,0,0:0:0:0:
480,192,85012,128,0,85532:0:0:0:0:
96,192,85012,1,0,0:0:0:70:kick.wav
32,192,85012,1,0,0:0:0:70:crash.wav
288,192,85185,1,0,0:0:0:70:hihat.wav
96,192,85359,1,0,0:0:0:70:kick.wav
224,192,85359,1,0,0:0:0:0:
160,192,85532,1,0,0:0:0:70:hihat.wav
352,192,85532,1,0,0:0:0:0:
224,192,85619,1,0,0:0:0:0:
288,192,85705,1,0,0:0:0:0:
416,192,85705,1,0,0:0:0:0:
96,192,85705,1,0,0:0:0:70:kick.wav
160,192,85879,1,0,0:0:0:70:hihat.wav
352,192,85879,1,0,0:0:0:0:
96,192,86052,1,0,0:0:0:70:kick.wav
352,192,86052,1,0,0:0:0:0:
480,192,86052,1,0,0:0:0:0:
160,192,86226,1,0,0:0:0:0:
288,192,86226,1,0,0:0:0:70:hihat.wav
224,192,86312,1,0,0:0:0:0:
288,192,86399,1,0,0:0:0:0:
96,192,86399,1,0,0:0:0:70:kick.wav
480,192,86399,1,0,0:0:0:0:
32,192,86399,1,0,0:0:0:0:
416,192,86486,1,0,0:0:0:0:
352,192,86572,1,0,0:0:0:0:
160,192,86572,1,0,0:0:0:70:hihat.wav
288,192,86659,1,0,0:0:0:0:
224,192,86746,1,0,0:0:0:0:
480,192,86746,1,0,0:0:0:0:
96,192,86746,1,0,0:0:0:70:kick.wav
416,192,86833,1,0,0:0:0:0:
352,192,86919,1,0,0:0:0:0:
224,192,86919,1,0,0:0:0:70:hihat.wav
288,192,87006,1,0,0:0:0:0:
224,192,87093,1,0,0:0:0:0:
96,192,87093,1,0,0:0:0:70:kick.wav
480,192,87093,1,0,0:0:0:0:
160,192,87266,1,0,0:0:0:70:hihat.wav
416,192,87266,1,0,0:0:0:0:
96,192,87440,1,0,0:0:0:70:kick.wav
352,192,87440,1,0,0:0:0:0:
480,192,87440,1,0,0:0:0:0:
224,192,87526,1,0,0:0:0:0:
416,192,87613,1,0,0:0:0:70:hihat.wav
96,192,87613,1,0,0:0:0:0:
352,192,87786,128,0,88480:0:0:0:0:
480,192,87786,1,0,0:0:0:0:
96,192,87786,1,0,0:0:0:70:kick.wav
288,192,87786,1,0,0:0:0:0:
32,192,87786,1,0,0:0:0:70:crash.wav
224,192,87960,1,0,0:0:0:70:hihat.wav
96,192,88133,1,0,0:0:0:70:kick.wav
480,192,88133,1,0,0:0:0:0:
224,192,88133,1,0,0:0:0:0:
288,192,88307,1,0,0:0:0:70:hihat.wav
96,192,88480,1,0,0:0:0:70:kick.wav
224,192,88480,1,0,0:0:0:0:
480,192,88480,1,0,0:0:0:0:
416,192,88567,1,0,0:0:0:0:
352,192,88653,1,0,0:0:0:0:
160,192,88653,1,0,0:0:0:70:hihat.wav
96,192,88827,1,0,0:0:0:70:kick.wav
224,192,88827,1,0,0:0:0:0:
416,192,88827,1,0,0:0:0:0:
160,192,89000,1,0,0:0:0:70:hihat.wav
480,192,89000,1,0,0:0:0:0:
288,192,89174,1,0,0:0:0:0:
96,192,89174,1,0,0:0:0:70:kick.wav
32,192,89174,1,0,0:0:0:70:crash.wav
480,192,89174,128,0,89694:0:0:0:0:
96,192,89347,1,0,0:0:0:70:kick.wav
224,192,89347,1,0,0:0:0:70:hihat.wav
96,192,89520,1,0,0:0:0:70:kick.wav
160,192,89520,1,0,0:0:0:0:
32,192,89520,1,0,0:0:0:70:crash.wav
96,192,89694,1,0,0:0:0:70:kick.wav
288,192,89694,1,0,0:0:0:70:hihat.wav
32,192,89867,1,0,0:0:0:70:crash.wav
96,192,89867,1,0,0:0:0:70:kick.wav
480,192,89867,1,0,0:0:0:0:
352,192,89867,1,0,0:0:0:0:
160,192,89954,1,0,0:0:0:70:kick.wav
288,192,89954,1,0,0:0:0:0:
352,192,90041,1,0,0:0:0:70:hihat.wav
96,192,90041,1,0,0:0:0:70:kick.wav
96,192,90214,1,0,0:0:0:70:kick.wav
224,192,90214,1,0,0:0:0:0:
480,192,90214,1,0,0:0:0:0:
32,192,90214,1,0,0:0:0:70:crash.wav
160,192,90388,1,0,0:0:0:70:kick.wav
288,192,90388,1,0,0:0:0:70:hihat.wav
352,192,90474,1,0,0:0:0:0:
416,192,90518,1,0,0:0:0:0:
480,192,90561,128,0,91255:0:0:0:0:
96,192,90561,1,0,0:0:0:70:kick.wav
32,192,90561,1,0,0:0:0:70:crash.wav
288,192,90561,1,0,0:0:0:0:
224,192,90648,1,0,0:0:0:0:
160,192,90734,1,0,0:0:0:70:hihat.wav
224,192,90821,1,0,0:0:0:0:
96,192,90908,1,0,0:0:0:70:kick.wav
416,192,90908,1,0,0:0:0:0:
288,192,90908,1,0,0:0:0:0:
224,192,90994,1,0,0:0:0:0:
352,192,91081,1,0,0:0:0:70:hihat.wav
224,192,91168,1,0,0:0:0:0:
96,192,91255,1,0,0:0:0:70:kick.wav
288,192,91255,1,0,0:0:0:0:
224,192,91428,1,0,0:0:0:70:hihat.wav
96,192,91601,1,0,0:0:0:70:kick.wav
352,192,91601,1,0,0:0:0:0:
480,192,91601,1,0,0:0:0:0:
160,192,91688,1,0,0:0:0:0:
224,192,91775,1,0,0:0:0:70:hihat.wav
160,192,91861,1,0,0:0:0:0:
352,192,91861,1,0,0:0:0:0:
416,192,91905,1,0,0:0:0:0:
288,192,91948,1,0,0:0:0:0:
96,192,91948,1,0,0:0:0:70:kick.wav
480,192,91948,128,0,92642:0:0:0:0:
224,192,92035,1,0,0:0:0:0:
160,192,92122,1,0,0:0:0:70:hihat.wav
224,192,92208,1,0,0:0:0:0:
288,192,92295,1,0,0:0:0:0:
96,192,92295,1,0,0:0:0:70:kick.wav
416,192,92295,1,0,0:0:0:0:
352,192,92382,1,0,0:0:0:0:
288,192,92468,1,0,0:0:0:70:hihat.wav
224,192,92555,1,0,0:0:0:0:
352,192,92642,1,0,0:0:0:0:
96,192,92642,1,0,0:0:0:70:kick.wav
224,192,92815,1,0,0:0:0:70:hihat.wav
352,192,92989,1,0,0:0:0:0:
480,192,92989,1,0,0:0:0:0:
96,192,92989,1,0,0:0:0:70:kick.wav
224,192,93162,1,0,0:0:0:70:hihat.wav
288,192,93249,1,0,0:0:0:0:
352,192,93292,1,0,0:0:0:0:
416,192,93335,128,0,93769:0:0:0:0:
96,192,93335,1,0,0:0:0:70:kick.wav
224,192,93335,1,0,0:0:0:0:
160,192,93509,1,0,0:0:0:70:hihat.wav
96,192,93682,1,0,0:0:0:70:kick.wav
224,192,93682,1,0,0:0:0:0:
352,192,93682,1,0,0:0:0:0:
416,192,93856,1,0,0:0:0:0:
224,192,93856,1,0,0:0:0:70:hihat.wav
96,192,94029,1,0,0:0:0:70:kick.wav
288,192,94029,1,0,0:0:0:0:
480,192,94029,1,0,0:0:0:0:
416,192,94116,1,0,0:0:0:0:
352,192,94203,1,0,0:0:0:0:
160,192,94203,1,0,0:0:0:70:hihat.wav
288,192,94289,1,0,0:0:0:0:
224,192,94376,1,0,0:0:0:0:
96,192,94376,1,0,0:0:0:70:kick.wav
480,192,94376,1,0,0:0:0:0:
288,192,94463,1,0,0:0:0:0:
224,192,94549,1,0,0:0:0:0:
416,192,94549,1,0,0:0:0:70:hihat.wav
160,192,94636,1,0,0:0:0:0:
96,192,94723,1,0,0:0:0:70:kick.wav
352,192,94723,1,0,0:0:0:0:
480,192,94723,1,0,0:0:0:0:
288,192,94809,1,0,0:0:0:0:
160,192,94896,1,0,0:0:0:70:hihat.wav
416,192,94896,1,0,0:0:0:0:
288,192,94983,1,0,0:0:0:0:
96,192,95070,1,0,0:0:0:70:kick.wav
352,192,95070,1,0,0:0:0:0:
480,192,95070,1,0,0:0:0:0:
416,192,95156,1,0,0:0:0:0:
352,192,95243,1,0,0:0:0:70:hihat.wav
224,192,95330,1,0,0:0:0:0:
96,192,95416,1,0,0:0:0:70:kick.wav
352,192,95416,1,0,0:0:0:0:
480,192,95416,1,0,0:0:0:0:
288,192,95416,1,0,0:0:0:0:
32,192,95416,1,0,0:0:0:0:
224,192,95503,1,0,0:0:0:0:
160,192,95590,1,0,0:0:0:70:kick.wav
416,192,95590,1,0,0:0:0:70:hihat.wav
288,192,95590,1,0,0:0:0:0:
96,192,95763,1,0,0:0:0:70:kick.wav
480,192,95763,1,0,0:0:0:0:
224,192,95763,1,0,0:0:0:0:
160,192,95937,1,0,0:0:0:70:kick.wav
288,192,95937,1,0,0:0:0:0:
416,192,95937,1,0,0:0:0:70:hihat.wav
96,192,96110,1,0,0:0:0:70:kick.wav
224,192,96110,1,0,0:0:0:0:
32,192,96110,1,0,0:0:0:70:crash.wav
480,192,96110,128,0,96630:0:0:0:0:
288,192,96283,1,0,0:0:0:70:hihat.wav
96,192,96457,1,0,0:0:0:70:kick.wav
224,192,96457,1,0,0:0:0:0:
352,192,96457,1,0,0:0:0:0:
160,192,96630,1,0,0:0:0:70:hihat.wav
288,192,96630,1,0,0:0:0:0:
352,192,96717,1,0,0:0:0:0:
96,192,96804,1,0,0:0:0:70:kick.wav
224,192,96804,1,0,0:0:0:0:
480,192,96804,1,0,0:0:0:0:
352,192,96977,1,0,0:0:0:0:
224,192,96977,1,0,0:0:0:70:hihat.wav
96,192,97151,1,0,0:0:0:70:kick.wav
288,192,97151,1,0,0:0:0:0:
480,192,97151,1,0,0:0:0:0:
416,192,97324,1,0,0:0:0:0:
224,192,97324,1,0,0:0:0:70:hihat.wav
288,192,97411,1,0,0:0:0:0:
96,192,97497,1,0,0:0:0:70:kick.wav
224,192,97497,1,0,0:0:0:0:
480,192,97497,1,0,0:0:0:0:
288,192,97671,1,0,0:0:0:70:hihat.wav
416,192,97757,1,0,0:0:0:0:
352,192,97844,1,0,0:0:0:0:
480,192,97844,1,0,0:0:0:0:
96,192,97844,1,0,0:0:0:70:kick.wav
160,192,98018,1,0,0:0:0:70:hihat.wav
352,192,98018,1,0,0:0:0:0:
96,192,98191,1,0,0:0:0:70:kick.wav
352,192,98191,1,0,0:0:0:0:
480,192,98191,1,0,0:0:0:0:
288,192,98278,1,0,0:0:0:0:
224,192,98364,1,0,0:0:0:70:hihat.wav
416,192,98364,1,0,0:0:0:0:
352,192,98451,1,0,0:0:0:0:
480,192,98538,1,0,0:0:0:0:
288,192,98538,1,0,0:0:0:0:
96,192,98538,1,0,0:0:0:70:kick.wav
416,192,98624,1,0,0:0:0:0:
352,192,98711,1,0,0:0:0:0:
224,192,98711,1,0,0:0:0:70:hihat.wav
416,192,98798,1,0,0:0:0:0:
480,192,98885,1,0,0:0:0:0:
32,192,98885,1,0,0:0:0:70:crash.wav
288,192,98885,1,0,0:0:0:0:
96,192,98885,1,0,0:0:0:70:kick.wav
224,192,99058,1,0,0:0:0:70:kick.wav
416,192,99058,1,0,0:0:0:70:hihat.wav
32,192,99231,1,0,0:0:0:70:crash.wav
480,192,99231,1,0,0:0:0:0:
288,192,99231,1,0,0:0:0:0:
96,192,99231,1,0,0:0:0:70:kick.wav
160,192,99405,1,0,0:0:0:70:kick.wav
416,192,99405,1,0,0:0:0:70:hihat.wav
32,192,99578,1,0,0:0:0:70:crash.wav
96,192,99578,1,0,0:0:0:70:kick.wav
352,192,99578,1,0,0:0:0:0:
480,192,99578,1,0,0:0:0:0:
160,192,99665,1,0,0:0:0:70:kick.wav
416,192,99665,1,0,0:0:0:0:
480,192,99752,1,0,0:0:0:70:hihat.wav
224,192,99752,1,0,0:0:0:70:kick.wav
416,192,99838,1,0,0:0:0:0:
160,192,99838,1,0,0:0:0:70:kick.wav
32,192,99925,1,0,0:0:0:70:crash.wav
96,192,99925,1,0,0:0:0:70:kick.wav
480,192,99925,1,0,0:0:0:0:
288,192,99925,1,0,0:0:0:0:
416,192,99983,1,0,0:0:0:0:
224,192,99983,1,0,0:0:0:70:kick.wav
352,192,100041,1,0,0:0:0:0:
160,192,100041,1,0,0:0:0:70:kick.wav
288,192,100098,1,0,0:0:0:70:hihat.wav
96,192,100098,1,0,0:0:0:70:kick.wav
160,192,100185,1,0,0:0:0:70:kick.wav
352,192,100185,1,0,0:0:0:0:
224,192,100272,1,0,0:0:0:0:
96,192,100272,1,0,0:0:0:70:kick.wav
416,192,100272,128,0,100792:0:0:0:0:
32,192,100272,1,0,0:0:0:70:crash.wav
288,192,100792,1,0,0:0:0:0:
96,192,100792,1,0,0:0:0:0:
160,192,100879,1,0,0:0:0:0:
352,192,100879,1,0,0:0:0:0:
224,192,100966,1,0,0:0:0:0:
416,192,100966,1,0,0:0:0:0:
352,192,101052,1,0,0:0:0:0:
160,192,101052,1,0,0:0:0:0:
416,192,101139,1,0,0:0:0:0:
224,192,101139,1,0,0:0:0:0:
96,192,101312,1,0,0:0:0:0:
480,192,101312,1,0,0:0:0:0:
416,192,101486,1,0,0:0:0:0:
160,192,101486,1,0,0:0:0:0:
96,192,101659,1,0,0:0:0:70:kick.wav
224,192,101659,1,0,0:0:0:0:
32,192,101659,1,0,0:0:0:70:crash.wav
288,192,101746,1,0,0:0:0:70:kick.wav
416,192,101746,1,0,0:0:0:0:
96,192,101833,1,0,0:0:0:70:kick.wav
224,192,101833,1,0,0:0:0:0:
352,192,101919,1,0,0:0:0:0:
96,192,101919,1,0,0:0:0:70:kick.wav
480,192,102006,1,0,0:0:0:0:
352,192,102093,1,0,0:0:0:0:
96,192,102093,1,0,0:0:0:70:kick.wav
288,192,102179,1,0,0:0:0:0:
416,192,102266,1,0,0:0:0:0:
96,192,102266,1,0,0:0:0:70:kick.wav
224,192,102353,1,0,0:0:0:0:
352,192,102440,1,0,0:0:0:0:
288,192,102526,1,0,0:0:0:0:
96,192,102613,1,0,0:0:0:70:kick.wav
480,192,102613,1,0,0:0:0:0:
288,192,102700,1,0,0:0:0:0:
96,192,102786,1,0,0:0:0:70:kick.wav
416,192,102873,1,0,0:0:0:0:
288,192,102960,1,0,0:0:0:0:
96,192,102960,1,0,0:0:0:70:kick.wav
96,192,103046,1,0,0:0:0:70:kick.wav
352,192,103046,1,0,0:0:0:0:
32,192,103046,1,0,0:0:0:70:crash.wav
416,192,103133,1,0,0:0:0:0:
224,192,103133,1,0,0:0:0:70:kick.wav
96,192,103220,1,0,0:0:0:70:kick.wav
288,192,103220,1,0,0:0:0:0:
416,192,103307,1,0,0:0:0:0:
224,192,103307,1,0,0:0:0:70:kick.wav
288,192,103393,1,0,0:0:0:0:
96,192,103480,1,0,0:0:0:70:kick.wav
416,192,103480,1,0,0:0:0:0:
224,192,103567,1,0,0:0:0:0:
480,192,103653,1,0,0:0:0:0:
96,192,103653,1,0,0:0:0:70:kick.wav
416,192,103740,1,0,0:0:0:0:
352,192,103827,1,0,0:0:0:0:
288,192,103914,1,0,0:0:0:0:
416,192,104000,1,0,0:0:0:0:
96,192,104000,1,0,0:0:0:70:kick.wav
352,192,104087,1,0,0:0:0:0:
224,192,104174,1,0,0:0:0:70:kick.wav
288,192,104260,1,0,0:0:0:0:
96,192,104260,1,0,0:0:0:70:kick.wav
352,192,104347,1,0,0:0:0:0:
224,192,104347,1,0,0:0:0:70:kick.wav
480,192,104434,1,0,0:0:0:0:
32,192,104434,1,0,0:0:0:70:crash.wav
96,192,104434,1,0,0:0:0:70:kick.wav
416,192,104520,1,0,0:0:0:0:
224,192,104520,1,0,0:0:0:70:kick.wav
288,192,104607,1,0,0:0:0:0:
96,192,104607,1,0,0:0:0:70:kick.wav
96,192,104694,1,0,0:0:0:70:kick.wav
416,192,104694,1,0,0:0:0:0:
96,192,104867,1,0,0:0:0:70:kick.wav
352,192,105041,1,0,0:0:0:0:
96,192,105041,1,0,0:0:0:70:kick.wav
416,192,105127,1,0,0:0:0:0:
480,192,105214,1,0,0:0:0:0:
96,192,105388,1,0,0:0:0:70:kick.wav
352,192,105388,1,0,0:0:0:0:
288,192,105474,1,0,0:0:0:0:
96,192,105561,1,0,0:0:0:70:kick.wav
416,192,105561,1,0,0:0:0:0:
96,192,105734,1,0,0:0:0:70:kick.wav
480,192,105734,1,0,0:0:0:0:
416,192,105821,1,0,0:0:0:0:
32,192,105821,1,0,0:0:0:70:crash.wav
224,192,105821,1,0,0:0:0:70:kick.wav
352,192,105908,1,0,0:0:0:0:
96,192,105908,1,0,0:0:0:70:kick.wav
288,192,105994,1,0,0:0:0:0:
160,192,106081,1,0,0:0:0:0:
96,192,106081,1,0,0:0:0:70:kick.wav
416,192,106168,1,0,0:0:0:0:
96,192,106255,1,0,0:0:0:70:kick.wav
288,192,106341,1,0,0:0:0:0:
224,192,106341,1,0,0:0:0:70:kick.wav
352,192,106428,1,0,0:0:0:0:
96,192,106428,1,0,0:0:0:70:kick.wav
480,192,106515,1,0,0:0:0:0:
224,192,106515,1,0,0:0:0:70:kick.wav
32,192,106515,1,0,0:0:0:70:crash.wav
480,192,106688,1,0,0:0:0:0:
96,192,106688,1,0,0:0:0:70:kick.wav
160,192,106731,1,0,0:0:0:70:kick.wav
416,192,106775,1,0,0:0:0:0:
224,192,106775,1,0,0:0:0:70:kick.wav
288,192,106818,1,0,0:0:0:70:kick.wav
480,192,106861,1,0,0:0:0:0:
352,192,106861,1,0,0:0:0:70:kick.wav
32,192,106861,1,0,0:0:0:70:crash.wav
160,192,106948,1,0,0:0:0:0:
224,192,107035,1,0,0:0:0:0:
480,192,107035,1,0,0:0:0:70:kick.wav
416,192,107078,1,0,0:0:0:70:kick.wav
160,192,107122,1,0,0:0:0:0:
352,192,107122,1,0,0:0:0:70:kick.wav
416,192,107165,1,0,0:0:0:70:kick.wav
96,192,107208,1,0,0:0:0:70:kick.wav
480,192,107208,1,0,0:0:0:0:
32,192,107208,1,0,0:0:0:70:crash.wav
224,192,107295,1,0,0:0:0:70:kick.wav
352,192,107295,1,0,0:0:0:0:
416,192,107382,1,0,0:0:0:0:
160,192,107382,1,0,0:0:0:70:kick.wav
224,192,107468,1,0,0:0:0:70:kick.wav
352,192,107468,1,0,0:0:0:0:
480,192,107555,1,0,0:0:0:0:
96,192,107642,1,0,0:0:0:70:kick.wav
288,192,107729,1,0,0:0:0:0:
96,192,107815,1,0,0:0:0:70:kick.wav
352,192,107815,1,0,0:0:0:0:
480,192,107902,1,0,0:0:0:0:
352,192,107989,1,0,0:0:0:0:
224,192,108075,1,0,0:0:0:0:
96,192,108162,1,0,0:0:0:70:kick.wav
288,192,108162,1,0,0:0:0:0:
416,192,108249,1,0,0:0:0:0:
96,192,108335,1,0,0:0:0:70:kick.wav
480,192,108422,1,0,0:0:0:0:
416,192,108509,1,0,0:0:0:0:
96,192,108509,1,0,0:0:0:70:kick.wav
288,192,108596,1,0,0:0:0:0:
224,192,108596,1,0,0:0:0:70:kick.wav
32,192,108596,1,0,0:0:0:70:crash.wav
96,192,108682,1,0,0:0:0:70:kick.wav
224,192,108769,1,0,0:0:0:70:kick.wav
416,192,108769,1,0,0:0:0:0:
96,192,108856,1,0,0:0:0:70:kick.wav
288,192,108856,1,0,0:0:0:0:
352,192,108942,1,0,0:0:0:0:
224,192,109029,1,0,0:0:0:0:
96,192,109029,1,0,0:0:0:70:kick.wav
416,192,109116,1,0,0:0:0:0:
416,192,109203,1,0,0:0:0:0:
96,192,109203,1,0,0:0:0:70:kick.wav
416,192,109289,1,0,0:0:0:0:
352,192,109376,1,0,0:0:0:0:
224,192,109463,1,0,0:0:0:0:
480,192,109549,1,0,0:0:0:0:
96,192,109549,1,0,0:0:0:70:kick.wav
288,192,109636,1,0,0:0:0:0:
416,192,109723,1,0,0:0:0:0:
96,192,109723,1,0,0:0:0:70:kick.wav
352,192,109809,1,0,0:0:0:0:
224,192,109809,1,0,0:0:0:70:kick.wav
480,192,109896,1,0,0:0:0:0:
96,192,109896,1,0,0:0:0:70:kick.wav
416,192,109983,1,0,0:0:0:0:
224,192,109983,1,0,0:0:0:70:kick.wav
32,192,109983,1,0,0:0:0:70:crash.wav
160,192,110026,1,0,0:0:0:70:kick.wav
96,192,110070,1,0,0:0:0:70:kick.wav
352,192,110070,1,0,0:0:0:0:
288,192,110113,1,0,0:0:0:70:kick.wav
224,192,110156,1,0,0:0:0:70:kick.wav
480,192,110156,1,0,0:0:0:0:
160,192,110243,1,0,0:0:0:70:kick.wav
416,192,110243,1,0,0:0:0:0:
352,192,110330,1,0,0:0:0:0:
96,192,110330,1,0,0:0:0:70:kick.wav
160,192,110416,1,0,0:0:0:70:kick.wav
416,192,110416,1,0,0:0:0:0:
224,192,110503,1,0,0:0:0:70:kick.wav
352,192,110503,1,0,0:0:0:0:
480,192,110590,1,0,0:0:0:0:
96,192,110590,1,0,0:0:0:70:kick.wav
352,192,110677,1,0,0:0:0:0:
160,192,110677,1,0,0:0:0:70:kick.wav
32,192,110677,1,0,0:0:0:70:crash.wav
288,192,110720,1,0,0:0:0:70:kick.wav
224,192,110763,1,0,0:0:0:70:kick.wav
416,192,110763,1,0,0:0:0:0:
160,192,110807,1,0,0:0:0:70:kick.wav
96,192,110850,1,0,0:0:0:70:kick.wav
480,192,110850,1,0,0:0:0:0:
288,192,110937,1,0,0:0:0:70:kick.wav
416,192,110937,1,0,0:0:0:0:
160,192,111023,1,0,0:0:0:70:kick.wav
352,192,111023,1,0,0:0:0:0:
224,192,111110,1,0,0:0:0:70:kick.wav
416,192,111110,1,0,0:0:0:0:
96,192,111197,1,0,0:0:0:0:
288,192,111197,1,0,0:0:0:70:kick.wav
224,192,111283,1,0,0:0:0:70:kick.wav
480,192,111283,1,0,0:0:0:0:
96,192,111370,1,0,0:0:0:0:
288,192,111370,1,0,0:0:0:70:kick.wav
32,192,111370,1,0,0:0:0:70:crash.wav
352,192,111414,1,0,0:0:0:70:kick.wav
416,192,111457,1,0,0:0:0:70:kick.wav
224,192,111457,1,0,0:0:0:0:
480,192,111500,1,0,0:0:0:70:kick.wav
160,192,111544,1,0,0:0:0:0:
288,192,111544,1,0,0:0:0:70:kick.wav
224,192,111630,1,0,0:0:0:0:
352,192,111630,1,0,0:0:0:70:kick.wav
416,192,111717,1,0,0:0:0:0:
288,192,111717,1,0,0:0:0:70:kick.wav
32,192,111717,1,0,0:0:0:70:crash.wav
224,192,111760,1,0,0:0:0:70:kick.wav
160,192,111804,1,0,0:0:0:70:kick.wav
352,192,111804,1,0,0:0:0:0:
96,192,111847,1,0,0:0:0:70:kick.wav
480,192,111890,1,0,0:0:0:0:
288,192,111890,1,0,0:0:0:70:kick.wav
416,192,111977,1,0,0:0:0:0:
224,192,111977,1,0,0:0:0:70:kick.wav
480,192,112064,1,0,0:0:0:0:
96,192,112064,1,0,0:0:0:70:kick.wav
32,192,112064,1,0,0:0:0:70:crash.wav
160,192,112107,1,0,0:0:0:70:kick.wav
224,192,112151,1,0,0:0:0:70:kick.wav
352,192,112151,1,0,0:0:0:0:
160,192,112237,1,0,0:0:0:0:
480,192,112237,1,0,0:0:0:70:kick.wav
416,192,112281,1,0,0:0:0:70:kick.wav
352,192,112324,1,0,0:0:0:70:kick.wav
96,192,112324,1,0,0:0:0:0:
416,192,112411,1,0,0:0:0:0:
288,192,112411,1,0,0:0:0:70:kick.wav
32,192,112411,1,0,0:0:0:70:crash.wav
224,192,112454,1,0,0:0:0:70:kick.wav
160,192,112497,1,0,0:0:0:70:kick.wav
96,192,112541,1,0,0:0:0:70:kick.wav
288,192,112584,1,0,0:0:0:70:kick.wav
480,192,112584,1,0,0:0:0:0:
224,192,112627,1,0,0:0:0:70:kick.wav
416,192,112627,1,0,0:0:0:0:
160,192,112671,1,0,0:0:0:70:kick.wav
352,192,112671,1,0,0:0:0:0:
96,192,112714,1,0,0:0:0:70:kick.wav
288,192,112714,1,0,0:0:0:0:
32,192,112757,1,0,0:0:0:70:crash.wav
480,192,112757,1,0,0:0:0:0:
224,192,112757,1,0,0:0:0:70:kick.wav
352,192,112757,1,0,0:0:0:0:
96,192,113451,1,0,0:0:0:0:
224,192,113538,1,0,0:0:0:0:
160,192,113624,1,0,0:0:0:0:
288,192,113711,1,0,0:0:0:0:
224,192,113798,1,0,0:0:0:0:
352,192,113885,1,0,0:0:0:0:
288,192,113971,1,0,0:0:0:0:
416,192,114058,1,0,0:0:0:0:
96,192,114838,1,0,0:0:0:0:
288,192,114925,1,0,0:0:0:0:
160,192,115012,1,0,0:0:0:0:
352,192,115098,1,0,0:0:0:0:
224,192,115185,1,0,0:0:0:0:
416,192,115272,1,0,0:0:0:0:
288,192,115359,1,0,0:0:0:0:
96,192,115359,1,0,0:0:0:0:
352,192,115445,1,0,0:0:0:0:
160,192,115445,1,0,0:0:0:0:
288,192,115532,1,0,0:0:0:0:
480,192,115532,1,0,0:0:0:0:
96,192,116226,1,0,0:0:0:0:
224,192,116312,1,0,0:0:0:0:
160,192,116399,1,0,0:0:0:0:
352,192,116486,1,0,0:0:0:0:
224,192,116572,1,0,0:0:0:0:
416,192,116659,1,0,0:0:0:0:
288,192,116746,1,0,0:0:0:0:
480,192,116833,1,0,0:0:0:0:
96,192,117613,1,0,0:0:0:0:
224,192,117700,1,0,0:0:0:0:
352,192,117786,1,0,0:0:0:0:
480,192,117873,1,0,0:0:0:0:
416,192,117960,1,0,0:0:0:0:
288,192,118046,1,0,0:0:0:0:
160,192,118133,1,0,0:0:0:0:
96,192,118220,1,0,0:0:0:0:
