osu file format v14

[General]
AudioFilename: audio.mp3
AudioLeadIn: 0
PreviewTime: 78075
Countdown: 0
SampleSet: Soft
StackLeniency: 0.7
Mode: 3
LetterboxInBreaks: 0
SpecialStyle: 1
WidescreenStoryboard: 0

[Editor]
Bookmarks: 23971,35070,46168,57266,68364
DistanceSpacing: 1.2
BeatDivisor: 4
GridSize: 32
TimelineZoom: 2.3

[Metadata]
Title:Vajra
TitleUnicode:伐折羅-vajra-
Artist:DJ TOTTO VS TOTTO
ArtistUnicode:DJ TOTTO VS 兎々
Creator:biemote
Version:DJ Emiria VS Biemote's 8K Normal
Source:REFLEC BEAT groovin'!! Upper
Tags:victorica_db [emiria]
BeatmapID:948792
BeatmapSetID:432015

[Difficulty]
HPDrainRate:7
CircleSize:8
OverallDifficulty:7
ApproachRate:5
SliderMultiplier:1.4
SliderTickRate:1

[Events]
//Background and Video events
0,0,"BG.jpg",0,0
//Break Periods
//Storyboard Layer 0 (Background)
//Storyboard Layer 1 (Fail)
//Storyboard Layer 2 (Pass)
//Storyboard Layer 3 (Foreground)
//Storyboard Sound Samples

[TimingPoints]
388,346.820809248555,4,2,1,30,1,0
79463,-100,4,2,1,30,0,1
89694,-100,4,2,1,30,0,0
90561,-100,4,2,1,30,0,1
112757,-100,4,2,1,30,0,0

[HitObjects]
32,192,388,5,0,0:0:0:70:crash.wav
224,192,388,1,0,0:0:0:70:kick.wav
480,192,388,1,0,0:0:0:0:
96,192,734,1,0,0:0:0:70:kick.wav
224,192,1775,1,0,0:0:0:70:kick.wav
96,192,2122,1,0,0:0:0:70:kick.wav
32,192,3162,1,0,0:0:0:70:crash.wav
224,192,3162,1,0,0:0:0:70:kick.wav
96,192,3509,1,0,0:0:0:70:kick.wav
224,192,4549,1,0,0:0:0:70:kick.wav
96,192,4896,1,0,0:0:0:70:kick.wav
32,192,5937,1,0,0:0:0:70:crash.wav
224,192,5937,1,0,0:0:0:70:kick.wav
96,192,6283,1,0,0:0:0:70:kick.wav
224,192,7324,1,0,0:0:0:70:kick.wav
96,192,7671,1,0,0:0:0:70:kick.wav
32,192,8711,1,0,0:0:0:70:crash.wav
224,192,8711,1,0,0:0:0:70:kick.wav
96,192,9058,1,0,0:0:0:70:kick.wav
224,192,10098,1,0,0:0:0:70:kick.wav
96,192,10445,1,0,0:0:0:70:kick.wav
32,192,10792,1,0,0:0:0:0:
32,192,11486,1,0,0:0:0:70:crash.wav
96,192,11486,1,0,0:0:0:70:kick.wav
480,192,11486,1,0,0:0:0:0:
96,192,11833,1,0,0:0:0:70:kick.wav
224,192,11833,1,0,0:0:0:0:
480,192,12873,1,0,0:0:0:70:kick.wav
96,192,12873,1,0,0:0:0:0:
96,192,13220,1,0,0:0:0:70:kick.wav
224,192,13220,1,0,0:0:0:0:
96,192,14260,1,0,0:0:0:70:crash.wav
32,192,14260,1,0,0:0:0:70:kick.wav
480,192,14260,1,0,0:0:0:0:
96,192,14607,1,0,0:0:0:70:kick.wav
224,192,14607,1,0,0:0:0:0:
352,192,15648,1,0,0:0:0:70:kick.wav
96,192,15648,1,0,0:0:0:0:
96,192,15994,1,0,0:0:0:70:kick.wav
224,192,15994,1,0,0:0:0:0:
480,192,17035,1,0,0:0:0:70:crash.wav
32,192,17035,1,0,0:0:0:70:kick.wav
96,192,17035,1,0,0:0:0:0:
96,192,17382,1,0,0:0:0:70:kick.wav
224,192,17382,1,0,0:0:0:0:
32,192,18422,1,0,0:0:0:70:crash.wav
96,192,18422,1,0,0:0:0:70:kick.wav
480,192,18422,1,0,0:0:0:0:
96,192,18769,1,0,0:0:0:70:kick.wav
224,192,18769,1,0,0:0:0:0:
96,192,19809,1,0,0:0:0:70:kick.wav
480,192,19809,1,0,0:0:0:0:
160,192,19983,1,0,0:0:0:70:kick.wav
416,192,19983,1,0,0:0:0:0:
160,192,20330,1,0,0:0:0:70:kick.wav
416,192,20330,1,0,0:0:0:0:
96,192,20503,1,0,0:0:0:70:kick.wav
352,192,20503,1,0,0:0:0:0:
224,192,20850,1,0,0:0:0:70:kick.wav
480,192,20850,1,0,0:0:0:0:
416,192,21023,1,0,0:0:0:70:kick.wav
160,192,21023,1,0,0:0:0:0:
160,192,21370,1,0,0:0:0:70:kick.wav
480,192,21370,1,0,0:0:0:0:
96,192,21544,1,0,0:0:0:70:kick.wav
416,192,21544,1,0,0:0:0:0:
480,192,21890,1,0,0:0:0:70:crash.wav
96,192,21890,1,0,0:0:0:70:kick.wav
352,192,22064,1,0,0:0:0:70:kick.wav
288,192,22237,1,0,0:0:0:70:kick.wav
160,192,22411,1,0,0:0:0:70:kick.wav
96,192,22584,1,0,0:0:0:70:crash.wav
480,192,22584,1,0,0:0:0:70:kick.wav
96,192,23971,1,0,0:0:0:70:crash.wav
32,192,23971,1,0,0:0:0:70:kick.wav
96,192,24318,1,0,0:0:0:70:kick.wav
480,192,24318,1,0,0:0:0:0:
224,192,24665,1,0,0:0:0:70:kick.wav
96,192,25012,1,0,0:0:0:70:kick.wav
416,192,25012,1,0,0:0:0:0:
224,192,25359,1,0,0:0:0:70:kick.wav
96,192,25705,1,0,0:0:0:70:kick.wav
480,192,25705,1,0,0:0:0:0:
224,192,26052,1,0,0:0:0:70:kick.wav
96,192,26399,1,0,0:0:0:70:kick.wav
480,192,26399,1,0,0:0:0:0:
32,192,26746,1,0,0:0:0:70:crash.wav
224,192,26746,1,0,0:0:0:70:kick.wav
224,192,27093,1,0,0:0:0:70:kick.wav
480,192,27093,1,0,0:0:0:0:
96,192,27440,1,0,0:0:0:70:kick.wav
224,192,27786,1,0,0:0:0:70:kick.wav
352,192,27786,1,0,0:0:0:0:
96,192,28133,1,0,0:0:0:70:crash.wav
96,192,28480,1,0,0:0:0:70:kick.wav
480,192,28480,1,0,0:0:0:0:
96,192,28827,1,0,0:0:0:70:kick.wav
32,192,28827,1,0,0:0:0:0:
480,192,28827,1,0,0:0:0:0:
352,192,29000,1,0,0:0:0:70:kick.wav
96,192,29174,1,0,0:0:0:70:kick.wav
352,192,29347,1,0,0:0:0:70:kick.wav
32,192,29520,1,0,0:0:0:70:crash.wav
96,192,29520,1,0,0:0:0:70:kick.wav
160,192,29867,1,0,0:0:0:70:kick.wav
416,192,29867,1,0,0:0:0:0:
224,192,30214,1,0,0:0:0:70:kick.wav
96,192,30561,1,0,0:0:0:70:kick.wav
352,192,30561,1,0,0:0:0:0:
224,192,30908,1,0,0:0:0:70:crash.wav
96,192,31255,1,0,0:0:0:70:kick.wav
480,192,31255,1,0,0:0:0:0:
224,192,31601,1,0,0:0:0:70:kick.wav
96,192,31948,1,0,0:0:0:70:kick.wav
480,192,31948,1,0,0:0:0:0:
224,192,32122,1,0,0:0:0:70:kick.wav
32,192,32295,1,0,0:0:0:70:crash.wav
96,192,32295,1,0,0:0:0:70:kick.wav
480,192,32295,1,0,0:0:0:0:
96,192,32642,1,0,0:0:0:70:kick.wav
352,192,32642,1,0,0:0:0:0:
224,192,32989,1,0,0:0:0:70:crash.wav
96,192,33335,1,0,0:0:0:70:kick.wav
480,192,33335,1,0,0:0:0:0:
416,192,33682,1,0,0:0:0:70:crash.wav
288,192,33856,1,0,0:0:0:70:crash.wav
160,192,34029,1,0,0:0:0:70:crash.wav
416,192,34289,1,0,0:0:0:70:crash.wav
224,192,34463,1,0,0:0:0:70:crash.wav
96,192,34723,1,0,0:0:0:70:crash.wav
288,192,34896,1,0,0:0:0:70:kick.wav
480,192,35070,1,0,0:0:0:70:crash.wav
32,192,35070,1,0,0:0:0:70:kick.wav
96,192,35416,1,0,0:0:0:70:kick.wav
352,192,35416,1,0,0:0:0:0:
96,192,35763,1,0,0:0:0:70:kick.wav
224,192,36110,1,0,0:0:0:70:kick.wav
480,192,36110,1,0,0:0:0:0:
96,192,36457,1,0,0:0:0:70:kick.wav
224,192,36804,1,0,0:0:0:70:kick.wav
480,192,36804,1,0,0:0:0:0:
224,192,37151,1,0,0:0:0:70:kick.wav
480,192,37497,1,0,0:0:0:70:kick.wav
96,192,37497,1,0,0:0:0:0:
32,192,37844,1,0,0:0:0:70:crash.wav
480,192,37844,1,0,0:0:0:70:kick.wav
96,192,37844,1,0,0:0:0:0:
416,192,38191,1,0,0:0:0:70:kick.wav
96,192,38191,1,0,0:0:0:0:
224,192,38538,1,0,0:0:0:70:kick.wav
96,192,38885,1,0,0:0:0:70:kick.wav
288,192,38885,1,0,0:0:0:0:
96,192,39231,1,0,0:0:0:70:crash.wav
32,192,39231,1,0,0:0:0:70:kick.wav
480,192,39578,1,0,0:0:0:70:crash.wav
96,192,39578,1,0,0:0:0:70:kick.wav
32,192,39925,1,0,0:0:0:70:crash.wav
352,192,39925,1,0,0:0:0:70:kick.wav
288,192,40185,1,0,0:0:0:70:kick.wav
32,192,40272,1,0,0:0:0:70:crash.wav
224,192,40445,1,0,0:0:0:70:kick.wav
96,192,40619,1,0,0:0:0:70:crash.wav
32,192,40619,1,0,0:0:0:70:kick.wav
288,192,40966,1,0,0:0:0:70:kick.wav
480,192,40966,1,0,0:0:0:0:
96,192,41312,1,0,0:0:0:70:kick.wav
480,192,41659,1,0,0:0:0:70:kick.wav
224,192,41659,1,0,0:0:0:0:
96,192,42006,1,0,0:0:0:70:crash.wav
32,192,42006,1,0,0:0:0:70:kick.wav
96,192,42353,1,0,0:0:0:70:kick.wav
416,192,42353,1,0,0:0:0:0:
224,192,42700,1,0,0:0:0:70:kick.wav
480,192,43046,1,0,0:0:0:70:kick.wav
96,192,43046,1,0,0:0:0:0:
352,192,43220,1,0,0:0:0:70:kick.wav
32,192,43393,1,0,0:0:0:70:crash.wav
224,192,43393,1,0,0:0:0:70:kick.wav
416,192,43567,1,0,0:0:0:70:kick.wav
160,192,43740,1,0,0:0:0:70:kick.wav
288,192,43914,1,0,0:0:0:70:kick.wav
32,192,44087,1,0,0:0:0:70:crash.wav
96,192,44087,1,0,0:0:0:70:kick.wav
288,192,44260,1,0,0:0:0:70:kick.wav
32,192,44434,1,0,0:0:0:70:crash.wav
160,192,44434,1,0,0:0:0:70:kick.wav
352,192,44607,1,0,0:0:0:70:kick.wav
32,192,44781,1,0,0:0:0:70:crash.wav
480,192,44781,1,0,0:0:0:70:kick.wav
288,192,44954,1,0,0:0:0:70:kick.wav
96,192,45127,1,0,0:0:0:70:kick.wav
32,192,45127,1,0,0:0:0:70:crash.wav
352,192,45301,1,0,0:0:0:70:kick.wav
96,192,45474,128,0,46168:0:0:0:0:
480,192,46168,1,0,0:0:0:70:crash.wav
224,192,46168,1,0,0:0:0:70:kick.wav
96,192,46515,1,0,0:0:0:70:kick.wav
352,192,46515,1,0,0:0:0:0:
96,192,47555,1,0,0:0:0:70:kick.wav
480,192,47555,1,0,0:0:0:0:
160,192,47902,1,0,0:0:0:70:kick.wav
416,192,47902,1,0,0:0:0:0:
32,192,48249,1,0,0:0:0:0:
480,192,48942,1,0,0:0:0:70:kick.wav
160,192,48942,1,0,0:0:0:0:
96,192,49289,1,0,0:0:0:70:kick.wav
416,192,49289,1,0,0:0:0:0:
160,192,50330,1,0,0:0:0:70:kick.wav
416,192,50330,1,0,0:0:0:0:
224,192,50677,1,0,0:0:0:70:kick.wav
480,192,50677,1,0,0:0:0:0:
32,192,51023,1,0,0:0:0:0:
480,192,51717,1,0,0:0:0:70:kick.wav
96,192,51717,1,0,0:0:0:0:
416,192,52064,1,0,0:0:0:70:kick.wav
160,192,52064,1,0,0:0:0:0:
480,192,53104,1,0,0:0:0:70:kick.wav
96,192,53104,1,0,0:0:0:0:
352,192,53451,1,0,0:0:0:70:kick.wav
160,192,53451,1,0,0:0:0:0:
32,192,53798,1,0,0:0:0:0:
416,192,54492,1,0,0:0:0:70:kick.wav
96,192,54492,1,0,0:0:0:0:
352,192,54838,1,0,0:0:0:70:kick.wav
160,192,54838,1,0,0:0:0:0:
416,192,55879,1,0,0:0:0:70:kick.wav
224,192,55879,1,0,0:0:0:0:
160,192,56226,1,0,0:0:0:70:kick.wav
352,192,56226,1,0,0:0:0:0:
32,192,56572,1,0,0:0:0:0:
160,192,57266,1,0,0:0:0:70:crash.wav
416,192,57266,1,0,0:0:0:70:kick.wav
96,192,57613,1,0,0:0:0:70:kick.wav
288,192,57613,1,0,0:0:0:0:
32,192,57960,1,0,0:0:0:70:crash.wav
416,192,58653,1,0,0:0:0:70:kick.wav
224,192,58653,1,0,0:0:0:0:
352,192,59000,1,0,0:0:0:70:kick.wav
160,192,59000,1,0,0:0:0:0:
32,192,59347,1,0,0:0:0:0:
96,192,60041,1,0,0:0:0:70:crash.wav
480,192,60041,1,0,0:0:0:70:kick.wav
160,192,60388,1,0,0:0:0:70:kick.wav
352,192,60388,1,0,0:0:0:0:
32,192,60734,1,0,0:0:0:0:
480,192,61428,1,0,0:0:0:70:crash.wav
224,192,61428,1,0,0:0:0:70:kick.wav
416,192,61775,1,0,0:0:0:70:kick.wav
160,192,61775,1,0,0:0:0:0:
32,192,62122,1,0,0:0:0:70:crash.wav
160,192,62815,1,0,0:0:0:70:crash.wav
416,192,62815,1,0,0:0:0:70:kick.wav
224,192,63162,1,0,0:0:0:70:kick.wav
352,192,63162,1,0,0:0:0:0:
32,192,63509,1,0,0:0:0:0:
160,192,64203,1,0,0:0:0:70:crash.wav
480,192,64203,1,0,0:0:0:70:kick.wav
160,192,64549,1,0,0:0:0:70:kick.wav
416,192,64549,1,0,0:0:0:0:
32,192,64896,1,0,0:0:0:0:
224,192,65590,1,0,0:0:0:70:crash.wav
480,192,65590,1,0,0:0:0:70:kick.wav
416,192,65937,1,0,0:0:0:70:kick.wav
160,192,65937,1,0,0:0:0:0:
32,192,66283,1,0,0:0:0:0:
160,192,66977,1,0,0:0:0:0:
416,192,66977,1,0,0:0:0:0:
480,192,67671,1,0,0:0:0:0:
224,192,67671,1,0,0:0:0:0:
32,192,67671,1,0,0:0:0:0:
352,192,68364,1,0,0:0:0:70:crash.wav
32,192,68364,1,0,0:0:0:0:
480,192,68364,1,0,0:0:0:0:
160,192,68538,1,0,0:0:0:0:
352,192,68711,1,0,0:0:0:0:
224,192,68885,1,0,0:0:0:0:
160,192,69231,1,0,0:0:0:0:
288,192,69405,1,0,0:0:0:0:
416,192,69578,1,0,0:0:0:0:
480,192,71139,1,0,0:0:0:70:crash.wav
224,192,71312,1,0,0:0:0:0:
416,192,71486,1,0,0:0:0:0:
160,192,71659,1,0,0:0:0:0:
96,192,72006,1,0,0:0:0:0:
224,192,72179,1,0,0:0:0:0:
416,192,72353,1,0,0:0:0:0:
32,192,73914,1,0,0:0:0:70:crash.wav
480,192,73914,1,0,0:0:0:0:
224,192,74087,1,0,0:0:0:0:
96,192,74260,1,0,0:0:0:0:
352,192,74434,1,0,0:0:0:0:
96,192,74781,1,0,0:0:0:0:
224,192,74954,1,0,0:0:0:0:
352,192,75127,1,0,0:0:0:0:
32,192,76688,1,0,0:0:0:70:crash.wav
96,192,76688,1,0,0:0:0:70:kick.wav
480,192,76688,1,0,0:0:0:0:
288,192,76688,1,0,0:0:0:0:
96,192,78075,1,0,0:0:0:0:
224,192,78769,1,0,0:0:0:0:
32,192,79463,1,0,0:0:0:0:
96,192,79463,128,0,80156:0:0:0:0:
480,192,80156,1,0,0:0:0:0:
352,192,80503,1,0,0:0:0:0:
480,192,80850,128,0,81544:0:0:0:0:
96,192,81544,1,0,0:0:0:0:
288,192,81890,1,0,0:0:0:0:
416,192,82237,128,0,82671:0:0:0:0:
96,192,82237,1,0,0:0:0:0:
224,192,82757,1,0,0:0:0:0:
416,192,82931,1,0,0:0:0:0:
288,192,83104,1,0,0:0:0:0:
480,192,83278,1,0,0:0:0:0:
416,192,83451,1,0,0:0:0:0:
288,192,83624,1,0,0:0:0:0:
160,192,83798,1,0,0:0:0:0:
96,192,83971,1,0,0:0:0:0:
160,192,84318,1,0,0:0:0:0:
288,192,84405,1,0,0:0:0:0:
416,192,84492,1,0,0:0:0:0:
224,192,84665,1,0,0:0:0:0:
416,192,84838,1,0,0:0:0:0:
160,192,85012,128,0,85532:0:0:0:0:
416,192,85532,1,0,0:0:0:0:
288,192,85619,1,0,0:0:0:0:
416,192,85705,1,0,0:0:0:0:
224,192,85879,1,0,0:0:0:0:
96,192,86052,1,0,0:0:0:0:
224,192,86226,1,0,0:0:0:0:
352,192,86399,1,0,0:0:0:0:
224,192,86572,1,0,0:0:0:0:
96,192,86746,1,0,0:0:0:0:
416,192,87093,1,0,0:0:0:0:
224,192,87266,1,0,0:0:0:0:
416,192,87440,1,0,0:0:0:0:
224,192,87613,1,0,0:0:0:0:
480,192,87786,128,0,88480:0:0:0:0:
352,192,88480,1,0,0:0:0:0:
224,192,88567,1,0,0:0:0:0:
96,192,88653,1,0,0:0:0:0:
480,192,88827,1,0,0:0:0:0:
352,192,89000,1,0,0:0:0:0:
288,192,89174,128,0,89867:0:0:0:0:
96,192,89867,1,0,0:0:0:0:
224,192,90214,1,0,0:0:0:0:
288,192,90561,128,0,91255:0:0:0:0:
160,192,91255,1,0,0:0:0:0:
288,192,91601,1,0,0:0:0:0:
96,192,91948,128,0,92642:0:0:0:0:
480,192,92642,1,0,0:0:0:0:
288,192,92989,1,0,0:0:0:0:
416,192,93335,128,0,93856:0:0:0:0:
160,192,93856,1,0,0:0:0:0:
288,192,94029,1,0,0:0:0:0:
416,192,94203,1,0,0:0:0:0:
288,192,94376,1,0,0:0:0:0:
224,192,94549,1,0,0:0:0:0:
352,192,94636,1,0,0:0:0:0:
480,192,94723,1,0,0:0:0:0:
352,192,94896,1,0,0:0:0:0:
224,192,95070,128,0,95416:0:0:0:0:
480,192,95416,1,0,0:0:0:0:
352,192,95503,1,0,0:0:0:0:
224,192,95590,1,0,0:0:0:0:
96,192,95763,1,0,0:0:0:0:
352,192,95937,1,0,0:0:0:0:
96,192,96110,128,0,96630:0:0:0:0:
352,192,96630,1,0,0:0:0:0:
224,192,96717,1,0,0:0:0:0:
96,192,96804,1,0,0:0:0:0:
288,192,96977,1,0,0:0:0:0:
416,192,97151,1,0,0:0:0:0:
160,192,97324,1,0,0:0:0:0:
416,192,97497,1,0,0:0:0:0:
352,192,97757,1,0,0:0:0:0:
160,192,98018,1,0,0:0:0:0:
288,192,98191,1,0,0:0:0:0:
96,192,98364,1,0,0:0:0:0:
352,192,98538,1,0,0:0:0:0:
160,192,98711,1,0,0:0:0:0:
288,192,98885,128,0,99925:0:0:0:0:
96,192,99925,1,0,0:0:0:0:
96,192,100272,1,0,0:0:0:70:crash.wav
480,192,100272,1,0,0:0:0:0:
96,192,100792,1,0,0:0:0:0:
224,192,100879,1,0,0:0:0:0:
352,192,100966,1,0,0:0:0:0:
288,192,101139,1,0,0:0:0:0:
160,192,101312,1,0,0:0:0:0:
352,192,101486,1,0,0:0:0:0:
32,192,101659,1,0,0:0:0:70:crash.wav
480,192,101659,1,0,0:0:0:70:kick.wav
96,192,101659,1,0,0:0:0:0:
352,192,101746,1,0,0:0:0:70:kick.wav
224,192,101833,1,0,0:0:0:70:kick.wav
352,192,101919,1,0,0:0:0:70:kick.wav
96,192,102093,1,0,0:0:0:70:kick.wav
288,192,102266,1,0,0:0:0:70:kick.wav
416,192,102613,1,0,0:0:0:70:kick.wav
160,192,102786,1,0,0:0:0:70:kick.wav
352,192,102960,1,0,0:0:0:70:kick.wav
224,192,103046,1,0,0:0:0:70:kick.wav
352,192,103133,1,0,0:0:0:70:kick.wav
224,192,103220,1,0,0:0:0:70:kick.wav
352,192,103307,1,0,0:0:0:70:kick.wav
160,192,103480,1,0,0:0:0:70:kick.wav
416,192,103653,1,0,0:0:0:70:kick.wav
352,192,104000,1,0,0:0:0:70:kick.wav
96,192,104174,1,0,0:0:0:70:kick.wav
224,192,104260,1,0,0:0:0:70:kick.wav
96,192,104347,1,0,0:0:0:70:kick.wav
224,192,104434,1,0,0:0:0:70:kick.wav
352,192,104520,1,0,0:0:0:70:kick.wav
224,192,104607,1,0,0:0:0:70:kick.wav
352,192,104694,1,0,0:0:0:70:kick.wav
288,192,104867,1,0,0:0:0:70:kick.wav
160,192,105041,1,0,0:0:0:70:kick.wav
352,192,105388,1,0,0:0:0:70:kick.wav
160,192,105561,1,0,0:0:0:70:kick.wav
352,192,105734,1,0,0:0:0:70:kick.wav
224,192,105821,1,0,0:0:0:70:kick.wav
96,192,105908,1,0,0:0:0:70:kick.wav
224,192,106081,1,0,0:0:0:70:kick.wav
352,192,106255,1,0,0:0:0:70:kick.wav
96,192,106341,1,0,0:0:0:70:kick.wav
352,192,106428,1,0,0:0:0:70:kick.wav
96,192,106515,1,0,0:0:0:70:kick.wav
32,192,106688,1,0,0:0:0:70:kick.wav
352,192,106861,1,0,0:0:0:70:kick.wav
32,192,107035,1,0,0:0:0:70:kick.wav
352,192,107208,1,0,0:0:0:70:kick.wav
160,192,107295,1,0,0:0:0:70:kick.wav
416,192,107382,1,0,0:0:0:70:kick.wav
224,192,107468,1,0,0:0:0:70:kick.wav
224,192,107642,1,0,0:0:0:70:kick.wav
224,192,107815,1,0,0:0:0:70:kick.wav
288,192,108162,1,0,0:0:0:70:kick.wav
288,192,108335,1,0,0:0:0:70:kick.wav
96,192,108509,1,0,0:0:0:70:kick.wav
352,192,108596,1,0,0:0:0:70:kick.wav
96,192,108682,1,0,0:0:0:70:kick.wav
352,192,108769,1,0,0:0:0:70:kick.wav
96,192,108856,1,0,0:0:0:70:kick.wav
288,192,109029,1,0,0:0:0:70:kick.wav
288,192,109203,1,0,0:0:0:70:kick.wav
288,192,109549,1,0,0:0:0:70:kick.wav
224,192,109723,1,0,0:0:0:70:kick.wav
352,192,109809,1,0,0:0:0:70:kick.wav
224,192,109896,1,0,0:0:0:70:kick.wav
352,192,109983,1,0,0:0:0:70:kick.wav
288,192,110156,1,0,0:0:0:70:kick.wav
160,192,110330,1,0,0:0:0:70:kick.wav
416,192,110677,1,0,0:0:0:70:kick.wav
288,192,110850,1,0,0:0:0:70:kick.wav
160,192,111023,1,0,0:0:0:70:kick.wav
416,192,111110,1,0,0:0:0:70:kick.wav
160,192,111197,1,0,0:0:0:70:kick.wav
352,192,111370,1,0,0:0:0:70:kick.wav
224,192,111544,1,0,0:0:0:70:kick.wav
96,192,111717,1,0,0:0:0:70:kick.wav
352,192,111890,1,0,0:0:0:70:kick.wav
160,192,112064,1,0,0:0:0:70:kick.wav
416,192,112237,1,0,0:0:0:70:kick.wav
224,192,112411,1,0,0:0:0:70:kick.wav
352,192,112584,1,0,0:0:0:70:kick.wav
32,192,112757,1,0,0:0:0:70:crash.wav
96,192,112757,1,0,0:0:0:70:kick.wav
480,192,112757,1,0,0:0:0:0:
